找回密码

蓝光电影网

查看: 755|回复: 18

[10bit.SDR] 速度与激情:特别行动 Fast.and.Furious.Presents.Hobbs.and.Shaw.2019.2160p.BluRay.x265.10bit.SDR.DTS-HD.MA.TrueHD.7.1.Atmos-SWTYBLZ 39.01GB

[复制链接]

 成长值: 23215

发表于 2019-10-27 12:15:37 | 显示全部楼层 |阅读模式
速度与激情:特别行动 Fast.and.Furious.Presents.Hobbs.and.Shaw.2019.2160p.BluRay.x265.10bit.SDR.DTS-HD.MA.TrueHD.7.1.Atmos-SWTYBLZ 39.01GB-1.png

译  名 速度与激情:特别行动 / Hobbs and Shaw / The Fast and the Furious Spinoff / 狂野时速:双雄联盟(港) / 玩命关头:特别行动(台) / 速度与基情(豆友译名) / 速度与激情外传 / 速度与激情衍生片 / 霍布斯与肖
片  名 Fast & Furious Presents: Hobbs & Shaw
年  代 2019
产  地 美国
类  别 动作 / 犯罪
语  言 英语
上映日期 2019-08-02(美国) / 2019-08-23(中国大陆)
IMDb评分  6.8/10 from 64451 users
IMDb链接  http://www.imdb.com/title/tt6806448
豆瓣评分 6.4/10 from 122826 users
豆瓣链接 https://movie.douban.com/subject/27163278/
片  长 137分钟
导  演 大卫·雷奇 David Leitch
编  剧 克里斯·摩根 Chris Morgan / 盖瑞·斯科特·汤普森 Gary Scott Thompson / 德鲁·皮尔斯 Drew Pearce
主  演 道恩·强森 Dwayne Johnson
       杰森·斯坦森 Jason Statham
       伊德里斯·艾尔巴 Idris Elba
       凡妮莎·柯比 Vanessa Kirby
       艾莎·冈萨雷斯 Eiza González
       海伦·米伦 Helen Mirren
       瑞恩·雷诺兹 Ryan Reynolds
       凯文·哈特 Kevin Hart
       埃迪·马森 Eddie Marsan
       罗曼·雷恩斯 Roman Reigns
       斯蒂芬妮·沃格特 Stephanie Vogt
       维克托里娅·菲斯 Viktorija Faith
       康兰·卡萨尔 Conlan Casal
       海伦娜·福尔摩斯 Helena Holmes
       伯纳多·桑托斯 Bernardo Santos
       露丝·霍洛克斯 Ruth Horrocks
       大卫·穆梅尼 David Mumeni
       马诺伊·阿南德 Manoj Anand
       阿玛尔·阿达蒂亚 Amar Adatia
       朱利安·费罗 Julian Ferro
       丹尼尔·厄根 Daniel Eghan
       拉普洛斯·卡伦福佐斯 Lampros Kalfuntzos
       阿克塞尔·努 Axel Nu
       史蒂夫·莱温顿 Steve Lewington
       安东尼奥·曼奇诺 Antonio Mancino
       斯特拉·斯托克尔 Stella Stocker
       克利夫·柯蒂斯 Cliff Curtis


标  签 动作 | 速度与激情:特别行动 | 美国 | 飙车 | 2019 | 犯罪 | 冒险 | 赛车

简  介  

  一个是美国外交安全局的忠诚特工、身材魁梧的执法者霍布斯(强森饰),一个是前英国军事特工精英、无法无天的恶棍肖(斯坦森饰)。在2015年的《速度与激情7》中首次对峙之后,两人不论言语还是肢体都冲突不断,一直试图打倒对方。
  然而,通过高科技进行了基因增强的无政府主义者布里克斯顿(伊德瑞斯·艾尔巴饰)控制了一种可能永远改变人类命运的不为人知的生化武器,并且还打败了一位大胆优秀又特立独行的军情六处特工(曾出演《王冠》的凡妮莎·科比饰)——她恰好是肖的妹妹,为了扳倒这个世界上唯一可能比他们更厉害的敌人,这两个不共戴天的宿敌不得不联手。
  《速度与激情:特别行动》一片在《速度与激情》系列的宇宙中推开了一扇全新的大门。从洛杉矶到伦敦,从切尔诺贝利的有毒废墟到美丽的南太平洋岛国萨摩亚,本次特别行动席卷全球。
  该片由大卫·雷奇执导(《死侍2》导演),由《速度与激情》系列故事的缔造者克里斯·摩根编剧,摩根、强森、斯坦森和海拉姆·加西亚共同担纲制片。丹尼·加西亚、凯利·麦考密克、 、史蒂文·查斯曼、伊森·史密斯和安斯利·戴维斯担任监制。
  1. Video
  2. ID                                       : 1
  3. Format                                   : HEVC
  4. Format/Info                              : High Efficiency Video Coding
  5. Format profile                           : Main High@L4@High
  6. Codec ID                                 : V_MPEGH/ISO/HEVC
  7. Duration                                 : 2 h 16 min
  8. Bit rate                                 : 33.0 Mb/s
  9. Width                                    : 3 840 pixels
  10. Height                                   : 1 606 pixels
  11. Display aspect ratio                     : 2.40:1
  12. Frame rate mode                          : Constant
  13. Frame rate                               : 23.976 (24000/1001) FPS
  14. Color space                              : YUV
  15. Chroma subsampling                       : 4:2:0
  16. Bit depth                                : 10 bits
  17. Bits/(Pixel*Frame)                       : 0.223
  18. Stream size                              : 31.5 GiB (81%)
  19. Title                                    : Fast.and.Furious.Presents.Hobbs.and.Shaw.2019.2160p.BluRay.x265.10bit.SDR.DTS-HD.MA.TrueHD.7.1.Atmos-SWTYBLZ
  20. Writing library                          : x265 3.0ed72af837053:[Windows][GCC 8.2.0][64 bit] 10bit
  21. Encoding settings                        : cpuid=1111039 / frame-threads=16 / numa-pools=44,44 / wpp / no-pmode / no-pme / no-psnr / no-ssim / log-level=2 / input-csp=1 / input-res=3840x1606 / interlace=0 / total-frames=196646 / level-idc=51 / high-tier=1 / uhd-bd=0 / ref=3 / no-allow-non-conformance / repeat-headers / annexb / aud / hrd / info / hash=0 / no-temporal-layers / no-open-gop / min-keyint=1 / keyint=24 / gop-lookahead=0 / bframes=4 / b-adapt=2 / b-pyramid / bframe-bias=0 / rc-lookahead=25 / lookahead-slices=4 / scenecut=40 / radl=0 / no-splice / no-intra-refresh / ctu=64 / min-cu-size=8 / no-rect / no-amp / max-tu-size=32 / tu-inter-depth=1 / tu-intra-depth=1 / limit-tu=0 / rdoq-level=0 / dynamic-rd=0.00 / no-ssim-rd / signhide / no-tskip / nr-intra=0 / nr-inter=0 / no-constrained-intra / strong-intra-smoothing / max-merge=2 / limit-refs=3 / no-limit-modes / me=1 / subme=2 / merange=57 / temporal-mvp / weightp / no-weightb / no-analyze-src-pics / deblock=0:0 / no-sao / no-sao-non-deblock / rd=3 / no-early-skip / rskip / no-fast-intra / no-tskip-fast / no-cu-lossless / no-b-intra / no-splitrd-skip / rdpenalty=0 / psy-rd=2.00 / psy-rdoq=0.00 / no-rd-refine / no-lossless / cbqpoffs=0 / crqpoffs=0 / rc=crf / crf=16.0 / qcomp=0.60 / qpstep=4 / stats-write=0 / stats-read=0 / vbv-maxrate=160000 / vbv-bufsize=160000 / vbv-init=0.9 / crf-max=0.0 / crf-min=0.0 / ipratio=1.40 / pbratio=1.30 / aq-mode=1 / aq-strength=1.00 / cutree / zone-count=0 / no-strict-cbr / qg-size=32 / no-rc-grain / qpmax=69 / qpmin=0 / no-const-vbv / sar=1 / overscan=0 / videoformat=5 / range=0 / colorprim=2 / transfer=2 / colormatrix=2 / chromaloc=0 / display-window=0 / max-cll=0,0 / min-luma=0 / max-luma=1023 / log2-max-poc-lsb=8 / vui-timing-info / vui-hrd-info / slices=1 / opt-qp-pps / opt-ref-list-length-pps / no-multi-pass-opt-rps / scenecut-bias=0.05 / no-opt-cu-delta-qp / no-aq-motion / no-hdr / no-hdr-opt / no-dhdr10-opt / no-idr-recovery-sei / analysis-reuse-level=5 / scale-factor=0 / refine-intra=0 / refine-inter=0 / refine-mv=0 / refine-ctu-distortion=0 / no-limit-sao / ctu-info=0 / no-lowpass-dct / refine-analysis-type=0 / copy-pic=1 / max-ausize-factor=1.0 / no-dynamic-refine / no-single-sei / no-hevc-aq / qp-adaptation-range=1.00
  22. Default                                  : Yes
  23. Forced                                   : No

  24. Audio #1
  25. ID                                       : 2
  26. Format                                   : MLP FBA 16-ch
  27. Format/Info                              : Meridian Lossless Packing FBA with 16-channel presentation
  28. Commercial name                          : Dolby TrueHD with Dolby Atmos
  29. Codec ID                                 : A_TRUEHD
  30. Duration                                 : 2 h 16 min
  31. Bit rate mode                            : Variable
  32. Bit rate                                 : 3 141 kb/s
  33. Maximum bit rate                         : 5 394 kb/s
  34. Channel(s)                               : 8 channels
  35. Channel layout                           : L R C LFE Ls Rs Lb Rb
  36. Sampling rate                            : 48.0 kHz
  37. Frame rate                               : 1 200.000 FPS (40 SPF)
  38. Compression mode                         : Lossless
  39. Stream size                              : 3.00 GiB (8%)
  40. Title                                    : Fast.and.Furious.Presents.Hobbs.and.Shaw.2019.2160p.BluRay.x265.10bit.SDR.DTS-HD.MA.TrueHD.7.1.Atmos-SWTYBLZ
  41. Language                                 : English
  42. Default                                  : Yes
  43. Forced                                   : No
  44. Number of dynamic objects                : 11
  45. Bed channel count                        : 1 channel
  46. Bed channel configuration                : LFE

  47. Audio #2
  48. ID                                       : 3
  49. Format                                   : DTS XLL
  50. Format/Info                              : Digital Theater Systems
  51. Commercial name                          : DTS-HD Master Audio
  52. Codec ID                                 : A_DTS
  53. Duration                                 : 2 h 16 min
  54. Bit rate mode                            : Variable
  55. Bit rate                                 : 3 995 kb/s
  56. Channel(s)                               : 8 channels
  57. Channel layout                           : C L R LFE Lb Rb Lss Rss
  58. Sampling rate                            : 48.0 kHz
  59. Frame rate                               : 93.750 FPS (512 SPF)
  60. Bit depth                                : 24 bits
  61. Compression mode                         : Lossless
  62. Stream size                              : 3.81 GiB (10%)
  63. Title                                    : Fast.and.Furious.Presents.Hobbs.and.Shaw.2019.2160p.BluRay.x265.10bit.SDR.DTS-HD.MA.TrueHD.7.1.Atmos-SWTYBLZ
  64. Language                                 : English
  65. Default                                  : No
  66. Forced                                   : No

  67. Audio #3
  68. ID                                       : 4
  69. Format                                   : AC-3
  70. Format/Info                              : Audio Coding 3
  71. Commercial name                          : Dolby Digital
  72. Codec ID                                 : A_AC3
  73. Duration                                 : 2 h 16 min
  74. Bit rate mode                            : Constant
  75. Bit rate                                 : 448 kb/s
  76. Channel(s)                               : 6 channels
  77. Channel layout                           : L R C LFE Ls Rs
  78. Sampling rate                            : 48.0 kHz
  79. Frame rate                               : 31.250 FPS (1536 SPF)
  80. Bit depth                                : 16 bits
  81. Compression mode                         : Lossy
  82. Stream size                              : 438 MiB (1%)
  83. Title                                    : Fast.and.Furious.Presents.Hobbs.and.Shaw.2019.2160p.BluRay.x265.10bit.SDR.DTS-HD.MA.TrueHD.7.1.Atmos-SWTYBLZ
  84. Language                                 : English
  85. Service kind                             : Complete Main
  86. Default                                  : No
  87. Forced                                   : No

  88. Text #1
  89. ID                                       : 5
  90. Format                                   : UTF-8
  91. Codec ID                                 : S_TEXT/UTF8
  92. Codec ID/Info                            : UTF-8 Plain Text
  93. Duration                                 : 2 h 16 min
  94. Bit rate                                 : 71 b/s
  95. Count of elements                        : 1916
  96. Stream size                              : 71.7 KiB (0%)
  97. Title                                    : English-SRT
  98. Language                                 : English
  99. Default                                  : Yes
  100. Forced                                   : No

  101. Text #2
  102. ID                                       : 6
  103. Format                                   : PGS
  104. Muxing mode                              : zlib
  105. Codec ID                                 : S_HDMV/PGS
  106. Codec ID/Info                            : Picture based subtitle format used on BDs/HD-DVDs
  107. Duration                                 : 2 h 16 min
  108. Bit rate                                 : 53.8 kb/s
  109. Count of elements                        : 4408
  110. Stream size                              : 52.6 MiB (0%)
  111. Title                                    : English (SDH)
  112. Language                                 : English
  113. Default                                  : No
  114. Forced                                   : No

  115. Text #3
  116. ID                                       : 7
  117. Format                                   : PGS
  118. Muxing mode                              : zlib
  119. Codec ID                                 : S_HDMV/PGS
  120. Codec ID/Info                            : Picture based subtitle format used on BDs/HD-DVDs
  121. Duration                                 : 2 h 16 min
  122. Bit rate                                 : 35.9 kb/s
  123. Count of elements                        : 3309
  124. Stream size                              : 34.9 MiB (0%)
  125. Title                                    : French
  126. Language                                 : French
  127. Default                                  : No
  128. Forced                                   : No

  129. Text #4
  130. ID                                       : 8
  131. Format                                   : PGS
  132. Muxing mode                              : zlib
  133. Codec ID                                 : S_HDMV/PGS
  134. Codec ID/Info                            : Picture based subtitle format used on BDs/HD-DVDs
  135. Duration                                 : 2 h 16 min
  136. Bit rate                                 : 41.7 kb/s
  137. Count of elements                        : 3334
  138. Stream size                              : 40.6 MiB (0%)
  139. Title                                    : Spanish (Latin American)
  140. Language                                 : Spanish
  141. Default                                  : No
  142. Forced                                   : No

  143. Menu
  144. 00:00:00.000                             : en:Chapter 01
  145. 00:04:58.131                             : en:Chapter 02
  146. 00:13:43.489                             : en:Chapter 03
  147. 00:19:21.452                             : en:Chapter 04
  148. 00:26:45.979                             : en:Chapter 05
  149. 00:35:41.514                             : en:Chapter 06
  150. 00:40:13.244                             : en:Chapter 07
  151. 00:46:22.029                             : en:Chapter 08
  152. 00:51:34.216                             : en:Chapter 09
  153. 00:57:51.802                             : en:Chapter 10
  154. 01:01:53.251                             : en:Chapter 11
  155. 01:08:45.163                             : en:Chapter 12
  156. 01:14:22.833                             : en:Chapter 13
  157. 01:19:48.075                             : en:Chapter 14
  158. 01:24:59.261                             : en:Chapter 15
  159. 01:32:58.198                             : en:Chapter 16
  160. 01:38:48.923                             : en:Chapter 17
  161. 01:46:32.970                             : en:Chapter 18
  162. 01:53:29.594                             : en:Chapter 19
  163. 02:01:14.809                             : en:Chapter 20
复制代码

速度与激情:特别行动 Fast.and.Furious.Presents.Hobbs.and.Shaw.2019.2160p.BluRay.x265.10bit.SDR.DTS-HD.MA.TrueHD.7.1.Atmos-SWTYBLZ 39.01GB-2.png 速度与激情:特别行动 Fast.and.Furious.Presents.Hobbs.and.Shaw.2019.2160p.BluRay.x265.10bit.SDR.DTS-HD.MA.TrueHD.7.1.Atmos-SWTYBLZ 39.01GB-3.png 速度与激情:特别行动 Fast.and.Furious.Presents.Hobbs.and.Shaw.2019.2160p.BluRay.x265.10bit.SDR.DTS-HD.MA.TrueHD.7.1.Atmos-SWTYBLZ 39.01GB-4.png 速度与激情:特别行动 Fast.and.Furious.Presents.Hobbs.and.Shaw.2019.2160p.BluRay.x265.10bit.SDR.DTS-HD.MA.TrueHD.7.1.Atmos-SWTYBLZ 39.01GB-5.png 速度与激情:特别行动 Fast.and.Furious.Presents.Hobbs.and.Shaw.2019.2160p.BluRay.x265.10bit.SDR.DTS-HD.MA.TrueHD.7.1.Atmos-SWTYBLZ 39.01GB-6.png 速度与激情:特别行动 Fast.and.Furious.Presents.Hobbs.and.Shaw.2019.2160p.BluRay.x265.10bit.SDR.DTS-HD.MA.TrueHD.7.1.Atmos-SWTYBLZ 39.01GB-7.png 速度与激情:特别行动 Fast.and.Furious.Presents.Hobbs.and.Shaw.2019.2160p.BluRay.x265.10bit.SDR.DTS-HD.MA.TrueHD.7.1.Atmos-SWTYBLZ 39.01GB-8.png







回复

使用道具 举报

发表于 2019-10-27 15:40:52 | 显示全部楼层

我看不错噢 谢谢楼主!蓝光电影网越来越好!
回复 支持 反对

使用道具 举报

发表于 2019-10-27 18:39:24 | 显示全部楼层

这个帖子不回对不起自己!我想我是一天也不能离开蓝光电影网
回复 支持 反对

使用道具 举报

发表于 2019-10-27 22:21:06 | 显示全部楼层
楼主发贴辛苦了,谢谢楼主分享!我觉得蓝光电影网是注册对了!
回复 支持 反对

使用道具 举报

 成长值: 415

发表于 2019-10-27 23:35:54 | 显示全部楼层
谢谢楼主分享!
回复 支持 反对

使用道具 举报

发表于 2019-10-28 06:18:17 | 显示全部楼层

这个帖子不回对不起自己!我想我是一天也不能离开蓝光电影网
回复 支持 反对

使用道具 举报

发表于 2019-10-28 19:24:11 | 显示全部楼层

我看不错噢 谢谢楼主!蓝光电影网越来越好!
回复 支持 反对

使用道具 举报

 成长值: 4665

发表于 2019-10-29 06:39:08 | 显示全部楼层

楼主,大恩不言谢了!蓝光电影网是最棒的!
回复 支持 反对

使用道具 举报

发表于 2019-10-30 18:59:02 | 显示全部楼层
楼主发贴辛苦了,谢谢楼主分享!我觉得蓝光电影网是注册对了!
回复 支持 反对

使用道具 举报

发表于 2019-11-2 19:31:29 来自手机 | 显示全部楼层
没蓝光毕
回复

使用道具 举报

懒得打字嘛,点击右侧快捷回复 【右侧内容,后台自定义】
您需要登录后才可以回帖 登录 | 立即加入

本版积分规则

现在加入蓝光电影网,注册一个账号

QQ| 手机版|小黑屋| 蓝光电影网 |网站地图 

Copyright © 2015-2019 Comsenz Inc.  Template by 蓝光电影论坛 All Rights Reserved.

Powered by 蓝光电影网 X3.4

特别声明:本站所有资源均由网上收集而来,版权归原影音公司所有,如果侵犯了你的权益,请通知我们,我们会及时删除侵权内容.

快速回复 返回顶部 返回列表