找回密码

蓝光电影网

查看: 764|回复: 27

[10bit.HDR] 速度与激情:特别行动 Fast.And.Furious.Presents.Hobbs.And.Shaw.2019.2160p.UHD.BluRay.X265.10bit.HDR.TrueHD.7.1.Atmos-AAAUHD 14.96GB

[复制链接]

 成长值: 23245

发表于 2019-10-27 12:14:20 | 显示全部楼层 |阅读模式
速度与激情:特别行动 Fast.And.Furious.Presents.Hobbs.And.Shaw.2019.2160p.UHD.BluRay.X265.10bit.HDR.TrueHD.7.1.Atmos-AAAUHD 14.96GB-1.png

译  名 速度与激情:特别行动 / Hobbs and Shaw / The Fast and the Furious Spinoff / 狂野时速:双雄联盟(港) / 玩命关头:特别行动(台) / 速度与基情(豆友译名) / 速度与激情外传 / 速度与激情衍生片 / 霍布斯与肖
片  名 Fast & Furious Presents: Hobbs & Shaw
年  代 2019
产  地 美国
类  别 动作 / 犯罪
语  言 英语
上映日期 2019-08-02(美国) / 2019-08-23(中国大陆)
IMDb评分  6.8/10 from 64451 users
IMDb链接  http://www.imdb.com/title/tt6806448
豆瓣评分 6.4/10 from 122826 users
豆瓣链接 https://movie.douban.com/subject/27163278/
片  长 137分钟
导  演 大卫·雷奇 David Leitch
编  剧 克里斯·摩根 Chris Morgan / 盖瑞·斯科特·汤普森 Gary Scott Thompson / 德鲁·皮尔斯 Drew Pearce
主  演 道恩·强森 Dwayne Johnson
       杰森·斯坦森 Jason Statham
       伊德里斯·艾尔巴 Idris Elba
       凡妮莎·柯比 Vanessa Kirby
       艾莎·冈萨雷斯 Eiza González
       海伦·米伦 Helen Mirren
       瑞恩·雷诺兹 Ryan Reynolds
       凯文·哈特 Kevin Hart
       埃迪·马森 Eddie Marsan
       罗曼·雷恩斯 Roman Reigns
       斯蒂芬妮·沃格特 Stephanie Vogt
       维克托里娅·菲斯 Viktorija Faith
       康兰·卡萨尔 Conlan Casal
       海伦娜·福尔摩斯 Helena Holmes
       伯纳多·桑托斯 Bernardo Santos
       露丝·霍洛克斯 Ruth Horrocks
       大卫·穆梅尼 David Mumeni
       马诺伊·阿南德 Manoj Anand
       阿玛尔·阿达蒂亚 Amar Adatia
       朱利安·费罗 Julian Ferro
       丹尼尔·厄根 Daniel Eghan
       拉普洛斯·卡伦福佐斯 Lampros Kalfuntzos
       阿克塞尔·努 Axel Nu
       史蒂夫·莱温顿 Steve Lewington
       安东尼奥·曼奇诺 Antonio Mancino
       斯特拉·斯托克尔 Stella Stocker
       克利夫·柯蒂斯 Cliff Curtis


标  签 动作 | 速度与激情:特别行动 | 美国 | 飙车 | 2019 | 犯罪 | 冒险 | 赛车

简  介  

  一个是美国外交安全局的忠诚特工、身材魁梧的执法者霍布斯(强森饰),一个是前英国军事特工精英、无法无天的恶棍肖(斯坦森饰)。在2015年的《速度与激情7》中首次对峙之后,两人不论言语还是肢体都冲突不断,一直试图打倒对方。
  然而,通过高科技进行了基因增强的无政府主义者布里克斯顿(伊德瑞斯·艾尔巴饰)控制了一种可能永远改变人类命运的不为人知的生化武器,并且还打败了一位大胆优秀又特立独行的军情六处特工(曾出演《王冠》的凡妮莎·科比饰)——她恰好是肖的妹妹,为了扳倒这个世界上唯一可能比他们更厉害的敌人,这两个不共戴天的宿敌不得不联手。
  《速度与激情:特别行动》一片在《速度与激情》系列的宇宙中推开了一扇全新的大门。从洛杉矶到伦敦,从切尔诺贝利的有毒废墟到美丽的南太平洋岛国萨摩亚,本次特别行动席卷全球。
  该片由大卫·雷奇执导(《死侍2》导演),由《速度与激情》系列故事的缔造者克里斯·摩根编剧,摩根、强森、斯坦森和海拉姆·加西亚共同担纲制片。丹尼·加西亚、凯利·麦考密克、 、史蒂文·查斯曼、伊森·史密斯和安斯利·戴维斯担任监制。

  1. Video
  2. ID                                       : 1
  3. Format                                   : HEVC
  4. Format/Info                              : High Efficiency Video Coding
  5. Format profile                           : Main High@L4@High
  6. HDR format                               : SMPTE ST 2086, HDR10 compatible
  7. Codec ID                                 : V_MPEGH/ISO/HEVC
  8. Duration                                 : 2 h 16 min
  9. Bit rate                                 : 11.6 Mb/s
  10. Width                                    : 3 840 pixels
  11. Height                                   : 1 604 pixels
  12. Display aspect ratio                     : 2.40:1
  13. Frame rate mode                          : Constant
  14. Frame rate                               : 23.976 (24000/1001) FPS
  15. Color space                              : YUV
  16. Chroma subsampling                       : 4:2:0 (Type 2)
  17. Bit depth                                : 10 bits
  18. Bits/(Pixel*Frame)                       : 0.079
  19. Stream size                              : 11.1 GiB (75%)
  20. Title                                    : Fast.And.Furious.Presents.Hobbs.And.Shaw.2019.2160p.UHD.BluRay.x265-AAAUHD
  21. Writing library                          : x265 3.27fc1f6ef2b96:[Windows][GCC 9.2.1][64 bit] 10bit
  22. Encoding settings                        : cpuid=1111039 / frame-threads=5 / numa-pools=32,0 / wpp / no-pmode / no-pme / no-psnr / no-ssim / log-level=2 / input-csp=1 / input-res=3840x1604 / interlace=0 / total-frames=196646 / level-idc=51 / high-tier=1 / uhd-bd=0 / ref=4 / no-allow-non-conformance / repeat-headers / annexb / aud / hrd / info / hash=0 / no-temporal-layers / no-open-gop / min-keyint=1 / keyint=24 / gop-lookahead=0 / bframes=4 / b-adapt=2 / b-pyramid / bframe-bias=0 / rc-lookahead=25 / lookahead-slices=4 / scenecut=40 / radl=0 / no-splice / no-intra-refresh / ctu=64 / min-cu-size=8 / rect / no-amp / max-tu-size=32 / tu-inter-depth=1 / tu-intra-depth=1 / limit-tu=0 / rdoq-level=2 / dynamic-rd=0.00 / no-ssim-rd / signhide / no-tskip / nr-intra=0 / nr-inter=0 / no-constrained-intra / no-strong-intra-smoothing / max-merge=3 / limit-refs=3 / limit-modes / me=3 / subme=3 / merange=57 / temporal-mvp / no-frame-dup / no-hme / weightp / no-weightb / no-analyze-src-pics / deblock=-3:-3 / no-sao / no-sao-non-deblock / rd=4 / selective-sao=0 / no-early-skip / rskip / no-fast-intra / no-tskip-fast / no-cu-lossless / no-b-intra / no-splitrd-skip / rdpenalty=0 / psy-rd=2.00 / psy-rdoq=1.00 / no-rd-refine / no-lossless / cbqpoffs=0 / crqpoffs=0 / rc=crf / crf=17.0 / qcomp=0.60 / qpstep=4 / stats-write=0 / stats-read=0 / vbv-maxrate=160000 / vbv-bufsize=160000 / vbv-init=0.9 / crf-max=0.0 / crf-min=0.0 / ipratio=1.40 / pbratio=1.30 / aq-mode=2 / aq-strength=1.00 / cutree / zone-count=0 / no-strict-cbr / qg-size=32 / no-rc-grain / qpmax=69 / qpmin=0 / no-const-vbv / sar=1 / overscan=0 / videoformat=5 / range=0 / colorprim=9 / transfer=16 / colormatrix=9 / chromaloc=1 / chromaloc-top=2 / chromaloc-bottom=2 / display-window=0 / master-display=G(13250,34500)B(7500,3000)R(34000,16000)WP(15635,16450)L(40000000,50) / cll=1000,419 / min-luma=0 / max-luma=1023 / log2-max-poc-lsb=8 / vui-timing-info / vui-hrd-info / slices=1 / no-opt-qp-pps / no-opt-ref-list-length-pps / no-multi-pass-opt-rps / scenecut-bias=0.05 / no-opt-cu-delta-qp / no-aq-motion / hdr / hdr-opt / no-dhdr10-opt / no-idr-recovery-sei / analysis-reuse-level=5 / scale-factor=0 / refine-intra=0 / refine-inter=0 / refine-mv=1 / refine-ctu-distortion=0 / no-limit-sao / ctu-info=0 / no-lowpass-dct / refine-analysis-type=0 / copy-pic=1 / max-ausize-factor=1.0 / no-dynamic-refine / no-single-sei / no-hevc-aq / no-svt / no-field / qp-adaptation-range=1.00
  23. Default                                  : Yes
  24. Forced                                   : No
  25. Color range                              : Limited
  26. Color primaries                          : BT.2020
  27. Transfer characteristics                 : PQ
  28. Matrix coefficients                      : BT.2020 non-constant
  29. Mastering display color primaries        : Display P3
  30. Mastering display luminance              : min: 0.0050 cd/m2, max: 4000 cd/m2
  31. Maximum Content Light Level              : 1000 cd/m2
  32. Maximum Frame-Average Light Level        : 419 cd/m2

  33. Audio #1
  34. ID                                       : 2
  35. Format                                   : MLP FBA 16-ch
  36. Format/Info                              : Meridian Lossless Packing FBA with 16-channel presentation
  37. Commercial name                          : Dolby TrueHD with Dolby Atmos
  38. Codec ID                                 : A_TRUEHD
  39. Duration                                 : 2 h 16 min
  40. Bit rate mode                            : Variable
  41. Bit rate                                 : 3 141 kb/s
  42. Maximum bit rate                         : 5 394 kb/s
  43. Channel(s)                               : 8 channels
  44. Channel layout                           : L R C LFE Ls Rs Lb Rb
  45. Sampling rate                            : 48.0 kHz
  46. Frame rate                               : 1 200.000 FPS (40 SPF)
  47. Compression mode                         : Lossless
  48. Stream size                              : 3.00 GiB (20%)
  49. Title                                    : English TrueHD
  50. Language                                 : English
  51. Default                                  : Yes
  52. Forced                                   : No
  53. Number of dynamic objects                : 11
  54. Bed channel count                        : 1 channel
  55. Bed channel configuration                : LFE

  56. Audio #2
  57. ID                                       : 3
  58. Format                                   : AC-3
  59. Format/Info                              : Audio Coding 3
  60. Commercial name                          : Dolby Digital
  61. Codec ID                                 : A_AC3
  62. Duration                                 : 2 h 16 min
  63. Bit rate mode                            : Constant
  64. Bit rate                                 : 640 kb/s
  65. Channel(s)                               : 6 channels
  66. Channel layout                           : L R C LFE Ls Rs
  67. Sampling rate                            : 48.0 kHz
  68. Frame rate                               : 31.250 FPS (1536 SPF)
  69. Bit depth                                : 16 bits
  70. Compression mode                         : Lossy
  71. Stream size                              : 626 MiB (4%)
  72. Title                                    : English
  73. Language                                 : English
  74. Service kind                             : Complete Main
  75. Default                                  : No
  76. Forced                                   : No

  77. Text #1
  78. ID                                       : 4
  79. Format                                   : UTF-8
  80. Codec ID                                 : S_TEXT/UTF8
  81. Codec ID/Info                            : UTF-8 Plain Text
  82. Duration                                 : 2 h 16 min
  83. Bit rate                                 : 75 b/s
  84. Count of elements                        : 2187
  85. Stream size                              : 75.2 KiB (0%)
  86. Title                                    : English SDH
  87. Language                                 : English
  88. Default                                  : No
  89. Forced                                   : No

  90. Text #2
  91. ID                                       : 5
  92. Format                                   : PGS
  93. Muxing mode                              : zlib
  94. Codec ID                                 : S_HDMV/PGS
  95. Codec ID/Info                            : Picture based subtitle format used on BDs/HD-DVDs
  96. Duration                                 : 2 h 16 min
  97. Bit rate                                 : 53.8 kb/s
  98. Count of elements                        : 4408
  99. Stream size                              : 52.6 MiB (0%)
  100. Title                                    : English PGS
  101. Language                                 : English
  102. Default                                  : No
  103. Forced                                   : No

  104. Menu
  105. 00:00:00.000                             : en:Chapter 01
  106. 00:04:58.131                             : en:Chapter 02
  107. 00:13:43.489                             : en:Chapter 03
  108. 00:19:21.452                             : en:Chapter 04
  109. 00:26:45.979                             : en:Chapter 05
  110. 00:35:41.514                             : en:Chapter 06
  111. 00:40:13.244                             : en:Chapter 07
  112. 00:46:22.029                             : en:Chapter 08
  113. 00:51:34.216                             : en:Chapter 09
  114. 00:57:51.802                             : en:Chapter 10
  115. 01:01:53.251                             : en:Chapter 11
  116. 01:08:45.163                             : en:Chapter 12
  117. 01:14:22.833                             : en:Chapter 13
  118. 01:19:48.075                             : en:Chapter 14
  119. 01:24:59.261                             : en:Chapter 15
  120. 01:32:58.198                             : en:Chapter 16
  121. 01:38:48.923                             : en:Chapter 17
  122. 01:46:32.970                             : en:Chapter 18
  123. 01:53:29.594                             : en:Chapter 19
  124. 02:01:14.809                             : en:Chapter 20
复制代码


速度与激情:特别行动 Fast.And.Furious.Presents.Hobbs.And.Shaw.2019.2160p.UHD.BluRay.X265.10bit.HDR.TrueHD.7.1.Atmos-AAAUHD 14.96GB-2.png 速度与激情:特别行动 Fast.And.Furious.Presents.Hobbs.And.Shaw.2019.2160p.UHD.BluRay.X265.10bit.HDR.TrueHD.7.1.Atmos-AAAUHD 14.96GB-3.png 速度与激情:特别行动 Fast.And.Furious.Presents.Hobbs.And.Shaw.2019.2160p.UHD.BluRay.X265.10bit.HDR.TrueHD.7.1.Atmos-AAAUHD 14.96GB-4.png








回复

使用道具 举报

发表于 2019-10-27 12:21:24 | 显示全部楼层
楼主发贴辛苦了,谢谢楼主分享!我觉得蓝光电影网是注册对了!
回复 支持 反对

使用道具 举报

发表于 2019-10-27 13:14:11 | 显示全部楼层

这个帖子不回对不起自己!我想我是一天也不能离开蓝光电影网
回复 支持 反对

使用道具 举报

发表于 2019-10-27 13:50:36 | 显示全部楼层

其实我一直觉得楼主的品味不错!呵呵!蓝光电影网太棒了!
回复 支持 反对

使用道具 举报

发表于 2019-10-27 17:11:03 | 显示全部楼层
楼主发贴辛苦了,谢谢楼主分享!我觉得蓝光电影网是注册对了!
回复 支持 反对

使用道具 举报

发表于 2019-10-27 17:53:35 | 显示全部楼层

楼主太厉害了!楼主,电影应该很好看我觉得蓝光电影网真是个好地方!
回复 支持 反对

使用道具 举报

发表于 2019-10-27 21:52:58 | 显示全部楼层
楼主发贴辛苦了,谢谢楼主分享!我觉得蓝光电影网是注册对了!
回复 支持 反对

使用道具 举报

 成长值: 240

发表于 2019-10-27 23:52:17 | 显示全部楼层
楼主发贴辛苦了,谢谢楼主分享!我觉得蓝光电影网是注册对了!
回复 支持 反对

使用道具 举报

发表于 2019-10-28 07:35:35 | 显示全部楼层

楼主太厉害了!楼主,电影应该很好看我觉得蓝光电影网真是个好地方!
回复 支持 反对

使用道具 举报

发表于 2019-10-28 10:37:58 | 显示全部楼层
楼主发贴辛苦了,谢谢楼主分享!我觉得蓝光电影网是注册对了!
回复 支持 反对

使用道具 举报

懒得打字嘛,点击右侧快捷回复 【右侧内容,后台自定义】
您需要登录后才可以回帖 登录 | 立即加入

本版积分规则

现在加入蓝光电影网,注册一个账号

QQ| 手机版|小黑屋| 蓝光电影网 |网站地图 

Copyright © 2015-2019 Comsenz Inc.  Template by 蓝光电影论坛 All Rights Reserved.

Powered by 蓝光电影网 X3.4

特别声明:本站所有资源均由网上收集而来,版权归原影音公司所有,如果侵犯了你的权益,请通知我们,我们会及时删除侵权内容.

快速回复 返回顶部 返回列表