找回密码

蓝光电影网

查看: 542|回复: 13

[10bit.HDR] 美国黑帮/犯罪帝国 American.Gangster.2007.THEATRiCAL.2160p.UHD.BluRay.X265.10bit.HDR.DTS-X.7.1-JustWatch 43.74GB

[复制链接]

 成长值: 23155

发表于 2019-10-27 12:13:06 | 显示全部楼层 |阅读模式
121216xzddk8wsk8kv2oil.png

译  名 美国黑帮 / 犯罪帝国 / 美国土匪
片  名 American Gangster
年  代 2007
产  地 美国
类  别 剧情 / 犯罪
语  言 英语
上映日期 2007-11-02(美国)
IMDb评分  7.8/10 from 371827 users
IMDb链接  https://www.imdb.com/title/tt0765429
豆瓣评分 7.9/10 from 37813 users
豆瓣链接 https://movie.douban.com/subject/1578503/
片  长 157 分钟
导  演 Ridley Scott
编  剧 Steven Zaillian / Mark Jacobson
主  演 丹泽尔·华盛顿 Denzel Washington
       罗素·克劳 Russell Crowe
       切瓦特·埃加福特 Chiwetel Ejiofor
       乔什·布洛林 Josh Brolin
       里玛莉·娜妲 Lymari Nadal
       泰德·拉文 Ted Levine
       罗杰·格午埃文·史密斯 Roger Guenveur Smith
       约翰·浩克斯 John Hawkes
       RZA
       尤尔·瓦斯克斯 Yul Vazquez
       Malcolm Goodwin
       露比·迪 Ruby Dee
       Ruben Santiago-Hudson
       卡拉·古奇诺 Carla Gugino
       Skyler Fortgang


标  签 黑帮 | 美国 | 犯罪 | DenzelWashington | 美国黑帮 | 美国电影 | RussellCrowe | 2007

简  介  

  上世纪70年代,哈莱姆黑人区,弗兰克?卢卡斯(丹泽尔?华盛顿 饰)是黑帮老大约翰逊的司机。约翰逊暴毙后,弗兰克充分利用了这个来之不易的机会,将地下世界的所有权利分配进行了重组,成功上位,接手大佬事业,掌控了毒品交易大权。期间他远赴东南亚金三角走私高纯度海洛因,张罗自己的家族兄弟,集结了一帮为他卖命的手下,一股黑暗势力正在兴起。
  另一边,警察里奇?罗伯茨(卢塞尔?克劳 饰)家庭破裂,与主流社会格格不入,整天以一副邋遢鬼模样流连于街头。他慢慢觉察出毒品圈内的风起云涌,,并展开了秘密调查。
  随着调查的深入,罗伯茨和卢卡斯之间的距离越来越短,两个气质相近,惺惺相惜的男人,不可避免地进行正面对决……

获奖情况  

  第80届奥斯卡金像奖(2008)
  最佳女配角(提名) 露比·迪
  最佳艺术指导(提名) 阿瑟·马克斯 / Beth A. Rubino

  第65届金球奖(2008)
  电影类 最佳剧情片(提名)
  电影类 最佳导演(提名) 雷德利·斯科特
  电影类 剧情片最佳男主角(提名) 丹泽尔·华盛顿

  第61届英国电影学院奖(2008)
  电影奖 最佳影片(提名) 雷德利·斯科特 / 布莱恩·格雷泽
  电影奖 最佳原创剧本(提名) 斯蒂文·泽里安
  电影奖 最佳摄影(提名) 哈里斯·萨维德斯
  电影奖 最佳剪辑(提名) 彼得罗·斯卡利亚
  电影奖 最佳原创音乐(提名) 马克·斯特雷滕菲尔德

  第17届MTV电影奖(2008)
  MTV电影奖 最佳男演员(提名) 丹泽尔·华盛顿
  MTV电影奖 最佳反派(提名) 丹泽尔·华盛顿
  1. Video
  2. ID                                       : 1
  3. Format                                   : HEVC
  4. Format/Info                              : High Efficiency Video Coding
  5. Format profile                           : Main High@L4@High
  6. HDR format                               : SMPTE ST 2086, HDR10 compatible
  7. Codec ID                                 : V_MPEGH/ISO/HEVC
  8. Duration                                 : 2 h 36 min
  9. Bit rate                                 : 33.7 Mb/s
  10. Width                                    : 3 840 pixels
  11. Height                                   : 2 076 pixels
  12. Display aspect ratio                     : 1.85:1
  13. Frame rate mode                          : Constant
  14. Frame rate                               : 23.976 (24000/1001) FPS
  15. Color space                              : YUV
  16. Chroma subsampling                       : 4:2:0 (Type 2)
  17. Bit depth                                : 10 bits
  18. Bits/(Pixel*Frame)                       : 0.176
  19. Stream size                              : 36.9 GiB (85%)
  20. Writing library                          : x265 3.14f6dde51a5db:[Windows][GCC 6.3.0][64 bit] 10bit
  21. Encoding settings                        : cpuid=1111039 / frame-threads=6 / numa-pools=16,16 / wpp / no-pmode / no-pme / no-psnr / no-ssim / log-level=2 / input-csp=1 / input-res=3840x2076 / interlace=0 / total-frames=225665 / level-idc=51 / high-tier=1 / uhd-bd=0 / ref=4 / no-allow-non-conformance / repeat-headers / annexb / aud / hrd / info / hash=0 / no-temporal-layers / no-open-gop / min-keyint=24 / keyint=240 / gop-lookahead=0 / bframes=4 / b-adapt=2 / b-pyramid / bframe-bias=0 / rc-lookahead=25 / lookahead-slices=4 / scenecut=40 / radl=0 / no-splice / no-intra-refresh / ctu=64 / min-cu-size=8 / rect / no-amp / max-tu-size=32 / tu-inter-depth=1 / tu-intra-depth=1 / limit-tu=0 / rdoq-level=2 / dynamic-rd=0.00 / no-ssim-rd / signhide / no-tskip / nr-intra=0 / nr-inter=0 / no-constrained-intra / no-strong-intra-smoothing / max-merge=3 / limit-refs=3 / limit-modes / me=3 / subme=3 / merange=57 / temporal-mvp / weightp / no-weightb / no-analyze-src-pics / deblock=-3:-3 / no-sao / no-sao-non-deblock / rd=4 / no-early-skip / rskip / no-fast-intra / no-tskip-fast / no-cu-lossless / no-b-intra / no-splitrd-skip / rdpenalty=0 / psy-rd=2.00 / psy-rdoq=1.00 / no-rd-refine / no-lossless / cbqpoffs=0 / crqpoffs=0 / rc=crf / crf=21.2 / qcomp=0.60 / qpstep=4 / stats-write=0 / stats-read=0 / vbv-maxrate=160000 / vbv-bufsize=160000 / vbv-init=0.9 / crf-max=0.0 / crf-min=0.0 / ipratio=1.40 / pbratio=1.30 / aq-mode=2 / aq-strength=1.00 / cutree / zone-count=0 / no-strict-cbr / qg-size=32 / no-rc-grain / qpmax=69 / qpmin=0 / no-const-vbv / sar=1 / overscan=0 / videoformat=5 / range=0 / colorprim=9 / transfer=16 / colormatrix=9 / chromaloc=1 / chromaloc-top=2 / chromaloc-bottom=2 / display-window=0 / master-display=G(13250,34500)B(7500,3000)R(34000,16000)WP(15635,16450)L(10000000,50)cll=1179,501 / min-luma=0 / max-luma=1023 / log2-max-poc-lsb=8 / vui-timing-info / vui-hrd-info / slices=1 / no-opt-qp-pps / no-opt-ref-list-length-pps / no-multi-pass-opt-rps / scenecut-bias=0.05 / no-opt-cu-delta-qp / no-aq-motion / hdr / hdr-opt / no-dhdr10-opt / no-idr-recovery-sei / analysis-reuse-level=5 / scale-factor=0 / refine-intra=0 / refine-inter=0 / refine-mv=0 / refine-ctu-distortion=0 / no-limit-sao / ctu-info=0 / no-lowpass-dct / refine-analysis-type=0 / copy-pic=1 / max-ausize-factor=1.0 / no-dynamic-refine / no-single-sei / no-hevc-aq / no-svt / no-field / qp-adaptation-range=1.00
  22. Default                                  : Yes
  23. Forced                                   : No
  24. Color range                              : Limited
  25. Color primaries                          : BT.2020
  26. Transfer characteristics                 : PQ
  27. Matrix coefficients                      : BT.2020 non-constant
  28. Mastering display color primaries        : Display P3
  29. Mastering display luminance              : min: 0.0050 cd/m2, max: 1000 cd/m2
  30. Maximum Content Light Level              : 1179 cd/m2
  31. Maximum Frame-Average Light Level        : 501 cd/m2

  32. Audio
  33. ID                                       : 2
  34. Format                                   : DTS XLL X
  35. Format/Info                              : Digital Theater Systems
  36. Commercial name                          : DTS-HD Master Audio
  37. Codec ID                                 : A_DTS
  38. Duration                                 : 2 h 36 min
  39. Bit rate mode                            : Variable
  40. Bit rate                                 : 5 863 kb/s
  41. Channel(s)                               : 8 channels
  42. Channel(s)_Original                      : Object Based
  43. Channel layout                           : Object Based
  44. Sampling rate                            : 48.0 kHz
  45. Frame rate                               : 93.746 FPS (512 SPF)
  46. Bit depth                                : 24 bits
  47. Stream size                              : 6.42 GiB (15%)
  48. Language                                 : English
  49. Default                                  : Yes
  50. Forced                                   : No

  51. Text #1
  52. ID                                       : 3
  53. Format                                   : PGS
  54. Muxing mode                              : zlib
  55. Codec ID                                 : S_HDMV/PGS
  56. Codec ID/Info                            : Picture based subtitle format used on BDs/HD-DVDs
  57. Duration                                 : 2 h 27 min
  58. Bit rate                                 : 47.5 kb/s
  59. Count of elements                        : 4424
  60. Stream size                              : 50.1 MiB (0%)
  61. Language                                 : English
  62. Default                                  : No
  63. Forced                                   : No

  64. Text #2
  65. ID                                       : 4
  66. Format                                   : PGS
  67. Muxing mode                              : zlib
  68. Codec ID                                 : S_HDMV/PGS
  69. Codec ID/Info                            : Picture based subtitle format used on BDs/HD-DVDs
  70. Duration                                 : 2 h 31 min
  71. Bit rate                                 : 68.1 kb/s
  72. Count of elements                        : 4760
  73. Stream size                              : 74.0 MiB (0%)
  74. Language                                 : English
  75. Default                                  : No
  76. Forced                                   : No

  77. Text #3
  78. ID                                       : 5
  79. Format                                   : PGS
  80. Muxing mode                              : zlib
  81. Codec ID                                 : S_HDMV/PGS
  82. Codec ID/Info                            : Picture based subtitle format used on BDs/HD-DVDs
  83. Duration                                 : 2 h 26 min
  84. Bit rate                                 : 792 b/s
  85. Count of elements                        : 82
  86. Stream size                              : 852 KiB (0%)
  87. Language                                 : Spanish
  88. Default                                  : No
  89. Forced                                   : No

  90. Text #4
  91. ID                                       : 6
  92. Format                                   : PGS
  93. Muxing mode                              : zlib
  94. Codec ID                                 : S_HDMV/PGS
  95. Codec ID/Info                            : Picture based subtitle format used on BDs/HD-DVDs
  96. Duration                                 : 2 h 26 min
  97. Bit rate                                 : 45.2 kb/s
  98. Count of elements                        : 4191
  99. Stream size                              : 47.4 MiB (0%)
  100. Language                                 : Spanish
  101. Default                                  : No
  102. Forced                                   : No

  103. Text #5
  104. ID                                       : 7
  105. Format                                   : PGS
  106. Muxing mode                              : zlib
  107. Codec ID                                 : S_HDMV/PGS
  108. Codec ID/Info                            : Picture based subtitle format used on BDs/HD-DVDs
  109. Duration                                 : 2 h 26 min
  110. Bit rate                                 : 650 b/s
  111. Count of elements                        : 68
  112. Stream size                              : 698 KiB (0%)
  113. Language                                 : Italian
  114. Default                                  : No
  115. Forced                                   : No

  116. Text #6
  117. ID                                       : 8
  118. Format                                   : PGS
  119. Muxing mode                              : zlib
  120. Codec ID                                 : S_HDMV/PGS
  121. Codec ID/Info                            : Picture based subtitle format used on BDs/HD-DVDs
  122. Duration                                 : 2 h 26 min
  123. Bit rate                                 : 44.2 kb/s
  124. Count of elements                        : 4173
  125. Stream size                              : 46.3 MiB (0%)
  126. Language                                 : Italian
  127. Default                                  : No
  128. Forced                                   : No

  129. Text #7
  130. ID                                       : 9
  131. Format                                   : PGS
  132. Muxing mode                              : zlib
  133. Codec ID                                 : S_HDMV/PGS
  134. Codec ID/Info                            : Picture based subtitle format used on BDs/HD-DVDs
  135. Duration                                 : 2 h 26 min
  136. Bit rate                                 : 47.0 kb/s
  137. Count of elements                        : 4129
  138. Stream size                              : 49.4 MiB (0%)
  139. Language                                 : German
  140. Default                                  : No
  141. Forced                                   : No

  142. Text #8
  143. ID                                       : 10
  144. Format                                   : PGS
  145. Muxing mode                              : zlib
  146. Codec ID                                 : S_HDMV/PGS
  147. Codec ID/Info                            : Picture based subtitle format used on BDs/HD-DVDs
  148. Duration                                 : 2 h 31 min
  149. Bit rate                                 : 68.1 kb/s
  150. Count of elements                        : 4760
  151. Stream size                              : 74.0 MiB (0%)
  152. Language                                 : German
  153. Default                                  : No
  154. Forced                                   : No

  155. Menu
  156. 00:00:00.000                             : :Kapitel 01
  157. 00:06:48.616                             : :Kapitel 02
  158. 00:14:07.263                             : :Kapitel 03
  159. 00:24:15.662                             : :Kapitel 04
  160. 00:30:52.767                             : :Kapitel 05
  161. 00:36:06.414                             : :Kapitel 06
  162. 00:42:21.705                             : :Kapitel 07
  163. 00:48:29.531                             : :Kapitel 08
  164. 00:54:06.993                             : :Kapitel 09
  165. 01:04:50.261                             : :Kapitel 10
  166. 01:09:29.456                             : :Kapitel 11
  167. 01:17:37.319                             : :Kapitel 12
  168. 01:25:58.236                             : :Kapitel 13
  169. 01:32:02.808                             : :Kapitel 14
  170. 01:40:46.582                             : :Kapitel 15
  171. 01:48:52.692                             : :Kapitel 16
  172. 01:56:54.215                             : :Kapitel 17
  173. 02:04:02.101                             : :Kapitel 18
  174. 02:15:46.179                             : :Kapitel 19
  175. 02:29:05.978                             : :Kapitel 20
复制代码

美国黑帮/犯罪帝国 American.Gangster.2007.THEATRiCAL.2160p.UHD.BluRay.X265.10bit.HDR.DTS-X.7.1-JustWatch 43.74GB-2.png 美国黑帮/犯罪帝国 American.Gangster.2007.THEATRiCAL.2160p.UHD.BluRay.X265.10bit.HDR.DTS-X.7.1-JustWatch 43.74GB-3.png 美国黑帮/犯罪帝国 American.Gangster.2007.THEATRiCAL.2160p.UHD.BluRay.X265.10bit.HDR.DTS-X.7.1-JustWatch 43.74GB-4.png







回复

使用道具 举报

发表于 2019-10-27 14:14:02 | 显示全部楼层

既然你诚信诚意的推荐了,那我就勉为其难的看看吧!蓝光电影网不走平凡路。
回复 支持 反对

使用道具 举报

发表于 2019-10-27 20:17:18 | 显示全部楼层
楼主发贴辛苦了,谢谢楼主分享!我觉得蓝光电影网是注册对了!
回复 支持 反对

使用道具 举报

发表于 2019-10-27 22:53:23 | 显示全部楼层

楼主太厉害了!楼主,电影应该很好看我觉得蓝光电影网真是个好地方!
回复 支持 反对

使用道具 举报

发表于 2019-10-28 15:54:10 | 显示全部楼层
楼主发贴辛苦了,谢谢楼主分享!我觉得蓝光电影网是注册对了!
回复 支持 反对

使用道具 举报

发表于 2019-10-28 19:05:26 | 显示全部楼层
楼主发贴辛苦了,谢谢楼主分享!我觉得蓝光电影网是注册对了!
回复 支持 反对

使用道具 举报

发表于 2019-10-29 08:34:37 | 显示全部楼层

楼主太厉害了!楼主,电影应该很好看我觉得蓝光电影网真是个好地方!
回复 支持 反对

使用道具 举报

发表于 2019-10-29 14:33:18 | 显示全部楼层

我看不错噢 谢谢楼主!蓝光电影网越来越好!
回复 支持 反对

使用道具 举报

 成长值: 2000

发表于 2019-10-30 09:00:25 | 显示全部楼层

既然你诚信诚意的推荐了,那我就勉为其难的看看吧!蓝光电影网不走平凡路。
回复 支持 反对

使用道具 举报

发表于 2019-10-30 09:58:26 | 显示全部楼层

楼主太厉害了!楼主,电影应该很好看我觉得蓝光电影网真是个好地方!
回复 支持 反对

使用道具 举报

懒得打字嘛,点击右侧快捷回复 【右侧内容,后台自定义】
您需要登录后才可以回帖 登录 | 立即加入

本版积分规则

现在加入蓝光电影网,注册一个账号

QQ| 手机版|小黑屋| 蓝光电影网 |网站地图

Copyright © 2015-2019 Comsenz Inc.  Template by 蓝光电影论坛 All Rights Reserved.

Powered by 蓝光电影网 X3.4

特别声明:本站所有资源均由网上收集而来,版权归原影音公司所有,如果侵犯了你的权益,请通知我们,我们会及时删除侵权内容.

快速回复 返回顶部 返回列表