找回密码

蓝光电影网

查看: 267|回复: 8

[8bit.SDR] 疯狂动物城 Zootopia.2016.2160p.BluRay.x264.8bit.SDR.TrueHD.7.1.Atmos-SWTYBLZ 18.16GB

[复制链接]

 成长值: 23155

发表于 2019-10-26 17:24:42 | 显示全部楼层 |阅读模式
疯狂动物城 Zootopia.2016.2160p.BluRay.x264.8bit.SDR.TrueHD.7.1.Atmos-SWTYBLZ 18.16GB-1.png

译  名 疯狂动物城 / Zootropolis / 优兽大都会(港) / 动物乌托邦 / 动物大都会 / 动物方城市(台)
片  名 Zootopia
年  代 2016
产  地 美国
类  别 喜剧 / 动画 / 冒险
语  言 英语 / 挪威语
上映日期 2016-03-04(中国大陆/美国)
IMDb评分  8.0/10 from 394437 users
IMDb链接  https://www.imdb.com/title/tt2948356
豆瓣评分 9.2/10 from 1037323 users
豆瓣链接 https://movie.douban.com/subject/25662329/
片  长 109分钟(中国大陆)
导  演 拜伦·霍华德 Byron Howard / 瑞奇·摩尔 Rich Moore / 杰拉德·布什 Jared Bush
编  剧 拜伦·霍华德 Byron Howard / 瑞奇·摩尔 Rich Moore / 杰拉德·布什 Jared Bush / 吉姆·里尔顿 Jim Reardon / 乔西·特立尼达 Josie Trinidad / 菲尔·约翰斯顿 Phil Johnston / 珍妮弗·李 Jennifer Lee
主  演 金妮弗·古德温 Ginnifer Goodwin
       杰森·贝特曼 Jason Bateman
       伊德里斯·艾尔巴 Idris Elba
       珍妮·斯蕾特 Jenny Slate
       内特·托伦斯 Nate Torrence
       邦尼·亨特 Bonnie Hunt
       唐·雷克 Don Lake
       汤米·钟 Tommy Chong
       J·K·西蒙斯 J.K. Simmons
       奥克塔维亚·斯宾瑟 Octavia Spencer
       艾伦·图代克 Alan Tudyk
       夏奇拉 Shakira
       雷蒙德·S·佩尔西 Raymond S. Persi
       德拉·萨巴 Della Saba
       莫里斯·拉马奇 Maurice LaMarche
       菲尔·约翰斯顿 Phil Johnston
       约翰·迪·玛吉欧 John Di Maggio
       凯蒂·洛斯 Katie Lowes
       吉塔·雷迪 Gita Reddy
       杰西·科尔蒂 Jesse Corti
       汤米·利斯特 Tommy 'Tiny' Lister
       乔希·达拉斯 Josh Dallas
       瑞奇·摩尔 Rich Moore
       凯特·索西 Kath Soucie
       彼得·曼斯布里奇 Peter Mansbridge
       拜伦·霍华德 Byron Howard
       杰拉德·布什 Jared Bush
       马克·史密斯 Mark Rhino Smith
       乔西·特立尼达 Josie Trinidad
       约翰·拉维尔 John Lavelle
       克里斯汀·贝尔 Kristen Bell
       吉尔·科德斯 Jill Cordes
       梅利莎·古德温 Melissa Goodwin


标  签 动画 | 迪士尼 | 喜剧 | 动物 | 美国 | 搞笑 | Disney | 励志

简  介  

  故事发生在一个所有哺乳类动物和谐共存的美好世界中,兔子朱迪(金妮弗·古德温 Ginnifer Goodwin 配音)从小就梦想着能够成为一名惩恶扬善的刑警,凭借着智慧和努力,朱迪成功的从警校中毕业进入了疯狂动物城警察局,殊不知这里是大型肉食类动物的领地,作为第一只,也是唯一的小型食草类动物,朱迪会遇到怎样的故事呢?
  近日里,城中接连发生动物失踪案件,就在全部警员都致力于调查案件真相之时,朱迪却被局长(伊德瑞斯·艾尔巴 Idris Elba 配音)发配成为了一名无足轻重的交警。某日,正在执勤的兔子遇见了名为尼克(杰森·贝特曼 Jason Bateman 配音)的狐狸,两人不打不相识,之后又误打误撞的接受了寻找失踪的水獭先生的任务,如果不能在两天之内找到水獭先生,朱迪就必须自愿离开警局。朱迪找到了尼克,两人联手揭露了一个隐藏在疯狂动物城之中的惊天秘密。

获奖情况  

  第89届奥斯卡金像奖(2017)
  最佳动画长片 拜伦·霍华德 / 瑞奇·摩尔 / 克拉克·斯宾塞

  第74届金球奖(2017)
  电影类 最佳动画长片

  第70届英国电影学院奖(2017)
  电影奖 最佳动画片(提名) 拜伦·霍华德 / 瑞奇·摩尔

  第40届日本电影学院奖(2017)
  最佳外语片(提名)

  第44届动画安妮奖(2017)
  最佳动画长片
  最佳导演 拜伦·霍华德 / 瑞奇·摩尔 / 杰拉德·布什
  最佳编剧 菲尔·约翰斯顿 / 杰拉德·布什
  最佳配音 杰森·贝特曼
  最佳剪辑(提名)
  最佳分镜
  最佳艺术指导(提名)
  最佳动画角色
  最佳角色设计
  最佳动画效果(提名)

  第28届美国制片人工会奖(2017)
  最佳动画片制片人奖

  第67届美国剪辑工会奖(2017)
  动画片最佳剪辑

  第15届美国视觉效果协会奖(2017)
  最佳动画电影视觉效果(提名)
  最佳动画电影模拟动画效果(提名)

  第53届美国声音效果协会奖(2017)
  动画电影最佳音效(提名)

  第82届纽约影评人协会奖(2016)
  最佳动画片

  第22届美国评论家选择电影奖(2017)
  最佳动画片

  第17届美国电影学会奖(2016)
  年度佳片

  第21届金卫星奖(2017)
  电影部门 最佳动画片(提名)

  第20届好莱坞电影奖(2016)
  年度动画

  第15届华盛顿影评人协会奖(2016)
  最佳动画片(提名)
  最佳配音(提名) 杰森·贝特曼 / 金妮弗·古德温

  第29届芝加哥影评人协会奖(2016)
  最佳动画片(提名)

  第20届美国在线影评人协会奖(2017)
  最佳动画片(提名)

  第3届豆瓣电影年度榜单(2016)
  最受关注的院线电影
  评分最高的动画片
  3月最受关注电影
  1. Video
  2. ID                                       : 1
  3. Format                                   : AVC
  4. Format/Info                              : Advanced Video Codec
  5. Format profile                           : High@L4
  6. Format settings                          : CABAC / 7 Ref Frames
  7. Format settings, CABAC                   : Yes
  8. Format settings, Reference frames        : 7 frames
  9. Codec ID                                 : V_MPEG4/ISO/AVC
  10. Duration                                 : 1 h 48 min
  11. Bit rate                                 : 15.8 Mb/s
  12. Width                                    : 3 840 pixels
  13. Height                                   : 1 608 pixels
  14. Display aspect ratio                     : 2.40:1
  15. Frame rate mode                          : Constant
  16. Frame rate                               : 23.976 (24000/1001) FPS
  17. Color space                              : YUV
  18. Chroma subsampling                       : 4:2:0
  19. Bit depth                                : 8 bits
  20. Scan type                                : Progressive
  21. Bits/(Pixel*Frame)                       : 0.107
  22. Stream size                              : 12.0 GiB (67%)
  23. Title                                    : Zootopia.2016.2160p.BluRay.x264.8bit.SDR.TrueHD.7.1.Atmos-SWTYBLZ
  24. Writing library                          : x264 core 157 r2935 545de2f
  25. Encoding settings                        : cabac=1 / ref=7 / deblock=1:1:1 / analyse=0x3:0x113 / me=umh / subme=10 / psy=1 / psy_rd=0.40:0.00 / mixed_ref=1 / me_range=48 / chroma_me=1 / trellis=2 / 8x8dct=1 / cqm=0 / deadzone=21,11 / fast_pskip=1 / chroma_qp_offset=-2 / threads=50 / lookahead_threads=5 / sliced_threads=0 / nr=0 / decimate=0 / interlaced=0 / bluray_compat=0 / constrained_intra=0 / bframes=5 / b_pyramid=2 / b_adapt=2 / b_bias=0 / direct=3 / weightb=1 / open_gop=0 / weightp=2 / keyint=250 / keyint_min=23 / scenecut=40 / intra_refresh=0 / rc_lookahead=50 / rc=crf / mbtree=1 / crf=16.0 / qcomp=0.60 / qpmin=0 / qpmax=69 / qpstep=4 / ip_ratio=1.40 / aq=1:0.60
  26. Default                                  : Yes
  27. Forced                                   : No

  28. Audio #1
  29. ID                                       : 2
  30. Format                                   : MLP FBA 16-ch
  31. Format/Info                              : Meridian Lossless Packing FBA with 16-channel presentation
  32. Commercial name                          : Dolby TrueHD with Dolby Atmos
  33. Codec ID                                 : A_TRUEHD
  34. Duration                                 : 1 h 48 min
  35. Bit rate mode                            : Variable
  36. Bit rate                                 : 7 170 kb/s
  37. Maximum bit rate                         : 9 216 kb/s
  38. Channel(s)                               : 8 channels
  39. Channel layout                           : L R C LFE Ls Rs Lb Rb
  40. Sampling rate                            : 48.0 kHz
  41. Frame rate                               : 1 200.000 FPS (40 SPF)
  42. Compression mode                         : Lossless
  43. Stream size                              : 5.44 GiB (30%)
  44. Title                                    : Zootopia.2016.2160p.BluRay.x264.8bit.SDR.TrueHD.7.1.Atmos-SWTYBLZ
  45. Language                                 : English
  46. Default                                  : Yes
  47. Forced                                   : No
  48. Number of dynamic objects                : 13
  49. Bed channel count                        : 1 channel
  50. Bed channel configuration                : LFE

  51. Audio #2
  52. ID                                       : 3
  53. Format                                   : AC-3
  54. Format/Info                              : Audio Coding 3
  55. Commercial name                          : Dolby Digital
  56. Codec ID                                 : A_AC3
  57. Duration                                 : 1 h 48 min
  58. Bit rate mode                            : Constant
  59. Bit rate                                 : 640 kb/s
  60. Channel(s)                               : 6 channels
  61. Channel layout                           : L R C LFE Ls Rs
  62. Sampling rate                            : 48.0 kHz
  63. Frame rate                               : 31.250 FPS (1536 SPF)
  64. Bit depth                                : 16 bits
  65. Compression mode                         : Lossy
  66. Stream size                              : 497 MiB (3%)
  67. Title                                    : Zootopia.2016.2160p.BluRay.x264.8bit.SDR.TrueHD.7.1.Atmos-SWTYBLZ
  68. Language                                 : English
  69. Service kind                             : Complete Main
  70. Default                                  : No
  71. Forced                                   : No

  72. Text #1
  73. ID                                       : 4
  74. Format                                   : UTF-8
  75. Codec ID                                 : S_TEXT/UTF8
  76. Codec ID/Info                            : UTF-8 Plain Text
  77. Duration                                 : 1 h 38 min
  78. Bit rate                                 : 73 b/s
  79. Count of elements                        : 1910
  80. Stream size                              : 53.1 KiB (0%)
  81. Title                                    : English-SRT
  82. Language                                 : English
  83. Default                                  : Yes
  84. Forced                                   : No

  85. Text #2
  86. ID                                       : 5
  87. Format                                   : PGS
  88. Muxing mode                              : zlib
  89. Codec ID                                 : S_HDMV/PGS
  90. Codec ID/Info                            : Picture based subtitle format used on BDs/HD-DVDs
  91. Duration                                 : 1 h 46 min
  92. Bit rate                                 : 52.7 kb/s
  93. Count of elements                        : 4592
  94. Stream size                              : 40.3 MiB (0%)
  95. Title                                    : English-PGS
  96. Language                                 : English
  97. Default                                  : No
  98. Forced                                   : No

  99. Text #3
  100. ID                                       : 6
  101. Format                                   : PGS
  102. Muxing mode                              : zlib
  103. Codec ID                                 : S_HDMV/PGS
  104. Codec ID/Info                            : Picture based subtitle format used on BDs/HD-DVDs
  105. Duration                                 : 1 h 39 min
  106. Bit rate                                 : 47.6 kb/s
  107. Count of elements                        : 3502
  108. Stream size                              : 33.9 MiB (0%)
  109. Title                                    : French-PGS
  110. Language                                 : French
  111. Default                                  : No
  112. Forced                                   : No

  113. Text #4
  114. ID                                       : 7
  115. Format                                   : PGS
  116. Muxing mode                              : zlib
  117. Codec ID                                 : S_HDMV/PGS
  118. Codec ID/Info                            : Picture based subtitle format used on BDs/HD-DVDs
  119. Duration                                 : 1 h 38 min
  120. Bit rate                                 : 46.5 kb/s
  121. Count of elements                        : 3452
  122. Stream size                              : 32.9 MiB (0%)
  123. Title                                    : Spanish-PGS
  124. Language                                 : Spanish
  125. Default                                  : No
  126. Forced                                   : No

  127. Text #5
  128. ID                                       : 8
  129. Format                                   : PGS
  130. Muxing mode                              : zlib
  131. Codec ID                                 : S_HDMV/PGS
  132. Codec ID/Info                            : Picture based subtitle format used on BDs/HD-DVDs
  133. Duration                                 : 1 h 47 min
  134. Bit rate                                 : 31.3 kb/s
  135. Count of elements                        : 3154
  136. Stream size                              : 24.0 MiB (0%)
  137. Title                                    : Japanese-PGS
  138. Language                                 : Japanese
  139. Default                                  : No
  140. Forced                                   : No

  141. Menu
  142. 00:00:00.000                             : en:Chapter 01
  143. 00:00:59.434                             : en:Chapter 02
  144. 00:05:49.807                             : en:Chapter 03
  145. 00:10:05.438                             : en:Chapter 04
  146. 00:14:31.412                             : en:Chapter 05
  147. 00:18:23.894                             : en:Chapter 06
  148. 00:26:03.228                             : en:Chapter 07
  149. 00:30:57.313                             : en:Chapter 08
  150. 00:37:06.974                             : en:Chapter 09
  151. 00:40:43.315                             : en:Chapter 10
  152. 00:44:31.627                             : en:Chapter 11
  153. 00:51:40.097                             : en:Chapter 12
  154. 00:55:40.253                             : en:Chapter 13
  155. 01:00:48.144                             : en:Chapter 14
  156. 01:03:37.730                             : en:Chapter 15
  157. 01:09:19.405                             : en:Chapter 16
  158. 01:13:38.914                             : en:Chapter 17
  159. 01:17:06.955                             : en:Chapter 18
  160. 01:21:51.990                             : en:Chapter 19
  161. 01:28:18.710                             : en:Chapter 20
  162. 01:32:43.099                             : en:Chapter 21
  163. 01:36:11.974                             : en:Chapter 22
复制代码

疯狂动物城 Zootopia.2016.2160p.BluRay.x264.8bit.SDR.TrueHD.7.1.Atmos-SWTYBLZ 18.16GB-2.png 疯狂动物城 Zootopia.2016.2160p.BluRay.x264.8bit.SDR.TrueHD.7.1.Atmos-SWTYBLZ 18.16GB-3.png 疯狂动物城 Zootopia.2016.2160p.BluRay.x264.8bit.SDR.TrueHD.7.1.Atmos-SWTYBLZ 18.16GB-4.png 疯狂动物城 Zootopia.2016.2160p.BluRay.x264.8bit.SDR.TrueHD.7.1.Atmos-SWTYBLZ 18.16GB-5.png 172349wtqgjvtgg9ta9uq6.png 疯狂动物城 Zootopia.2016.2160p.BluRay.x264.8bit.SDR.TrueHD.7.1.Atmos-SWTYBLZ 18.16GB-7.png 疯狂动物城 Zootopia.2016.2160p.BluRay.x264.8bit.SDR.TrueHD.7.1.Atmos-SWTYBLZ 18.16GB-8.png







回复

使用道具 举报

发表于 2019-10-27 07:40:49 | 显示全部楼层

我看不错噢 谢谢楼主!蓝光电影网越来越好!
回复 支持 反对

使用道具 举报

发表于 2019-10-27 10:45:29 | 显示全部楼层

这个帖子不回对不起自己!我想我是一天也不能离开蓝光电影网
回复 支持 反对

使用道具 举报

发表于 2019-10-27 10:49:51 | 显示全部楼层
楼主发贴辛苦了,谢谢楼主分享!我觉得蓝光电影网是注册对了!
回复 支持 反对

使用道具 举报

发表于 2019-10-27 22:34:30 | 显示全部楼层

这东西我收了!谢谢楼主!蓝光电影网真好!
回复 支持 反对

使用道具 举报

发表于 2019-10-27 22:46:18 | 显示全部楼层
这部影片孩子们很喜欢!非常感谢热心分享!!!!
回复 支持 反对

使用道具 举报

发表于 2019-10-29 11:25:33 | 显示全部楼层
这东西我收了!谢谢楼主!蓝光电影网真好!
回复 支持 反对

使用道具 举报

发表于 2019-11-2 19:27:34 | 显示全部楼层
东西我收了!谢谢楼主!蓝光电影网真好
回复 支持 反对

使用道具 举报

发表于 3 天前 | 显示全部楼层
感谢分享!!!
回复

使用道具 举报

懒得打字嘛,点击右侧快捷回复 【右侧内容,后台自定义】
您需要登录后才可以回帖 登录 | 立即加入

本版积分规则

现在加入蓝光电影网,注册一个账号

QQ| 手机版|小黑屋| 蓝光电影网 |网站地图

Copyright © 2015-2019 Comsenz Inc.  Template by 蓝光电影论坛 All Rights Reserved.

Powered by 蓝光电影网 X3.4

特别声明:本站所有资源均由网上收集而来,版权归原影音公司所有,如果侵犯了你的权益,请通知我们,我们会及时删除侵权内容.

快速回复 返回顶部 返回列表