找回密码

蓝光电影网

查看: 224|回复: 4

[10bit.SDR] 疯狂动物城 Zootopia.2016.2160p.BluRay.x265.10bit.SDR.TrueHD.7.1.Atmos-SWTYBLZ 18.25GB

[复制链接]

 成长值: 23245

发表于 2019-10-26 17:22:16 | 显示全部楼层 |阅读模式
疯狂动物城 Zootopia.2016.2160p.BluRay.x265.10bit.SDR.TrueHD.7.1.Atmos-SWTYBLZ 18.25GB-1.png

译  名 疯狂动物城 / Zootropolis / 优兽大都会(港) / 动物乌托邦 / 动物大都会 / 动物方城市(台)
片  名 Zootopia
年  代 2016
产  地 美国
类  别 喜剧 / 动画 / 冒险
语  言 英语 / 挪威语
上映日期 2016-03-04(中国大陆/美国)
IMDb评分  8.0/10 from 394437 users
IMDb链接  https://www.imdb.com/title/tt2948356
豆瓣评分 9.2/10 from 1037323 users
豆瓣链接 https://movie.douban.com/subject/25662329/
片  长 109分钟(中国大陆)
导  演 拜伦·霍华德 Byron Howard / 瑞奇·摩尔 Rich Moore / 杰拉德·布什 Jared Bush
编  剧 拜伦·霍华德 Byron Howard / 瑞奇·摩尔 Rich Moore / 杰拉德·布什 Jared Bush / 吉姆·里尔顿 Jim Reardon / 乔西·特立尼达 Josie Trinidad / 菲尔·约翰斯顿 Phil Johnston / 珍妮弗·李 Jennifer Lee
主  演 金妮弗·古德温 Ginnifer Goodwin
       杰森·贝特曼 Jason Bateman
       伊德里斯·艾尔巴 Idris Elba
       珍妮·斯蕾特 Jenny Slate
       内特·托伦斯 Nate Torrence
       邦尼·亨特 Bonnie Hunt
       唐·雷克 Don Lake
       汤米·钟 Tommy Chong
       J·K·西蒙斯 J.K. Simmons
       奥克塔维亚·斯宾瑟 Octavia Spencer
       艾伦·图代克 Alan Tudyk
       夏奇拉 Shakira
       雷蒙德·S·佩尔西 Raymond S. Persi
       德拉·萨巴 Della Saba
       莫里斯·拉马奇 Maurice LaMarche
       菲尔·约翰斯顿 Phil Johnston
       约翰·迪·玛吉欧 John Di Maggio
       凯蒂·洛斯 Katie Lowes
       吉塔·雷迪 Gita Reddy
       杰西·科尔蒂 Jesse Corti
       汤米·利斯特 Tommy 'Tiny' Lister
       乔希·达拉斯 Josh Dallas
       瑞奇·摩尔 Rich Moore
       凯特·索西 Kath Soucie
       彼得·曼斯布里奇 Peter Mansbridge
       拜伦·霍华德 Byron Howard
       杰拉德·布什 Jared Bush
       马克·史密斯 Mark Rhino Smith
       乔西·特立尼达 Josie Trinidad
       约翰·拉维尔 John Lavelle
       克里斯汀·贝尔 Kristen Bell
       吉尔·科德斯 Jill Cordes
       梅利莎·古德温 Melissa Goodwin


标  签 动画 | 迪士尼 | 喜剧 | 动物 | 美国 | 搞笑 | Disney | 励志

简  介  

  故事发生在一个所有哺乳类动物和谐共存的美好世界中,兔子朱迪(金妮弗·古德温 Ginnifer Goodwin 配音)从小就梦想着能够成为一名惩恶扬善的刑警,凭借着智慧和努力,朱迪成功的从警校中毕业进入了疯狂动物城警察局,殊不知这里是大型肉食类动物的领地,作为第一只,也是唯一的小型食草类动物,朱迪会遇到怎样的故事呢?
  近日里,城中接连发生动物失踪案件,就在全部警员都致力于调查案件真相之时,朱迪却被局长(伊德瑞斯·艾尔巴 Idris Elba 配音)发配成为了一名无足轻重的交警。某日,正在执勤的兔子遇见了名为尼克(杰森·贝特曼 Jason Bateman 配音)的狐狸,两人不打不相识,之后又误打误撞的接受了寻找失踪的水獭先生的任务,如果不能在两天之内找到水獭先生,朱迪就必须自愿离开警局。朱迪找到了尼克,两人联手揭露了一个隐藏在疯狂动物城之中的惊天秘密。

获奖情况  

  第89届奥斯卡金像奖(2017)
  最佳动画长片 拜伦·霍华德 / 瑞奇·摩尔 / 克拉克·斯宾塞

  第74届金球奖(2017)
  电影类 最佳动画长片

  第70届英国电影学院奖(2017)
  电影奖 最佳动画片(提名) 拜伦·霍华德 / 瑞奇·摩尔

  第40届日本电影学院奖(2017)
  最佳外语片(提名)

  第44届动画安妮奖(2017)
  最佳动画长片
  最佳导演 拜伦·霍华德 / 瑞奇·摩尔 / 杰拉德·布什
  最佳编剧 菲尔·约翰斯顿 / 杰拉德·布什
  最佳配音 杰森·贝特曼
  最佳剪辑(提名)
  最佳分镜
  最佳艺术指导(提名)
  最佳动画角色
  最佳角色设计
  最佳动画效果(提名)

  第28届美国制片人工会奖(2017)
  最佳动画片制片人奖

  第67届美国剪辑工会奖(2017)
  动画片最佳剪辑

  第15届美国视觉效果协会奖(2017)
  最佳动画电影视觉效果(提名)
  最佳动画电影模拟动画效果(提名)

  第53届美国声音效果协会奖(2017)
  动画电影最佳音效(提名)

  第82届纽约影评人协会奖(2016)
  最佳动画片

  第22届美国评论家选择电影奖(2017)
  最佳动画片

  第17届美国电影学会奖(2016)
  年度佳片

  第21届金卫星奖(2017)
  电影部门 最佳动画片(提名)

  第20届好莱坞电影奖(2016)
  年度动画

  第15届华盛顿影评人协会奖(2016)
  最佳动画片(提名)
  最佳配音(提名) 杰森·贝特曼 / 金妮弗·古德温

  第29届芝加哥影评人协会奖(2016)
  最佳动画片(提名)

  第20届美国在线影评人协会奖(2017)
  最佳动画片(提名)

  第3届豆瓣电影年度榜单(2016)
  最受关注的院线电影
  评分最高的动画片
  3月最受关注电影
  1. Video
  2. ID                                       : 1
  3. Format                                   : HEVC
  4. Format/Info                              : High Efficiency Video Coding
  5. Format profile                           : Main High@L4@High
  6. Codec ID                                 : V_MPEGH/ISO/HEVC
  7. Duration                                 : 1 h 48 min
  8. Bit rate                                 : 16.0 Mb/s
  9. Width                                    : 3 840 pixels
  10. Height                                   : 1 608 pixels
  11. Display aspect ratio                     : 2.40:1
  12. Frame rate mode                          : Constant
  13. Frame rate                               : 23.976 (24000/1001) FPS
  14. Color space                              : YUV
  15. Chroma subsampling                       : 4:2:0
  16. Bit depth                                : 10 bits
  17. Bits/(Pixel*Frame)                       : 0.108
  18. Stream size                              : 12.1 GiB (67%)
  19. Title                                    : Zootopia.2016.2160p.BluRay.x265.10bit.SDR.TrueHD.7.1.Atmos-SWTYBLZ
  20. Writing library                          : x265 3.0ed72af837053:[Windows][GCC 8.2.0][64 bit] 10bit
  21. Encoding settings                        : cpuid=1111039 / frame-threads=16 / numa-pools=24,24,24,24 / wpp / no-pmode / no-pme / no-psnr / no-ssim / log-level=2 / input-csp=1 / input-res=3840x1608 / interlace=0 / total-frames=156139 / level-idc=51 / high-tier=1 / uhd-bd=0 / ref=3 / no-allow-non-conformance / repeat-headers / annexb / aud / hrd / info / hash=0 / no-temporal-layers / no-open-gop / min-keyint=1 / keyint=24 / gop-lookahead=0 / bframes=6 / b-adapt=2 / b-pyramid / bframe-bias=0 / rc-lookahead=25 / lookahead-slices=4 / scenecut=40 / radl=0 / no-splice / no-intra-refresh / ctu=64 / min-cu-size=8 / no-rect / no-amp / max-tu-size=32 / tu-inter-depth=1 / tu-intra-depth=1 / limit-tu=0 / rdoq-level=0 / dynamic-rd=0.00 / no-ssim-rd / signhide / no-tskip / nr-intra=0 / nr-inter=0 / no-constrained-intra / strong-intra-smoothing / max-merge=2 / limit-refs=3 / no-limit-modes / me=1 / subme=2 / merange=57 / temporal-mvp / weightp / no-weightb / no-analyze-src-pics / deblock=1:1 / no-sao / no-sao-non-deblock / rd=3 / no-early-skip / rskip / no-fast-intra / no-tskip-fast / no-cu-lossless / no-b-intra / no-splitrd-skip / rdpenalty=0 / psy-rd=0.40 / psy-rdoq=0.00 / no-rd-refine / no-lossless / cbqpoffs=0 / crqpoffs=0 / rc=crf / crf=14.0 / qcomp=0.60 / qpstep=4 / stats-write=0 / stats-read=0 / vbv-maxrate=160000 / vbv-bufsize=160000 / vbv-init=0.9 / crf-max=0.0 / crf-min=0.0 / ipratio=1.40 / pbratio=1.30 / aq-mode=1 / aq-strength=0.40 / cutree / zone-count=0 / no-strict-cbr / qg-size=32 / no-rc-grain / qpmax=69 / qpmin=0 / no-const-vbv / sar=1 / overscan=0 / videoformat=5 / range=0 / colorprim=2 / transfer=2 / colormatrix=2 / chromaloc=0 / display-window=0 / max-cll=0,0 / min-luma=0 / max-luma=1023 / log2-max-poc-lsb=8 / vui-timing-info / vui-hrd-info / slices=1 / opt-qp-pps / opt-ref-list-length-pps / no-multi-pass-opt-rps / scenecut-bias=0.05 / no-opt-cu-delta-qp / no-aq-motion / no-hdr / no-hdr-opt / no-dhdr10-opt / no-idr-recovery-sei / analysis-reuse-level=5 / scale-factor=0 / refine-intra=0 / refine-inter=0 / refine-mv=0 / refine-ctu-distortion=0 / no-limit-sao / ctu-info=0 / no-lowpass-dct / refine-analysis-type=0 / copy-pic=1 / max-ausize-factor=1.0 / no-dynamic-refine / no-single-sei / no-hevc-aq / qp-adaptation-range=1.00
  22. Default                                  : Yes
  23. Forced                                   : No

  24. Audio #1
  25. ID                                       : 2
  26. Format                                   : MLP FBA 16-ch
  27. Format/Info                              : Meridian Lossless Packing FBA with 16-channel presentation
  28. Commercial name                          : Dolby TrueHD with Dolby Atmos
  29. Codec ID                                 : A_TRUEHD
  30. Duration                                 : 1 h 48 min
  31. Bit rate mode                            : Variable
  32. Bit rate                                 : 7 170 kb/s
  33. Maximum bit rate                         : 9 216 kb/s
  34. Channel(s)                               : 8 channels
  35. Channel layout                           : L R C LFE Ls Rs Lb Rb
  36. Sampling rate                            : 48.0 kHz
  37. Frame rate                               : 1 200.000 FPS (40 SPF)
  38. Compression mode                         : Lossless
  39. Stream size                              : 5.44 GiB (30%)
  40. Title                                    : Zootopia.2016.2160p.BluRay.x265.10bit.SDR.TrueHD.7.1.Atmos-SWTYBLZ
  41. Language                                 : English
  42. Default                                  : Yes
  43. Forced                                   : No
  44. Number of dynamic objects                : 13
  45. Bed channel count                        : 1 channel
  46. Bed channel configuration                : LFE

  47. Audio #2
  48. ID                                       : 3
  49. Format                                   : AC-3
  50. Format/Info                              : Audio Coding 3
  51. Commercial name                          : Dolby Digital
  52. Codec ID                                 : A_AC3
  53. Duration                                 : 1 h 48 min
  54. Bit rate mode                            : Constant
  55. Bit rate                                 : 640 kb/s
  56. Channel(s)                               : 6 channels
  57. Channel layout                           : L R C LFE Ls Rs
  58. Sampling rate                            : 48.0 kHz
  59. Frame rate                               : 31.250 FPS (1536 SPF)
  60. Bit depth                                : 16 bits
  61. Compression mode                         : Lossy
  62. Stream size                              : 497 MiB (3%)
  63. Title                                    : Zootopia.2016.2160p.BluRay.x265.10bit.SDR.TrueHD.7.1.Atmos-SWTYBLZ
  64. Language                                 : English
  65. Service kind                             : Complete Main
  66. Default                                  : No
  67. Forced                                   : No

  68. Text #1
  69. ID                                       : 4
  70. Format                                   : UTF-8
  71. Codec ID                                 : S_TEXT/UTF8
  72. Codec ID/Info                            : UTF-8 Plain Text
  73. Duration                                 : 1 h 38 min
  74. Bit rate                                 : 73 b/s
  75. Count of elements                        : 1910
  76. Stream size                              : 53.1 KiB (0%)
  77. Title                                    : English-SRT
  78. Language                                 : English
  79. Default                                  : Yes
  80. Forced                                   : No

  81. Text #2
  82. ID                                       : 5
  83. Format                                   : PGS
  84. Muxing mode                              : zlib
  85. Codec ID                                 : S_HDMV/PGS
  86. Codec ID/Info                            : Picture based subtitle format used on BDs/HD-DVDs
  87. Duration                                 : 1 h 46 min
  88. Bit rate                                 : 52.7 kb/s
  89. Count of elements                        : 4592
  90. Stream size                              : 40.3 MiB (0%)
  91. Title                                    : English-PGS
  92. Language                                 : English
  93. Default                                  : No
  94. Forced                                   : No

  95. Text #3
  96. ID                                       : 6
  97. Format                                   : PGS
  98. Muxing mode                              : zlib
  99. Codec ID                                 : S_HDMV/PGS
  100. Codec ID/Info                            : Picture based subtitle format used on BDs/HD-DVDs
  101. Duration                                 : 1 h 39 min
  102. Bit rate                                 : 47.6 kb/s
  103. Count of elements                        : 3502
  104. Stream size                              : 33.9 MiB (0%)
  105. Title                                    : French-PGS
  106. Language                                 : French
  107. Default                                  : No
  108. Forced                                   : No

  109. Text #4
  110. ID                                       : 7
  111. Format                                   : PGS
  112. Muxing mode                              : zlib
  113. Codec ID                                 : S_HDMV/PGS
  114. Codec ID/Info                            : Picture based subtitle format used on BDs/HD-DVDs
  115. Duration                                 : 1 h 38 min
  116. Bit rate                                 : 46.5 kb/s
  117. Count of elements                        : 3452
  118. Stream size                              : 32.9 MiB (0%)
  119. Title                                    : Spanish-PGS
  120. Language                                 : Spanish
  121. Default                                  : No
  122. Forced                                   : No

  123. Text #5
  124. ID                                       : 8
  125. Format                                   : PGS
  126. Muxing mode                              : zlib
  127. Codec ID                                 : S_HDMV/PGS
  128. Codec ID/Info                            : Picture based subtitle format used on BDs/HD-DVDs
  129. Duration                                 : 1 h 47 min
  130. Bit rate                                 : 31.3 kb/s
  131. Count of elements                        : 3154
  132. Stream size                              : 24.0 MiB (0%)
  133. Title                                    : Japanese-PGS
  134. Language                                 : Japanese
  135. Default                                  : No
  136. Forced                                   : No

  137. Menu
  138. 00:00:00.000                             : en:Chapter 01
  139. 00:00:59.434                             : en:Chapter 02
  140. 00:05:49.807                             : en:Chapter 03
  141. 00:10:05.438                             : en:Chapter 04
  142. 00:14:31.412                             : en:Chapter 05
  143. 00:18:23.894                             : en:Chapter 06
  144. 00:26:03.228                             : en:Chapter 07
  145. 00:30:57.313                             : en:Chapter 08
  146. 00:37:06.974                             : en:Chapter 09
  147. 00:40:43.315                             : en:Chapter 10
  148. 00:44:31.627                             : en:Chapter 11
  149. 00:51:40.097                             : en:Chapter 12
  150. 00:55:40.253                             : en:Chapter 13
  151. 01:00:48.144                             : en:Chapter 14
  152. 01:03:37.730                             : en:Chapter 15
  153. 01:09:19.405                             : en:Chapter 16
  154. 01:13:38.914                             : en:Chapter 17
  155. 01:17:06.955                             : en:Chapter 18
  156. 01:21:51.990                             : en:Chapter 19
  157. 01:28:18.710                             : en:Chapter 20
  158. 01:32:43.099                             : en:Chapter 21
  159. 01:36:11.974                             : en:Chapter 22
复制代码

疯狂动物城 Zootopia.2016.2160p.BluRay.x265.10bit.SDR.TrueHD.7.1.Atmos-SWTYBLZ 18.25GB-2.png 疯狂动物城 Zootopia.2016.2160p.BluRay.x265.10bit.SDR.TrueHD.7.1.Atmos-SWTYBLZ 18.25GB-3.png 疯狂动物城 Zootopia.2016.2160p.BluRay.x265.10bit.SDR.TrueHD.7.1.Atmos-SWTYBLZ 18.25GB-4.png 疯狂动物城 Zootopia.2016.2160p.BluRay.x265.10bit.SDR.TrueHD.7.1.Atmos-SWTYBLZ 18.25GB-5.png 疯狂动物城 Zootopia.2016.2160p.BluRay.x265.10bit.SDR.TrueHD.7.1.Atmos-SWTYBLZ 18.25GB-6.png 疯狂动物城 Zootopia.2016.2160p.BluRay.x265.10bit.SDR.TrueHD.7.1.Atmos-SWTYBLZ 18.25GB-7.png 疯狂动物城 Zootopia.2016.2160p.BluRay.x265.10bit.SDR.TrueHD.7.1.Atmos-SWTYBLZ 18.25GB-8.png







回复

使用道具 举报

发表于 2019-10-26 18:53:25 | 显示全部楼层

我看不错噢 谢谢楼主!蓝光电影网越来越好!
回复 支持 反对

使用道具 举报

发表于 2019-10-26 21:34:28 | 显示全部楼层
这个不错没想到有4K的版本呢
回复 支持 反对

使用道具 举报

发表于 2019-10-29 09:06:51 | 显示全部楼层

这东西我收了!谢谢楼主!蓝光电影网真好!
回复 支持 反对

使用道具 举报

发表于 2019-10-29 09:08:11 | 显示全部楼层

我看不错噢 谢谢楼主!蓝光电影网越来越好!
回复 支持 反对

使用道具 举报

懒得打字嘛,点击右侧快捷回复 【右侧内容,后台自定义】
您需要登录后才可以回帖 登录 | 立即加入

本版积分规则

现在加入蓝光电影网,注册一个账号

QQ| 手机版|小黑屋| 蓝光电影网 |网站地图 

Copyright © 2015-2019 Comsenz Inc.  Template by 蓝光电影论坛 All Rights Reserved.

Powered by 蓝光电影网 X3.4

特别声明:本站所有资源均由网上收集而来,版权归原影音公司所有,如果侵犯了你的权益,请通知我们,我们会及时删除侵权内容.

快速回复 返回顶部 返回列表