找回密码

蓝光电影网

查看: 227|回复: 8

[REMUX.HEVC] 疯狂动物城 Zootopia.2016.2160p.BluRay.REMUX.HEVC.TrueHD.7.1.Atmos-FGT 43.91GB

[复制链接]

 成长值: 23245

发表于 2019-10-26 17:03:21 | 显示全部楼层 |阅读模式
疯狂动物城 Zootopia.2016.2160p.BluRay.REMUX.HEVC.TrueHD.7.1.Atmos-FGT 43.91GB-1.png

译  名 疯狂动物城 / Zootropolis / 优兽大都会(港) / 动物乌托邦 / 动物大都会 / 动物方城市(台)
片  名 Zootopia
年  代 2016
产  地 美国
类  别 喜剧 / 动画 / 冒险
语  言 英语 / 挪威语
上映日期 2016-03-04(中国大陆/美国)
IMDb评分  8.0/10 from 394437 users
IMDb链接  https://www.imdb.com/title/tt2948356
豆瓣评分 9.2/10 from 1037323 users
豆瓣链接 https://movie.douban.com/subject/25662329/
片  长 109分钟(中国大陆)
导  演 拜伦·霍华德 Byron Howard / 瑞奇·摩尔 Rich Moore / 杰拉德·布什 Jared Bush
编  剧 拜伦·霍华德 Byron Howard / 瑞奇·摩尔 Rich Moore / 杰拉德·布什 Jared Bush / 吉姆·里尔顿 Jim Reardon / 乔西·特立尼达 Josie Trinidad / 菲尔·约翰斯顿 Phil Johnston / 珍妮弗·李 Jennifer Lee
主  演 金妮弗·古德温 Ginnifer Goodwin
       杰森·贝特曼 Jason Bateman
       伊德里斯·艾尔巴 Idris Elba
       珍妮·斯蕾特 Jenny Slate
       内特·托伦斯 Nate Torrence
       邦尼·亨特 Bonnie Hunt
       唐·雷克 Don Lake
       汤米·钟 Tommy Chong
       J·K·西蒙斯 J.K. Simmons
       奥克塔维亚·斯宾瑟 Octavia Spencer
       艾伦·图代克 Alan Tudyk
       夏奇拉 Shakira
       雷蒙德·S·佩尔西 Raymond S. Persi
       德拉·萨巴 Della Saba
       莫里斯·拉马奇 Maurice LaMarche
       菲尔·约翰斯顿 Phil Johnston
       约翰·迪·玛吉欧 John Di Maggio
       凯蒂·洛斯 Katie Lowes
       吉塔·雷迪 Gita Reddy
       杰西·科尔蒂 Jesse Corti
       汤米·利斯特 Tommy 'Tiny' Lister
       乔希·达拉斯 Josh Dallas
       瑞奇·摩尔 Rich Moore
       凯特·索西 Kath Soucie
       彼得·曼斯布里奇 Peter Mansbridge
       拜伦·霍华德 Byron Howard
       杰拉德·布什 Jared Bush
       马克·史密斯 Mark Rhino Smith
       乔西·特立尼达 Josie Trinidad
       约翰·拉维尔 John Lavelle
       克里斯汀·贝尔 Kristen Bell
       吉尔·科德斯 Jill Cordes
       梅利莎·古德温 Melissa Goodwin


标  签 动画 | 迪士尼 | 喜剧 | 动物 | 美国 | 搞笑 | Disney | 励志

简  介  

  故事发生在一个所有哺乳类动物和谐共存的美好世界中,兔子朱迪(金妮弗·古德温 Ginnifer Goodwin 配音)从小就梦想着能够成为一名惩恶扬善的刑警,凭借着智慧和努力,朱迪成功的从警校中毕业进入了疯狂动物城警察局,殊不知这里是大型肉食类动物的领地,作为第一只,也是唯一的小型食草类动物,朱迪会遇到怎样的故事呢?
  近日里,城中接连发生动物失踪案件,就在全部警员都致力于调查案件真相之时,朱迪却被局长(伊德瑞斯·艾尔巴 Idris Elba 配音)发配成为了一名无足轻重的交警。某日,正在执勤的兔子遇见了名为尼克(杰森·贝特曼 Jason Bateman 配音)的狐狸,两人不打不相识,之后又误打误撞的接受了寻找失踪的水獭先生的任务,如果不能在两天之内找到水獭先生,朱迪就必须自愿离开警局。朱迪找到了尼克,两人联手揭露了一个隐藏在疯狂动物城之中的惊天秘密。

获奖情况  

  第89届奥斯卡金像奖(2017)
  最佳动画长片 拜伦·霍华德 / 瑞奇·摩尔 / 克拉克·斯宾塞

  第74届金球奖(2017)
  电影类 最佳动画长片

  第70届英国电影学院奖(2017)
  电影奖 最佳动画片(提名) 拜伦·霍华德 / 瑞奇·摩尔

  第40届日本电影学院奖(2017)
  最佳外语片(提名)

  第44届动画安妮奖(2017)
  最佳动画长片
  最佳导演 拜伦·霍华德 / 瑞奇·摩尔 / 杰拉德·布什
  最佳编剧 菲尔·约翰斯顿 / 杰拉德·布什
  最佳配音 杰森·贝特曼
  最佳剪辑(提名)
  最佳分镜
  最佳艺术指导(提名)
  最佳动画角色
  最佳角色设计
  最佳动画效果(提名)

  第28届美国制片人工会奖(2017)
  最佳动画片制片人奖

  第67届美国剪辑工会奖(2017)
  动画片最佳剪辑

  第15届美国视觉效果协会奖(2017)
  最佳动画电影视觉效果(提名)
  最佳动画电影模拟动画效果(提名)

  第53届美国声音效果协会奖(2017)
  动画电影最佳音效(提名)

  第82届纽约影评人协会奖(2016)
  最佳动画片

  第22届美国评论家选择电影奖(2017)
  最佳动画片

  第17届美国电影学会奖(2016)
  年度佳片

  第21届金卫星奖(2017)
  电影部门 最佳动画片(提名)

  第20届好莱坞电影奖(2016)
  年度动画

  第15届华盛顿影评人协会奖(2016)
  最佳动画片(提名)
  最佳配音(提名) 杰森·贝特曼 / 金妮弗·古德温

  第29届芝加哥影评人协会奖(2016)
  最佳动画片(提名)

  第20届美国在线影评人协会奖(2017)
  最佳动画片(提名)

  第3届豆瓣电影年度榜单(2016)
  最受关注的院线电影
  评分最高的动画片
  3月最受关注电影
  1. Video
  2. ID                                       : 1
  3. Format                                   : HEVC
  4. Format/Info                              : High Efficiency Video Coding
  5. Format profile                           : Main High@L4@High
  6. HDR format                               : SMPTE ST 2086, HDR10 compatible
  7. Codec ID                                 : V_MPEGH/ISO/HEVC
  8. Duration                                 : 1 h 48 min
  9. Bit rate                                 : 44.9 Mb/s
  10. Width                                    : 3 840 pixels
  11. Height                                   : 2 160 pixels
  12. Display aspect ratio                     : 16:9
  13. Frame rate mode                          : Constant
  14. Frame rate                               : 23.976 (24000/1001) FPS
  15. Color space                              : YUV
  16. Chroma subsampling                       : 4:2:0 (Type 2)
  17. Bit depth                                : 10 bits
  18. Bits/(Pixel*Frame)                       : 0.226
  19. Stream size                              : 34.0 GiB (77%)
  20. Title                                    : Zootopia.2016.2160p.BluRay.REMUX.HEVC.TrueHD.7.1.Atmos-FGT
  21. Writing library                          : ATEME Titan File 3.9.0 (4.9.0.0)        
  22. Language                                 : English
  23. Default                                  : No
  24. Forced                                   : No
  25. Color range                              : Limited
  26. Color primaries                          : BT.2020
  27. Transfer characteristics                 : PQ
  28. Matrix coefficients                      : BT.2020 non-constant
  29. Mastering display color primaries        : Display P3
  30. Mastering display luminance              : min: 0.0050 cd/m2, max: 4000 cd/m2

  31. Audio #1
  32. ID                                       : 2
  33. Format                                   : MLP FBA 16-ch
  34. Format/Info                              : Meridian Lossless Packing FBA with 16-channel presentation
  35. Commercial name                          : Dolby TrueHD with Dolby Atmos
  36. Codec ID                                 : A_TRUEHD
  37. Duration                                 : 1 h 48 min
  38. Bit rate mode                            : Variable
  39. Bit rate                                 : 7 170 kb/s
  40. Maximum bit rate                         : 9 216 kb/s
  41. Channel(s)                               : 8 channels
  42. Channel layout                           : L R C LFE Ls Rs Lb Rb
  43. Sampling rate                            : 48.0 kHz
  44. Frame rate                               : 1 200.000 FPS (40 SPF)
  45. Compression mode                         : Lossless
  46. Stream size                              : 5.44 GiB (12%)
  47. Title                                    : Zootopia.2016.2160p.BluRay.REMUX.HEVC.TrueHD.7.1.Atmos-FGT
  48. Language                                 : English
  49. Default                                  : Yes
  50. Forced                                   : No
  51. Number of dynamic objects                : 13
  52. Bed channel count                        : 1 channel
  53. Bed channel configuration                : LFE

  54. Audio #2
  55. ID                                       : 3
  56. Format                                   : AC-3
  57. Format/Info                              : Audio Coding 3
  58. Commercial name                          : Dolby Digital
  59. Codec ID                                 : A_AC3
  60. Duration                                 : 1 h 48 min
  61. Bit rate mode                            : Constant
  62. Bit rate                                 : 640 kb/s
  63. Channel(s)                               : 6 channels
  64. Channel layout                           : L R C LFE Ls Rs
  65. Sampling rate                            : 48.0 kHz
  66. Frame rate                               : 31.250 FPS (1536 SPF)
  67. Bit depth                                : 16 bits
  68. Compression mode                         : Lossy
  69. Stream size                              : 497 MiB (1%)
  70. Title                                    : Zootopia.2016.2160p.BluRay.REMUX.HEVC.TrueHD.7.1.Atmos-FGT
  71. Language                                 : English
  72. Service kind                             : Complete Main
  73. Default                                  : No
  74. Forced                                   : No

  75. Audio #3
  76. ID                                       : 4
  77. Format                                   : AC-3
  78. Format/Info                              : Audio Coding 3
  79. Commercial name                          : Dolby Digital
  80. Codec ID                                 : A_AC3
  81. Duration                                 : 1 h 48 min
  82. Bit rate mode                            : Constant
  83. Bit rate                                 : 320 kb/s
  84. Channel(s)                               : 2 channels
  85. Channel layout                           : L R
  86. Sampling rate                            : 48.0 kHz
  87. Frame rate                               : 31.250 FPS (1536 SPF)
  88. Bit depth                                : 16 bits
  89. Compression mode                         : Lossy
  90. Stream size                              : 248 MiB (1%)
  91. Title                                    : Zootopia.2016.2160p.BluRay.REMUX.HEVC.TrueHD.7.1.Atmos-FGT
  92. Language                                 : English
  93. Service kind                             : Complete Main
  94. Default                                  : No
  95. Forced                                   : No

  96. Audio #4
  97. ID                                       : 5
  98. Format                                   : E-AC-3
  99. Format/Info                              : Enhanced AC-3
  100. Commercial name                          : Dolby Digital Plus
  101. Format profile                           : Blu-ray Disc
  102. Codec ID                                 : A_EAC3
  103. Duration                                 : 1 h 48 min
  104. Bit rate mode                            : Constant
  105. Bit rate                                 : 1 024 kb/s
  106. Channel(s)                               : 8 channels
  107. Channel layout                           : L R C LFE Ls Rs Lb Rb
  108. Sampling rate                            : 48.0 kHz
  109. Frame rate                               : 31.250 FPS (1536 SPF)
  110. Compression mode                         : Lossy
  111. Stream size                              : 795 MiB (2%)
  112. Title                                    : Zootopia.2016.2160p.BluRay.REMUX.HEVC.TrueHD.7.1.Atmos-FGT
  113. Language                                 : French
  114. Service kind                             : Complete Main
  115. Default                                  : No
  116. Forced                                   : No

  117. Audio #5
  118. ID                                       : 6
  119. Format                                   : AC-3
  120. Format/Info                              : Audio Coding 3
  121. Commercial name                          : Dolby Digital
  122. Codec ID                                 : A_AC3
  123. Duration                                 : 1 h 48 min
  124. Bit rate mode                            : Constant
  125. Bit rate                                 : 576 kb/s
  126. Channel(s)                               : 6 channels
  127. Channel layout                           : L R C LFE Ls Rs
  128. Sampling rate                            : 48.0 kHz
  129. Frame rate                               : 31.250 FPS (1536 SPF)
  130. Bit depth                                : 16 bits
  131. Compression mode                         : Lossy
  132. Stream size                              : 447 MiB (1%)
  133. Title                                    : Zootopia.2016.2160p.BluRay.REMUX.HEVC.TrueHD.7.1.Atmos-FGT
  134. Language                                 : French
  135. Service kind                             : Complete Main
  136. Default                                  : No
  137. Forced                                   : No

  138. Audio #6
  139. ID                                       : 7
  140. Format                                   : E-AC-3
  141. Format/Info                              : Enhanced AC-3
  142. Commercial name                          : Dolby Digital Plus
  143. Format profile                           : Blu-ray Disc
  144. Codec ID                                 : A_EAC3
  145. Duration                                 : 1 h 48 min
  146. Bit rate mode                            : Constant
  147. Bit rate                                 : 1 024 kb/s
  148. Channel(s)                               : 8 channels
  149. Channel layout                           : L R C LFE Ls Rs Lb Rb
  150. Sampling rate                            : 48.0 kHz
  151. Frame rate                               : 31.250 FPS (1536 SPF)
  152. Compression mode                         : Lossy
  153. Stream size                              : 795 MiB (2%)
  154. Title                                    : Zootopia.2016.2160p.BluRay.REMUX.HEVC.TrueHD.7.1.Atmos-FGT
  155. Language                                 : Spanish
  156. Service kind                             : Complete Main
  157. Default                                  : No
  158. Forced                                   : No

  159. Audio #7
  160. ID                                       : 8
  161. Format                                   : AC-3
  162. Format/Info                              : Audio Coding 3
  163. Commercial name                          : Dolby Digital
  164. Codec ID                                 : A_AC3
  165. Duration                                 : 1 h 48 min
  166. Bit rate mode                            : Constant
  167. Bit rate                                 : 576 kb/s
  168. Channel(s)                               : 6 channels
  169. Channel layout                           : L R C LFE Ls Rs
  170. Sampling rate                            : 48.0 kHz
  171. Frame rate                               : 31.250 FPS (1536 SPF)
  172. Bit depth                                : 16 bits
  173. Compression mode                         : Lossy
  174. Stream size                              : 447 MiB (1%)
  175. Title                                    : Zootopia.2016.2160p.BluRay.REMUX.HEVC.TrueHD.7.1.Atmos-FGT
  176. Language                                 : Spanish
  177. Service kind                             : Complete Main
  178. Default                                  : No
  179. Forced                                   : No

  180. Audio #8
  181. ID                                       : 9
  182. Format                                   : E-AC-3
  183. Format/Info                              : Enhanced AC-3
  184. Commercial name                          : Dolby Digital Plus
  185. Format profile                           : Blu-ray Disc
  186. Codec ID                                 : A_EAC3
  187. Duration                                 : 1 h 48 min
  188. Bit rate mode                            : Constant
  189. Bit rate                                 : 1 024 kb/s
  190. Channel(s)                               : 8 channels
  191. Channel layout                           : L R C LFE Ls Rs Lb Rb
  192. Sampling rate                            : 48.0 kHz
  193. Frame rate                               : 31.250 FPS (1536 SPF)
  194. Compression mode                         : Lossy
  195. Stream size                              : 795 MiB (2%)
  196. Title                                    : Zootopia.2016.2160p.BluRay.REMUX.HEVC.TrueHD.7.1.Atmos-FGT
  197. Language                                 : Japanese
  198. Service kind                             : Complete Main
  199. Default                                  : No
  200. Forced                                   : No

  201. Audio #9
  202. ID                                       : 10
  203. Format                                   : AC-3
  204. Format/Info                              : Audio Coding 3
  205. Commercial name                          : Dolby Digital
  206. Codec ID                                 : A_AC3
  207. Duration                                 : 1 h 48 min
  208. Bit rate mode                            : Constant
  209. Bit rate                                 : 576 kb/s
  210. Channel(s)                               : 6 channels
  211. Channel layout                           : L R C LFE Ls Rs
  212. Sampling rate                            : 48.0 kHz
  213. Frame rate                               : 31.250 FPS (1536 SPF)
  214. Bit depth                                : 16 bits
  215. Compression mode                         : Lossy
  216. Stream size                              : 447 MiB (1%)
  217. Title                                    : Zootopia.2016.2160p.BluRay.REMUX.HEVC.TrueHD.7.1.Atmos-FGT
  218. Language                                 : Japanese
  219. Service kind                             : Complete Main
  220. Default                                  : No
  221. Forced                                   : No

  222. Text #1
  223. ID                                       : 11
  224. Format                                   : UTF-8
  225. Codec ID                                 : S_TEXT/UTF8
  226. Codec ID/Info                            : UTF-8 Plain Text
  227. Duration                                 : 1 h 38 min
  228. Bit rate                                 : 73 b/s
  229. Count of elements                        : 1910
  230. Stream size                              : 53.1 KiB (0%)
  231. Title                                    : English-SRT
  232. Language                                 : English
  233. Default                                  : Yes
  234. Forced                                   : No

  235. Text #2
  236. ID                                       : 12
  237. Format                                   : PGS
  238. Muxing mode                              : zlib
  239. Codec ID                                 : S_HDMV/PGS
  240. Codec ID/Info                            : Picture based subtitle format used on BDs/HD-DVDs
  241. Duration                                 : 1 h 46 min
  242. Bit rate                                 : 52.7 kb/s
  243. Count of elements                        : 4592
  244. Stream size                              : 40.3 MiB (0%)
  245. Title                                    : English-PGS
  246. Language                                 : English
  247. Default                                  : No
  248. Forced                                   : No

  249. Text #3
  250. ID                                       : 13
  251. Format                                   : PGS
  252. Muxing mode                              : zlib
  253. Codec ID                                 : S_HDMV/PGS
  254. Codec ID/Info                            : Picture based subtitle format used on BDs/HD-DVDs
  255. Duration                                 : 1 h 39 min
  256. Bit rate                                 : 47.6 kb/s
  257. Count of elements                        : 3502
  258. Stream size                              : 33.9 MiB (0%)
  259. Title                                    : French-PGS
  260. Language                                 : French
  261. Default                                  : No
  262. Forced                                   : No

  263. Text #4
  264. ID                                       : 14
  265. Format                                   : PGS
  266. Muxing mode                              : zlib
  267. Codec ID                                 : S_HDMV/PGS
  268. Codec ID/Info                            : Picture based subtitle format used on BDs/HD-DVDs
  269. Duration                                 : 1 h 38 min
  270. Bit rate                                 : 46.5 kb/s
  271. Count of elements                        : 3452
  272. Stream size                              : 32.9 MiB (0%)
  273. Title                                    : Spanish-PGS
  274. Language                                 : Spanish
  275. Default                                  : No
  276. Forced                                   : No

  277. Text #5
  278. ID                                       : 15
  279. Format                                   : PGS
  280. Muxing mode                              : zlib
  281. Codec ID                                 : S_HDMV/PGS
  282. Codec ID/Info                            : Picture based subtitle format used on BDs/HD-DVDs
  283. Duration                                 : 1 h 47 min
  284. Bit rate                                 : 31.3 kb/s
  285. Count of elements                        : 3154
  286. Stream size                              : 24.0 MiB (0%)
  287. Title                                    : Japanese-PGS
  288. Language                                 : Japanese
  289. Default                                  : No
  290. Forced                                   : No

  291. Menu
  292. 00:00:00.000                             : en:Chapter 01
  293. 00:00:59.434                             : en:Chapter 02
  294. 00:05:49.807                             : en:Chapter 03
  295. 00:10:05.438                             : en:Chapter 04
  296. 00:14:31.412                             : en:Chapter 05
  297. 00:18:23.894                             : en:Chapter 06
  298. 00:26:03.228                             : en:Chapter 07
  299. 00:30:57.313                             : en:Chapter 08
  300. 00:37:06.974                             : en:Chapter 09
  301. 00:40:43.315                             : en:Chapter 10
  302. 00:44:31.627                             : en:Chapter 11
  303. 00:51:40.097                             : en:Chapter 12
  304. 00:55:40.253                             : en:Chapter 13
  305. 01:00:48.144                             : en:Chapter 14
  306. 01:03:37.730                             : en:Chapter 15
  307. 01:09:19.405                             : en:Chapter 16
  308. 01:13:38.914                             : en:Chapter 17
  309. 01:17:06.955                             : en:Chapter 18
  310. 01:21:51.990                             : en:Chapter 19
  311. 01:28:18.710                             : en:Chapter 20
  312. 01:32:43.099                             : en:Chapter 21
  313. 01:36:11.974                             : en:Chapter 22
复制代码

疯狂动物城 Zootopia.2016.2160p.BluRay.REMUX.HEVC.TrueHD.7.1.Atmos-FGT 43.91GB-2.png 疯狂动物城 Zootopia.2016.2160p.BluRay.REMUX.HEVC.TrueHD.7.1.Atmos-FGT 43.91GB-3.png 疯狂动物城 Zootopia.2016.2160p.BluRay.REMUX.HEVC.TrueHD.7.1.Atmos-FGT 43.91GB-4.png







回复

使用道具 举报

发表于 2019-10-26 23:27:43 | 显示全部楼层
疯狂动物城 / Zootropolis / 优兽大都会(港) / 动物乌托邦 / 动物大都会 / 动物方城市(台)
回复 支持 反对

使用道具 举报

发表于 2019-10-27 21:38:30 | 显示全部楼层
谢谢楼主分享
回复 支持 反对

使用道具 举报

 成长值: 1030

发表于 2019-10-28 11:47:46 | 显示全部楼层
谢谢楼主无私分享
回复 支持 反对

使用道具 举报

发表于 2019-10-28 13:14:53 | 显示全部楼层
谢谢楼主无私分享
回复 支持 反对

使用道具 举报

发表于 2019-10-28 23:31:56 | 显示全部楼层
一部值得收藏的动画片,很有教育意义.
回复 支持 反对

使用道具 举报

发表于 2019-11-3 08:24:22 | 显示全部楼层
谢谢分享!!!!!!
回复

使用道具 举报

已抛锚 成长值: 300

发表于 2019-11-3 09:15:39 | 显示全部楼层
谢谢分响
回复

使用道具 举报

发表于 2019-11-3 11:52:49 | 显示全部楼层

既然你诚信诚意的推荐了,那我就勉为其难的看看吧!蓝光电影网不走平凡路。
回复 支持 反对

使用道具 举报

懒得打字嘛,点击右侧快捷回复 【右侧内容,后台自定义】
您需要登录后才可以回帖 登录 | 立即加入

本版积分规则

现在加入蓝光电影网,注册一个账号

QQ| 手机版|小黑屋| 蓝光电影网 |网站地图 

Copyright © 2015-2019 Comsenz Inc.  Template by 蓝光电影论坛 All Rights Reserved.

Powered by 蓝光电影网 X3.4

特别声明:本站所有资源均由网上收集而来,版权归原影音公司所有,如果侵犯了你的权益,请通知我们,我们会及时删除侵权内容.

快速回复 返回顶部 返回列表