找回密码

蓝光电影网

查看: 184|回复: 5

[REMUX.HEVC] 生活多美好 Its.a.Wonderful.Life.1946.2160p.BluRay.REMUX.HEVC.TrueHD.2.0-FGT 48.26GB

[复制链接]

 成长值: 23155

发表于 2019-10-26 17:02:04 | 显示全部楼层 |阅读模式
生活多美好 Its.a.Wonderful.Life.1946.2160p.BluRay.REMUX.HEVC.TrueHD.2.0-FGT 48.26GB-1.png

译  名 生活多美好 / Frank Capra's It's a Wonderful Life / 哀乐人生 / 美好人生 / 美好生活 / 风云人物
片  名 It's a Wonderful Life
年  代 1946
产  地 美国
类  别 剧情 / 爱情 / 奇幻
语  言 英语 / 法语
上映日期 1946-12-20
IMDb评分  8.6/10 from 362631 users
IMDb链接  http://www.imdb.com/title/tt0038650
豆瓣评分 9.2/10 from 47614 users
豆瓣链接 https://movie.douban.com/subject/1293749/
片  长 130 分钟
导  演 弗兰克·卡普拉 Frank Capra
编  剧 弗朗西丝·古德里奇 Frances Goodrich / 艾伯特·哈克特 Albert Hackett / 弗兰克·卡普拉 Frank Capra / 乔·斯沃林 Jo Swerling / Philip Van Doren Stern / 迈克尔·威尔逊 Michael Wilson
主  演 詹姆斯·斯图尔特 James Stewart
       唐娜·里德 Donna Reed
       莱昂纳尔·巴里摩尔 Lionel Barrymore
       托马斯·米切尔 Thomas Mitchell
       亨利·崔佛斯 Henry Travers
       比尤拉·邦蒂 Beulah Bondi
       弗兰克·费伦 Frank Faylen
       沃德·邦德 Ward Bond
       格洛丽亚·格雷厄姆 Gloria Grahame
       H.B.沃纳 H.B. Warner
       弗兰克·艾伯森 Frank Albertson
       托德·卡恩茨 Todd Karns
       萨缪尔·S·辛兹 Samuel S. Hinds
       玛丽特琳 Mary Treen
       Virginia Patton
       查尔斯·威廉姆斯 Charles Williams
       Sarah Edwards
       William Edmunds
       莉莲·伦道夫 Lillian Randolph
       Argentina Brunetti
       Robert J. Anderson
       Ronnie Ralph
       Jeanine Ann Roose
       Georgie Nokes
       Sheldon Leonard
       Frank Hagney
       雷·沃克 Ray Walker
       查尔斯·莱恩 Charles Lane
       爱德华·基恩 Edward Keane
       Carol Coombs
       卡罗琳·格兰姆斯 Karolyn Grimes
       Larry Simms
       Jimmy Hawkins
       简·阿克 Jean Acker
       厄尼·亚当斯 Ernie Adams
       曼雅·安德烈 Monya Andre
       斯坦利·安德鲁斯 Stanley Andrews
       Sam Ash
       Jack Bailey
       Brooks Benedict
       Joseph E. Bernard
       阿尔·布里奇 Al Bridge
       玛丽安·卡尔 Marian Carr
       阿德里亚娜·卡塞洛蒂 Adriana Caselotti
       莱恩·钱德勒 Lane Chandler
       Michael Chapin
       Tom Chatterton
       Jack Cheatham
       Harry Cheshire
       Edward Clark
       Tom Coleman
       埃伦·科比 Ellen Corby
       Helen Dickson
       Dick Elliott
       Tom Fadden
       Frank Fenton
       埃迪·凡特思顿 Eddie Fetherston
       Sam Flint
       Dick Gordon
       Joseph Granby
       查尔斯·霍尔顿 Charles Halton
       Herbert Heywood
       Harry Holman
       Art Howard
       Bert Howard
       Arthur Stuart Hull
       John Indrisano
       艾迪·凯恩 Eddie Kane
       Carl Kent
       Milton Kibbee
       Effie Laird
       迈克·拉里 Mike Lally
       Harold Landon
       Meade 'Lux' Lewis
       Jack Lomas
       J·法瑞尔·麦克唐纳 J. Farrell MacDonald
       Wilbur Mack
       Charles Meakin
       伯特·穆尔豪斯 Bert Moorhouse
       Evelyn Moriarty
       Philip Morris
       George Noisom
       弗兰克·奥康纳 Frank O'Connor


标  签 美国 | 励志 | 经典 | 美国电影 | 喜剧 | 1946 | 温情 | 爱情

简  介  

  乔治(詹姆斯?斯图尔特 James Stewart 饰)在圣诞节前准备自杀,这时上帝传来旨意,派天使拯救他,并让他了解到自己一生的使命——拯救那些不幸的人。乔治小时候左耳有疾,在贝德福德镇上的一家药店帮工。他很机灵,深得老板器重,同时也很招女孩喜欢。某日,老板接到爱子死亡的电报,悲痛欲绝,配错了药,幸亏乔治才化险为夷。乔治从小嫉恶如仇,尤其看不惯富人专横跋扈。长大后,乔治一表人材,准备去读大学。这时,他的父亲去世了,他子承父业,协助叔父料理公司事务。然而公司经营状况不佳,在董事会会议上面临破产。如果公司破产,小镇将会有很多家庭陷入困境。乔治力排众议,说服了董事会,但是条件是他要担任董事会秘书长。这与他的大学梦相去甚远。而且,此时他还陷入了对一个女孩的爱恋之中……

获奖情况  

  第19届奥斯卡金像奖(1947)
  最佳影片(提名)
  最佳导演(提名) 弗兰克·卡普拉
  最佳男主角(提名) 詹姆斯·斯图尔特
  最佳剪辑(提名) 威廉·霍恩贝克
  最佳录音(提名) 约翰·奥尔堡

  第4届金球奖(1947)
  电影类 最佳导演 弗兰克·卡普拉
  1. Video #1
  2. ID                                       : 1
  3. Format                                   : HEVC
  4. Format/Info                              : High Efficiency Video Coding
  5. Format profile                           : Main High@L4@High
  6. HDR format                               : SMPTE ST 2086, HDR10 compatible
  7. Codec ID                                 : V_MPEGH/ISO/HEVC
  8. Duration                                 : 2 h 10 min
  9. Bit rate                                 : 45.0 Mb/s
  10. Width                                    : 3 840 pixels
  11. Height                                   : 2 160 pixels
  12. Display aspect ratio                     : 16:9
  13. Frame rate mode                          : Constant
  14. Frame rate                               : 23.976 (24000/1001) FPS
  15. Color space                              : YUV
  16. Chroma subsampling                       : 4:2:0 (Type 2)
  17. Bit depth                                : 10 bits
  18. Bits/(Pixel*Frame)                       : 0.226
  19. Stream size                              : 41.0 GiB (85%)
  20. Title                                    : Its.a.Wonderful.Life.1946.2160p.BluRay.REMUX.HEVC.TrueHD.2.0-FGT
  21. Language                                 : English
  22. Default                                  : Yes
  23. Forced                                   : No
  24. Color range                              : Limited
  25. Color primaries                          : BT.2020
  26. Transfer characteristics                 : PQ
  27. Matrix coefficients                      : BT.2020 non-constant
  28. Mastering display color primaries        : BT.2020
  29. Mastering display luminance              : min: 0.0001 cd/m2, max: 1000 cd/m2

  30. Video #2
  31. ID                                       : 2
  32. Format                                   : HEVC
  33. Format/Info                              : High Efficiency Video Coding
  34. Format profile                           : Main High@L4@High
  35. HDR format                               : SMPTE ST 2086, HDR10 compatible
  36. Codec ID                                 : V_MPEGH/ISO/HEVC
  37. Duration                                 : 2 h 10 min
  38. Bit rate                                 : 5 067 kb/s
  39. Width                                    : 1 920 pixels
  40. Height                                   : 1 080 pixels
  41. Display aspect ratio                     : 16:9
  42. Frame rate mode                          : Constant
  43. Frame rate                               : 23.976 (24000/1001) FPS
  44. Color space                              : YUV
  45. Chroma subsampling                       : 4:2:0 (Type 2)
  46. Bit depth                                : 10 bits
  47. Bits/(Pixel*Frame)                       : 0.102
  48. Stream size                              : 4.62 GiB (10%)
  49. Title                                    : Its.a.Wonderful.Life.1946.2160p.BluRay.REMUX.HEVC.TrueHD.2.0-FGT
  50. Language                                 : English
  51. Default                                  : No
  52. Forced                                   : No
  53. Color range                              : Limited
  54. Color primaries                          : BT.2020
  55. Transfer characteristics                 : PQ
  56. Matrix coefficients                      : BT.2020 non-constant
  57. Mastering display color primaries        : BT.2020
  58. Mastering display luminance              : min: 0.0001 cd/m2, max: 1000 cd/m2

  59. Audio #1
  60. ID                                       : 3
  61. Format                                   : MLP FBA
  62. Format/Info                              : Meridian Lossless Packing FBA
  63. Commercial name                          : Dolby TrueHD
  64. Codec ID                                 : A_TRUEHD
  65. Duration                                 : 2 h 10 min
  66. Bit rate mode                            : Variable
  67. Bit rate                                 : 677 kb/s
  68. Maximum bit rate                         : 1 080 kb/s
  69. Channel(s)                               : 2 channels
  70. Channel layout                           : L R
  71. Sampling rate                            : 48.0 kHz
  72. Frame rate                               : 1 200.000 FPS (40 SPF)
  73. Compression mode                         : Lossless
  74. Stream size                              : 632 MiB (1%)
  75. Title                                    : Its.a.Wonderful.Life.1946.2160p.BluRay.REMUX.HEVC.TrueHD.2.0-FGT
  76. Language                                 : English
  77. Default                                  : Yes
  78. Forced                                   : No

  79. Audio #2
  80. ID                                       : 4
  81. Format                                   : AC-3
  82. Format/Info                              : Audio Coding 3
  83. Commercial name                          : Dolby Digital
  84. Codec ID                                 : A_AC3
  85. Duration                                 : 2 h 10 min
  86. Bit rate mode                            : Constant
  87. Bit rate                                 : 640 kb/s
  88. Channel(s)                               : 2 channels
  89. Channel layout                           : L R
  90. Sampling rate                            : 48.0 kHz
  91. Frame rate                               : 31.250 FPS (1536 SPF)
  92. Bit depth                                : 16 bits
  93. Compression mode                         : Lossy
  94. Stream size                              : 598 MiB (1%)
  95. Title                                    : Its.a.Wonderful.Life.1946.2160p.BluRay.REMUX.HEVC.TrueHD.2.0-FGT
  96. Language                                 : English
  97. Service kind                             : Complete Main
  98. Default                                  : No
  99. Forced                                   : No

  100. Audio #3
  101. ID                                       : 5
  102. Format                                   : AC-3
  103. Format/Info                              : Audio Coding 3
  104. Commercial name                          : Dolby Digital
  105. Codec ID                                 : A_AC3
  106. Duration                                 : 2 h 10 min
  107. Bit rate mode                            : Constant
  108. Bit rate                                 : 224 kb/s
  109. Channel(s)                               : 2 channels
  110. Channel layout                           : L R
  111. Sampling rate                            : 48.0 kHz
  112. Frame rate                               : 31.250 FPS (1536 SPF)
  113. Bit depth                                : 16 bits
  114. Compression mode                         : Lossy
  115. Delay relative to video                  : 667 ms
  116. Stream size                              : 209 MiB (0%)
  117. Title                                    : Its.a.Wonderful.Life.1946.2160p.BluRay.REMUX.HEVC.TrueHD.2.0-FGT
  118. Language                                 : English
  119. Service kind                             : Complete Main
  120. Default                                  : No
  121. Forced                                   : No

  122. Audio #4
  123. ID                                       : 6
  124. Format                                   : AC-3
  125. Format/Info                              : Audio Coding 3
  126. Commercial name                          : Dolby Digital
  127. Codec ID                                 : A_AC3
  128. Duration                                 : 2 h 10 min
  129. Bit rate mode                            : Constant
  130. Bit rate                                 : 224 kb/s
  131. Channel(s)                               : 2 channels
  132. Channel layout                           : L R
  133. Sampling rate                            : 48.0 kHz
  134. Frame rate                               : 31.250 FPS (1536 SPF)
  135. Bit depth                                : 16 bits
  136. Compression mode                         : Lossy
  137. Delay relative to video                  : 667 ms
  138. Stream size                              : 209 MiB (0%)
  139. Title                                    : Its.a.Wonderful.Life.1946.2160p.BluRay.REMUX.HEVC.TrueHD.2.0-FGT
  140. Language                                 : German
  141. Service kind                             : Complete Main
  142. Default                                  : No
  143. Forced                                   : No

  144. Audio #5
  145. ID                                       : 7
  146. Format                                   : AC-3
  147. Format/Info                              : Audio Coding 3
  148. Commercial name                          : Dolby Digital
  149. Codec ID                                 : A_AC3
  150. Duration                                 : 2 h 10 min
  151. Bit rate mode                            : Constant
  152. Bit rate                                 : 224 kb/s
  153. Channel(s)                               : 2 channels
  154. Channel layout                           : L R
  155. Sampling rate                            : 48.0 kHz
  156. Frame rate                               : 31.250 FPS (1536 SPF)
  157. Bit depth                                : 16 bits
  158. Compression mode                         : Lossy
  159. Delay relative to video                  : 667 ms
  160. Stream size                              : 209 MiB (0%)
  161. Title                                    : Its.a.Wonderful.Life.1946.2160p.BluRay.REMUX.HEVC.TrueHD.2.0-FGT
  162. Language                                 : Spanish
  163. Service kind                             : Complete Main
  164. Default                                  : No
  165. Forced                                   : No

  166. Audio #6
  167. ID                                       : 8
  168. Format                                   : AC-3
  169. Format/Info                              : Audio Coding 3
  170. Commercial name                          : Dolby Digital
  171. Codec ID                                 : A_AC3
  172. Duration                                 : 2 h 10 min
  173. Bit rate mode                            : Constant
  174. Bit rate                                 : 224 kb/s
  175. Channel(s)                               : 2 channels
  176. Channel layout                           : L R
  177. Sampling rate                            : 48.0 kHz
  178. Frame rate                               : 31.250 FPS (1536 SPF)
  179. Bit depth                                : 16 bits
  180. Compression mode                         : Lossy
  181. Delay relative to video                  : 667 ms
  182. Stream size                              : 209 MiB (0%)
  183. Title                                    : Its.a.Wonderful.Life.1946.2160p.BluRay.REMUX.HEVC.TrueHD.2.0-FGT
  184. Language                                 : French
  185. Service kind                             : Complete Main
  186. Default                                  : No
  187. Forced                                   : No

  188. Audio #7
  189. ID                                       : 9
  190. Format                                   : AC-3
  191. Format/Info                              : Audio Coding 3
  192. Commercial name                          : Dolby Digital
  193. Codec ID                                 : A_AC3
  194. Duration                                 : 2 h 10 min
  195. Bit rate mode                            : Constant
  196. Bit rate                                 : 224 kb/s
  197. Channel(s)                               : 2 channels
  198. Channel layout                           : L R
  199. Sampling rate                            : 48.0 kHz
  200. Frame rate                               : 31.250 FPS (1536 SPF)
  201. Bit depth                                : 16 bits
  202. Compression mode                         : Lossy
  203. Delay relative to video                  : 667 ms
  204. Stream size                              : 209 MiB (0%)
  205. Title                                    : Its.a.Wonderful.Life.1946.2160p.BluRay.REMUX.HEVC.TrueHD.2.0-FGT
  206. Language                                 : Italian
  207. Service kind                             : Complete Main
  208. Default                                  : No
  209. Forced                                   : No

  210. Audio #8
  211. ID                                       : 10
  212. Format                                   : AC-3
  213. Format/Info                              : Audio Coding 3
  214. Commercial name                          : Dolby Digital
  215. Codec ID                                 : A_AC3
  216. Duration                                 : 2 h 10 min
  217. Bit rate mode                            : Constant
  218. Bit rate                                 : 224 kb/s
  219. Channel(s)                               : 2 channels
  220. Channel layout                           : L R
  221. Sampling rate                            : 48.0 kHz
  222. Frame rate                               : 31.250 FPS (1536 SPF)
  223. Bit depth                                : 16 bits
  224. Compression mode                         : Lossy
  225. Delay relative to video                  : 667 ms
  226. Stream size                              : 209 MiB (0%)
  227. Title                                    : Its.a.Wonderful.Life.1946.2160p.BluRay.REMUX.HEVC.TrueHD.2.0-FGT
  228. Language                                 : Japanese
  229. Service kind                             : Complete Main
  230. Default                                  : No
  231. Forced                                   : No

  232. Text #1
  233. ID                                       : 11
  234. Format                                   : UTF-8
  235. Codec ID                                 : S_TEXT/UTF8
  236. Codec ID/Info                            : UTF-8 Plain Text
  237. Duration                                 : 2 h 8 min
  238. Bit rate                                 : 90 b/s
  239. Count of elements                        : 2344
  240. Stream size                              : 85.6 KiB (0%)
  241. Title                                    : English-SRT
  242. Language                                 : English
  243. Default                                  : Yes
  244. Forced                                   : No

  245. Text #2
  246. ID                                       : 12
  247. Format                                   : PGS
  248. Muxing mode                              : zlib
  249. Codec ID                                 : S_HDMV/PGS
  250. Codec ID/Info                            : Picture based subtitle format used on BDs/HD-DVDs
  251. Duration                                 : 2 h 8 min
  252. Bit rate                                 : 55.2 kb/s
  253. Count of elements                        : 4694
  254. Stream size                              : 50.7 MiB (0%)
  255. Title                                    : English-PGS
  256. Language                                 : English
  257. Default                                  : No
  258. Forced                                   : No

  259. Text #3
  260. ID                                       : 13
  261. Format                                   : PGS
  262. Muxing mode                              : zlib
  263. Codec ID                                 : S_HDMV/PGS
  264. Codec ID/Info                            : Picture based subtitle format used on BDs/HD-DVDs
  265. Duration                                 : 2 h 8 min
  266. Bit rate                                 : 59.0 kb/s
  267. Count of elements                        : 5002
  268. Stream size                              : 54.2 MiB (0%)
  269. Title                                    : English-SDH-PGS
  270. Language                                 : English
  271. Default                                  : No
  272. Forced                                   : No

  273. Text #4
  274. ID                                       : 14
  275. Format                                   : PGS
  276. Muxing mode                              : zlib
  277. Codec ID                                 : S_HDMV/PGS
  278. Codec ID/Info                            : Picture based subtitle format used on BDs/HD-DVDs
  279. Duration                                 : 2 h 9 min
  280. Bit rate                                 : 41.1 kb/s
  281. Count of elements                        : 4384
  282. Stream size                              : 38.0 MiB (0%)
  283. Title                                    : Danish-PGS
  284. Language                                 : Danish
  285. Default                                  : No
  286. Forced                                   : No

  287. Text #5
  288. ID                                       : 15
  289. Format                                   : PGS
  290. Muxing mode                              : zlib
  291. Codec ID                                 : S_HDMV/PGS
  292. Codec ID/Info                            : Picture based subtitle format used on BDs/HD-DVDs
  293. Duration                                 : 2 h 9 min
  294. Bit rate                                 : 55.2 kb/s
  295. Count of elements                        : 4764
  296. Stream size                              : 51.0 MiB (0%)
  297. Title                                    : German-PGS
  298. Language                                 : German
  299. Default                                  : No
  300. Forced                                   : No

  301. Text #6
  302. ID                                       : 16
  303. Format                                   : PGS
  304. Muxing mode                              : zlib
  305. Codec ID                                 : S_HDMV/PGS
  306. Codec ID/Info                            : Picture based subtitle format used on BDs/HD-DVDs
  307. Duration                                 : 2 h 8 min
  308. Bit rate                                 : 636 b/s
  309. Count of elements                        : 56
  310. Stream size                              : 600 KiB (0%)
  311. Title                                    : German-FORCED-PGS
  312. Language                                 : German
  313. Default                                  : No
  314. Forced                                   : No

  315. Text #7
  316. ID                                       : 17
  317. Format                                   : PGS
  318. Muxing mode                              : zlib
  319. Codec ID                                 : S_HDMV/PGS
  320. Codec ID/Info                            : Picture based subtitle format used on BDs/HD-DVDs
  321. Duration                                 : 2 h 10 min
  322. Bit rate                                 : 43.4 kb/s
  323. Count of elements                        : 4376
  324. Stream size                              : 40.4 MiB (0%)
  325. Title                                    : Spanish-PGS
  326. Language                                 : Spanish
  327. Default                                  : No
  328. Forced                                   : No

  329. Text #8
  330. ID                                       : 18
  331. Format                                   : PGS
  332. Muxing mode                              : zlib
  333. Codec ID                                 : S_HDMV/PGS
  334. Codec ID/Info                            : Picture based subtitle format used on BDs/HD-DVDs
  335. Duration                                 : 2 h 1 min
  336. Bit rate                                 : 506 b/s
  337. Count of elements                        : 46
  338. Stream size                              : 452 KiB (0%)
  339. Title                                    : Spanish-FORCED-PGS
  340. Language                                 : Spanish
  341. Default                                  : No
  342. Forced                                   : No

  343. Text #9
  344. ID                                       : 19
  345. Format                                   : PGS
  346. Muxing mode                              : zlib
  347. Codec ID                                 : S_HDMV/PGS
  348. Codec ID/Info                            : Picture based subtitle format used on BDs/HD-DVDs
  349. Duration                                 : 2 h 10 min
  350. Bit rate                                 : 46.4 kb/s
  351. Count of elements                        : 4442
  352. Stream size                              : 43.2 MiB (0%)
  353. Title                                    : French-PGS
  354. Language                                 : French
  355. Default                                  : No
  356. Forced                                   : No

  357. Text #10
  358. ID                                       : 20
  359. Format                                   : PGS
  360. Muxing mode                              : zlib
  361. Codec ID                                 : S_HDMV/PGS
  362. Codec ID/Info                            : Picture based subtitle format used on BDs/HD-DVDs
  363. Duration                                 : 2 h 9 min
  364. Bit rate                                 : 580 b/s
  365. Count of elements                        : 56
  366. Stream size                              : 551 KiB (0%)
  367. Title                                    : French-FORCED-PGS
  368. Language                                 : French
  369. Default                                  : No
  370. Forced                                   : No

  371. Text #11
  372. ID                                       : 21
  373. Format                                   : PGS
  374. Muxing mode                              : zlib
  375. Codec ID                                 : S_HDMV/PGS
  376. Codec ID/Info                            : Picture based subtitle format used on BDs/HD-DVDs
  377. Duration                                 : 2 h 9 min
  378. Bit rate                                 : 40.8 kb/s
  379. Count of elements                        : 4380
  380. Stream size                              : 37.7 MiB (0%)
  381. Title                                    : Italian-PGS
  382. Language                                 : Italian
  383. Default                                  : No
  384. Forced                                   : No

  385. Text #12
  386. ID                                       : 22
  387. Format                                   : PGS
  388. Muxing mode                              : zlib
  389. Codec ID                                 : S_HDMV/PGS
  390. Codec ID/Info                            : Picture based subtitle format used on BDs/HD-DVDs
  391. Duration                                 : 2 h 8 min
  392. Bit rate                                 : 499 b/s
  393. Count of elements                        : 46
  394. Stream size                              : 471 KiB (0%)
  395. Title                                    : Italian-FORCED-PGS
  396. Language                                 : Italian
  397. Default                                  : No
  398. Forced                                   : No

  399. Text #13
  400. ID                                       : 23
  401. Format                                   : PGS
  402. Muxing mode                              : zlib
  403. Codec ID                                 : S_HDMV/PGS
  404. Codec ID/Info                            : Picture based subtitle format used on BDs/HD-DVDs
  405. Duration                                 : 2 h 8 min
  406. Bit rate                                 : 27.8 kb/s
  407. Count of elements                        : 3708
  408. Stream size                              : 25.4 MiB (0%)
  409. Title                                    : Japanese-PGS
  410. Language                                 : Japanese
  411. Default                                  : No
  412. Forced                                   : No

  413. Text #14
  414. ID                                       : 24
  415. Format                                   : PGS
  416. Muxing mode                              : zlib
  417. Codec ID                                 : S_HDMV/PGS
  418. Codec ID/Info                            : Picture based subtitle format used on BDs/HD-DVDs
  419. Duration                                 : 2 h 9 min
  420. Bit rate                                 : 40.6 kb/s
  421. Count of elements                        : 3540
  422. Stream size                              : 37.5 MiB (0%)
  423. Title                                    : Dutch-PGS
  424. Language                                 : Dutch
  425. Default                                  : No
  426. Forced                                   : No

  427. Text #15
  428. ID                                       : 25
  429. Format                                   : PGS
  430. Muxing mode                              : zlib
  431. Codec ID                                 : S_HDMV/PGS
  432. Codec ID/Info                            : Picture based subtitle format used on BDs/HD-DVDs
  433. Duration                                 : 2 h 9 min
  434. Bit rate                                 : 40.8 kb/s
  435. Count of elements                        : 3614
  436. Stream size                              : 37.7 MiB (0%)
  437. Title                                    : Norwegian-PGS
  438. Language                                 : Norwegian
  439. Default                                  : No
  440. Forced                                   : No

  441. Text #16
  442. ID                                       : 26
  443. Format                                   : PGS
  444. Muxing mode                              : zlib
  445. Codec ID                                 : S_HDMV/PGS
  446. Codec ID/Info                            : Picture based subtitle format used on BDs/HD-DVDs
  447. Duration                                 : 2 h 9 min
  448. Bit rate                                 : 44.6 kb/s
  449. Count of elements                        : 4210
  450. Stream size                              : 41.3 MiB (0%)
  451. Title                                    : Finnish-PGS
  452. Language                                 : Finnish
  453. Default                                  : No
  454. Forced                                   : No

  455. Text #17
  456. ID                                       : 27
  457. Format                                   : PGS
  458. Muxing mode                              : zlib
  459. Codec ID                                 : S_HDMV/PGS
  460. Codec ID/Info                            : Picture based subtitle format used on BDs/HD-DVDs
  461. Duration                                 : 2 h 9 min
  462. Bit rate                                 : 34.5 kb/s
  463. Count of elements                        : 3576
  464. Stream size                              : 31.9 MiB (0%)
  465. Title                                    : Swedish-PGS
  466. Language                                 : Swedish
  467. Default                                  : No
  468. Forced                                   : No

  469. Text #18
  470. ID                                       : 28
  471. Format                                   : PGS
  472. Muxing mode                              : zlib
  473. Codec ID                                 : S_HDMV/PGS
  474. Codec ID/Info                            : Picture based subtitle format used on BDs/HD-DVDs
  475. Duration                                 : 2 h 7 min
  476. Bit rate                                 : 336 b/s
  477. Count of elements                        : 40
  478. Stream size                              : 315 KiB (0%)
  479. Title                                    : Japanese-PGS
  480. Language                                 : Japanese
  481. Default                                  : No
  482. Forced                                   : No

  483. Menu
  484. 00:00:00.000                             : en:Chapter 01
  485. 00:03:43.264                             : en:Chapter 02
  486. 00:05:25.575                             : en:Chapter 03
  487. 00:07:46.507                             : en:Chapter 04
  488. 00:11:39.907                             : en:Chapter 05
  489. 00:14:17.523                             : en:Chapter 06
  490. 00:19:03.517                             : en:Chapter 07
  491. 00:21:14.481                             : en:Chapter 08
  492. 00:24:03.942                             : en:Chapter 09
  493. 00:35:16.239                             : en:Chapter 10
  494. 00:42:31.966                             : en:Chapter 11
  495. 00:50:16.763                             : en:Chapter 12
  496. 01:00:12.150                             : en:Chapter 13
  497. 01:03:50.201                             : en:Chapter 14
  498. 01:13:55.764                             : en:Chapter 15
  499. 01:16:51.023                             : en:Chapter 16
  500. 01:19:07.951                             : en:Chapter 17
  501. 01:23:00.517                             : en:Chapter 18
  502. 01:30:24.710                             : en:Chapter 19
  503. 01:32:20.493                             : en:Chapter 20
  504. 01:35:34.812                             : en:Chapter 21
  505. 01:38:39.830                             : en:Chapter 22
  506. 01:39:45.771                             : en:Chapter 23
  507. 01:46:44.898                             : en:Chapter 24
  508. 01:52:47.552                             : en:Chapter 25
  509. 02:01:24.944                             : en:Chapter 26
  510. 02:03:36.117                             : en:Chapter 27
  511. 02:08:10.015                             : en:Chapter 28
复制代码

生活多美好 Its.a.Wonderful.Life.1946.2160p.BluRay.REMUX.HEVC.TrueHD.2.0-FGT 48.26GB-2.png 生活多美好 Its.a.Wonderful.Life.1946.2160p.BluRay.REMUX.HEVC.TrueHD.2.0-FGT 48.26GB-3.png 生活多美好 Its.a.Wonderful.Life.1946.2160p.BluRay.REMUX.HEVC.TrueHD.2.0-FGT 48.26GB-4.png








回复

使用道具 举报

发表于 2019-10-27 11:12:51 | 显示全部楼层

这个帖子不回对不起自己!我想我是一天也不能离开蓝光电影网
回复 支持 反对

使用道具 举报

发表于 2019-10-28 23:38:54 | 显示全部楼层
不错的经典好片,就是不知道修复的效果如何?
回复 支持 反对

使用道具 举报

 成长值: 720

发表于 2019-11-3 10:50:13 | 显示全部楼层
楼主发贴辛苦了,谢谢楼主分享!我觉得蓝光电影网是注册对了!
回复 支持 反对

使用道具 举报

 成长值: 720

发表于 2019-11-4 09:46:21 | 显示全部楼层
楼主发贴辛苦了,谢谢楼主分享!我觉得蓝光电影网是注册对了!
回复 支持 反对

使用道具 举报

已抛锚 成长值: 5530

发表于 5 天前 | 显示全部楼层
██████在-线-看-片bxxp7.c o m 】██████

██████在-线-看-片
bxxp7.c o m 】██████

██████在-线-看-片
bxxp7.c o m 】██████

██████在-线-看-片
bxxp7.c o m 】██████

██████在-线-看-片
bxxp7.c o m 】██████

██████在-线-看-片
bxxp7.c o m 】██████

██████在-线-看-片
bxxp7.c o m 】██████
回复 支持 反对

使用道具 举报

懒得打字嘛,点击右侧快捷回复 【右侧内容,后台自定义】
您需要登录后才可以回帖 登录 | 立即加入

本版积分规则

现在加入蓝光电影网,注册一个账号

QQ| 手机版|小黑屋| 蓝光电影网 |网站地图

Copyright © 2015-2019 Comsenz Inc.  Template by 蓝光电影论坛 All Rights Reserved.

Powered by 蓝光电影网 X3.4

特别声明:本站所有资源均由网上收集而来,版权归原影音公司所有,如果侵犯了你的权益,请通知我们,我们会及时删除侵权内容.

快速回复 返回顶部 返回列表