找回密码

蓝光电影网

查看: 136|回复: 5

[10bit.HDR] 疯狂动物城 Zootopia.2016.2160p.UHD.BluRay.X265.10bit.HDR.TrueHD.7.1.Atmos-TERMiNAL 11.92GB

[复制链接]

 成长值: 23155

发表于 2019-10-26 16:26:25 | 显示全部楼层 |阅读模式
疯狂动物城 Zootopia.2016.2160p.UHD.BluRay.X265.10bit.HDR.TrueHD.7.1.Atmos-TERMiNAL 11.92GB-1.png

译  名 疯狂动物城 / Zootropolis / 优兽大都会(港) / 动物乌托邦 / 动物大都会 / 动物方城市(台)
片  名 Zootopia
年  代 2016
产  地 美国
类  别 喜剧 / 动画 / 冒险
语  言 英语 / 挪威语
上映日期 2016-03-04(中国大陆/美国)
IMDb评分  8.0/10 from 394437 users
IMDb链接  https://www.imdb.com/title/tt2948356
豆瓣评分 9.2/10 from 1037323 users
豆瓣链接 https://movie.douban.com/subject/25662329/
片  长 109分钟(中国大陆)
导  演 拜伦·霍华德 Byron Howard / 瑞奇·摩尔 Rich Moore / 杰拉德·布什 Jared Bush
编  剧 拜伦·霍华德 Byron Howard / 瑞奇·摩尔 Rich Moore / 杰拉德·布什 Jared Bush / 吉姆·里尔顿 Jim Reardon / 乔西·特立尼达 Josie Trinidad / 菲尔·约翰斯顿 Phil Johnston / 珍妮弗·李 Jennifer Lee
主  演 金妮弗·古德温 Ginnifer Goodwin
       杰森·贝特曼 Jason Bateman
       伊德里斯·艾尔巴 Idris Elba
       珍妮·斯蕾特 Jenny Slate
       内特·托伦斯 Nate Torrence
       邦尼·亨特 Bonnie Hunt
       唐·雷克 Don Lake
       汤米·钟 Tommy Chong
       J·K·西蒙斯 J.K. Simmons
       奥克塔维亚·斯宾瑟 Octavia Spencer
       艾伦·图代克 Alan Tudyk
       夏奇拉 Shakira
       雷蒙德·S·佩尔西 Raymond S. Persi
       德拉·萨巴 Della Saba
       莫里斯·拉马奇 Maurice LaMarche
       菲尔·约翰斯顿 Phil Johnston
       约翰·迪·玛吉欧 John Di Maggio
       凯蒂·洛斯 Katie Lowes
       吉塔·雷迪 Gita Reddy
       杰西·科尔蒂 Jesse Corti
       汤米·利斯特 Tommy 'Tiny' Lister
       乔希·达拉斯 Josh Dallas
       瑞奇·摩尔 Rich Moore
       凯特·索西 Kath Soucie
       彼得·曼斯布里奇 Peter Mansbridge
       拜伦·霍华德 Byron Howard
       杰拉德·布什 Jared Bush
       马克·史密斯 Mark Rhino Smith
       乔西·特立尼达 Josie Trinidad
       约翰·拉维尔 John Lavelle
       克里斯汀·贝尔 Kristen Bell
       吉尔·科德斯 Jill Cordes
       梅利莎·古德温 Melissa Goodwin


标  签 动画 | 迪士尼 | 喜剧 | 动物 | 美国 | 搞笑 | Disney | 励志

简  介  

  故事发生在一个所有哺乳类动物和谐共存的美好世界中,兔子朱迪(金妮弗·古德温 Ginnifer Goodwin 配音)从小就梦想着能够成为一名惩恶扬善的刑警,凭借着智慧和努力,朱迪成功的从警校中毕业进入了疯狂动物城警察局,殊不知这里是大型肉食类动物的领地,作为第一只,也是唯一的小型食草类动物,朱迪会遇到怎样的故事呢?
  近日里,城中接连发生动物失踪案件,就在全部警员都致力于调查案件真相之时,朱迪却被局长(伊德瑞斯·艾尔巴 Idris Elba 配音)发配成为了一名无足轻重的交警。某日,正在执勤的兔子遇见了名为尼克(杰森·贝特曼 Jason Bateman 配音)的狐狸,两人不打不相识,之后又误打误撞的接受了寻找失踪的水獭先生的任务,如果不能在两天之内找到水獭先生,朱迪就必须自愿离开警局。朱迪找到了尼克,两人联手揭露了一个隐藏在疯狂动物城之中的惊天秘密。

获奖情况  

  第89届奥斯卡金像奖(2017)
  最佳动画长片 拜伦·霍华德 / 瑞奇·摩尔 / 克拉克·斯宾塞

  第74届金球奖(2017)
  电影类 最佳动画长片

  第70届英国电影学院奖(2017)
  电影奖 最佳动画片(提名) 拜伦·霍华德 / 瑞奇·摩尔

  第40届日本电影学院奖(2017)
  最佳外语片(提名)

  第44届动画安妮奖(2017)
  最佳动画长片
  最佳导演 拜伦·霍华德 / 瑞奇·摩尔 / 杰拉德·布什
  最佳编剧 菲尔·约翰斯顿 / 杰拉德·布什
  最佳配音 杰森·贝特曼
  最佳剪辑(提名)
  最佳分镜
  最佳艺术指导(提名)
  最佳动画角色
  最佳角色设计
  最佳动画效果(提名)

  第28届美国制片人工会奖(2017)
  最佳动画片制片人奖

  第67届美国剪辑工会奖(2017)
  动画片最佳剪辑

  第15届美国视觉效果协会奖(2017)
  最佳动画电影视觉效果(提名)
  最佳动画电影模拟动画效果(提名)

  第53届美国声音效果协会奖(2017)
  动画电影最佳音效(提名)

  第82届纽约影评人协会奖(2016)
  最佳动画片

  第22届美国评论家选择电影奖(2017)
  最佳动画片

  第17届美国电影学会奖(2016)
  年度佳片

  第21届金卫星奖(2017)
  电影部门 最佳动画片(提名)

  第20届好莱坞电影奖(2016)
  年度动画

  第15届华盛顿影评人协会奖(2016)
  最佳动画片(提名)
  最佳配音(提名) 杰森·贝特曼 / 金妮弗·古德温

  第29届芝加哥影评人协会奖(2016)
  最佳动画片(提名)

  第20届美国在线影评人协会奖(2017)
  最佳动画片(提名)

  第3届豆瓣电影年度榜单(2016)
  最受关注的院线电影
  评分最高的动画片
  3月最受关注电影
  1. Video
  2. ID                                       : 1
  3. Format                                   : HEVC
  4. Format/Info                              : High Efficiency Video Coding
  5. Format profile                           : Main High@L4@High
  6. HDR format                               : SMPTE ST 2086, HDR10 compatible
  7. Codec ID                                 : V_MPEGH/ISO/HEVC
  8. Duration                                 : 1 h 48 min
  9. Bit rate                                 : 7 406 kb/s
  10. Width                                    : 3 840 pixels
  11. Height                                   : 1 608 pixels
  12. Display aspect ratio                     : 2.40:1
  13. Frame rate mode                          : Constant
  14. Frame rate                               : 23.976 (24000/1001) FPS
  15. Color space                              : YUV
  16. Chroma subsampling                       : 4:2:0 (Type 2)
  17. Bit depth                                : 10 bits
  18. Bits/(Pixel*Frame)                       : 0.050
  19. Stream size                              : 5.61 GiB (48%)
  20. Writing library                          : x265 3.27fc1f6ef2b96:[Windows][GCC 6.3.0][64 bit] 10bit
  21. Encoding settings                        : cpuid=1111039 / frame-threads=4 / numa-pools=20 / wpp / no-pmode / no-pme / no-psnr / no-ssim / log-level=2 / input-csp=1 / input-res=3840x1608 / interlace=0 / total-frames=156139 / level-idc=51 / high-tier=1 / uhd-bd=0 / ref=4 / no-allow-non-conformance / repeat-headers / annexb / aud / hrd / info / hash=0 / no-temporal-layers / no-open-gop / min-keyint=1 / keyint=24 / gop-lookahead=0 / bframes=4 / b-adapt=2 / b-pyramid / bframe-bias=0 / rc-lookahead=25 / lookahead-slices=4 / scenecut=40 / radl=0 / no-splice / no-intra-refresh / ctu=64 / min-cu-size=8 / rect / no-amp / max-tu-size=32 / tu-inter-depth=1 / tu-intra-depth=1 / limit-tu=0 / rdoq-level=2 / dynamic-rd=0.00 / no-ssim-rd / signhide / no-tskip / nr-intra=0 / nr-inter=0 / no-constrained-intra / no-strong-intra-smoothing / max-merge=3 / limit-refs=3 / limit-modes / me=3 / subme=3 / merange=57 / temporal-mvp / no-frame-dup / no-hme / weightp / no-weightb / no-analyze-src-pics / deblock=-3:-3 / no-sao / no-sao-non-deblock / rd=4 / selective-sao=0 / no-early-skip / rskip / no-fast-intra / no-tskip-fast / no-cu-lossless / no-b-intra / no-splitrd-skip / rdpenalty=0 / psy-rd=2.00 / psy-rdoq=1.00 / no-rd-refine / no-lossless / cbqpoffs=0 / crqpoffs=0 / rc=crf / crf=17.0 / qcomp=0.60 / qpstep=4 / stats-write=0 / stats-read=0 / vbv-maxrate=160000 / vbv-bufsize=160000 / vbv-init=0.9 / crf-max=0.0 / crf-min=0.0 / ipratio=1.40 / pbratio=1.30 / aq-mode=1 / aq-strength=1.00 / cutree / zone-count=0 / no-strict-cbr / qg-size=32 / no-rc-grain / qpmax=69 / qpmin=0 / no-const-vbv / sar=1 / overscan=0 / videoformat=5 / range=0 / colorprim=9 / transfer=16 / colormatrix=9 / chromaloc=1 / chromaloc-top=2 / chromaloc-bottom=2 / display-window=0 / master-display=G(13250,34500)B(7500,3000)R(34000,16000)WP(15635,16450)L(40000000,50) / cll=0,0 / min-luma=0 / max-luma=1023 / log2-max-poc-lsb=8 / vui-timing-info / vui-hrd-info / slices=1 / no-opt-qp-pps / no-opt-ref-list-length-pps / no-multi-pass-opt-rps / scenecut-bias=0.05 / no-opt-cu-delta-qp / no-aq-motion / hdr / hdr-opt / no-dhdr10-opt / no-idr-recovery-sei / analysis-reuse-level=5 / scale-factor=0 / refine-intra=0 / refine-inter=0 / refine-mv=1 / refine-ctu-distortion=0 / no-limit-sao / ctu-info=0 / no-lowpass-dct / refine-analysis-type=0 / copy-pic=1 / max-ausize-factor=1.0 / no-dynamic-refine / no-single-sei / no-hevc-aq / no-svt / no-field / qp-adaptation-range=1.00
  22. Default                                  : Yes
  23. Forced                                   : No
  24. Color range                              : Limited
  25. Color primaries                          : BT.2020
  26. Transfer characteristics                 : PQ
  27. Matrix coefficients                      : BT.2020 non-constant
  28. Mastering display color primaries        : Display P3
  29. Mastering display luminance              : min: 0.0050 cd/m2, max: 4000 cd/m2

  30. Audio #1
  31. ID                                       : 2
  32. Format                                   : MLP FBA 16-ch
  33. Format/Info                              : Meridian Lossless Packing FBA with 16-channel presentation
  34. Commercial name                          : Dolby TrueHD with Dolby Atmos
  35. Codec ID                                 : A_TRUEHD
  36. Duration                                 : 1 h 48 min
  37. Bit rate mode                            : Variable
  38. Bit rate                                 : 7 170 kb/s
  39. Maximum bit rate                         : 9 216 kb/s
  40. Channel(s)                               : 8 channels
  41. Channel layout                           : L R C LFE Ls Rs Lb Rb
  42. Sampling rate                            : 48.0 kHz
  43. Frame rate                               : 1 200.000 FPS (40 SPF)
  44. Compression mode                         : Lossless
  45. Stream size                              : 5.44 GiB (47%)
  46. Language                                 : English
  47. Default                                  : Yes
  48. Forced                                   : No
  49. Number of dynamic objects                : 13
  50. Bed channel count                        : 1 channel
  51. Bed channel configuration                : LFE

  52. Audio #2
  53. ID                                       : 3
  54. Format                                   : AC-3
  55. Format/Info                              : Audio Coding 3
  56. Commercial name                          : Dolby Digital
  57. Codec ID                                 : A_AC3
  58. Duration                                 : 1 h 48 min
  59. Bit rate mode                            : Constant
  60. Bit rate                                 : 640 kb/s
  61. Channel(s)                               : 6 channels
  62. Channel layout                           : L R C LFE Ls Rs
  63. Sampling rate                            : 48.0 kHz
  64. Frame rate                               : 31.250 FPS (1536 SPF)
  65. Bit depth                                : 16 bits
  66. Compression mode                         : Lossy
  67. Stream size                              : 497 MiB (4%)
  68. Language                                 : English
  69. Service kind                             : Complete Main
  70. Default                                  : No
  71. Forced                                   : No

  72. Text #1
  73. ID                                       : 4
  74. Format                                   : PGS
  75. Muxing mode                              : zlib
  76. Codec ID                                 : S_HDMV/PGS
  77. Codec ID/Info                            : Picture based subtitle format used on BDs/HD-DVDs
  78. Duration                                 : 1 h 46 min
  79. Bit rate                                 : 52.7 kb/s
  80. Count of elements                        : 4592
  81. Stream size                              : 40.3 MiB (0%)
  82. Title                                    : SDH
  83. Language                                 : English
  84. Default                                  : No
  85. Forced                                   : No

  86. Text #2
  87. ID                                       : 5
  88. Format                                   : PGS
  89. Muxing mode                              : zlib
  90. Codec ID                                 : S_HDMV/PGS
  91. Codec ID/Info                            : Picture based subtitle format used on BDs/HD-DVDs
  92. Duration                                 : 1 h 39 min
  93. Bit rate                                 : 47.6 kb/s
  94. Count of elements                        : 3502
  95. Stream size                              : 33.9 MiB (0%)
  96. Language                                 : French
  97. Default                                  : No
  98. Forced                                   : No

  99. Text #3
  100. ID                                       : 6
  101. Format                                   : PGS
  102. Muxing mode                              : zlib
  103. Codec ID                                 : S_HDMV/PGS
  104. Codec ID/Info                            : Picture based subtitle format used on BDs/HD-DVDs
  105. Duration                                 : 1 h 38 min
  106. Bit rate                                 : 46.5 kb/s
  107. Count of elements                        : 3452
  108. Stream size                              : 32.9 MiB (0%)
  109. Language                                 : Spanish
  110. Default                                  : No
  111. Forced                                   : No

  112. Text #4
  113. ID                                       : 7
  114. Format                                   : PGS
  115. Muxing mode                              : zlib
  116. Codec ID                                 : S_HDMV/PGS
  117. Codec ID/Info                            : Picture based subtitle format used on BDs/HD-DVDs
  118. Duration                                 : 1 h 47 min
  119. Bit rate                                 : 31.3 kb/s
  120. Count of elements                        : 3154
  121. Stream size                              : 24.0 MiB (0%)
  122. Language                                 : Japanese
  123. Default                                  : No
  124. Forced                                   : No

  125. Menu
  126. 00:00:00.000                             : en:Chapter 01
  127. 00:00:59.434                             : en:Chapter 02
  128. 00:05:49.807                             : en:Chapter 03
  129. 00:10:05.438                             : en:Chapter 04
  130. 00:14:31.412                             : en:Chapter 05
  131. 00:18:23.894                             : en:Chapter 06
  132. 00:26:03.228                             : en:Chapter 07
  133. 00:30:57.313                             : en:Chapter 08
  134. 00:37:06.974                             : en:Chapter 09
  135. 00:40:43.315                             : en:Chapter 10
  136. 00:44:31.627                             : en:Chapter 11
  137. 00:51:40.097                             : en:Chapter 12
  138. 00:55:40.253                             : en:Chapter 13
  139. 01:00:48.144                             : en:Chapter 14
  140. 01:03:37.730                             : en:Chapter 15
  141. 01:09:19.405                             : en:Chapter 16
  142. 01:13:38.914                             : en:Chapter 17
  143. 01:17:06.955                             : en:Chapter 18
  144. 01:21:51.990                             : en:Chapter 19
  145. 01:28:18.710                             : en:Chapter 20
  146. 01:32:43.099                             : en:Chapter 21
  147. 01:36:11.974                             : en:Chapter 22
复制代码

疯狂动物城 Zootopia.2016.2160p.UHD.BluRay.X265.10bit.HDR.TrueHD.7.1.Atmos-TERMiNAL 11.92GB-2.png 疯狂动物城 Zootopia.2016.2160p.UHD.BluRay.X265.10bit.HDR.TrueHD.7.1.Atmos-TERMiNAL 11.92GB-3.png 疯狂动物城 Zootopia.2016.2160p.UHD.BluRay.X265.10bit.HDR.TrueHD.7.1.Atmos-TERMiNAL 11.92GB-4.png






回复

使用道具 举报

发表于 2019-10-27 11:29:42 | 显示全部楼层
谢谢分享!!
回复

使用道具 举报

发表于 2019-10-27 16:40:59 | 显示全部楼层

楼主太厉害了!楼主,电影应该很好看我觉得蓝光电影网真是个好地方!
回复 支持 反对

使用道具 举报

发表于 2019-10-29 12:07:42 | 显示全部楼层

既然你诚信诚意的推荐了,那我就勉为其难的看看吧!蓝光电影网不走平凡路。
回复 支持 反对

使用道具 举报

已抛锚 成长值: 5530

发表于 5 天前 | 显示全部楼层
██████在-线-看-片bxxp7.c o m 】██████

██████在-线-看-片
bxxp7.c o m 】██████

██████在-线-看-片
bxxp7.c o m 】██████

██████在-线-看-片
bxxp7.c o m 】██████

██████在-线-看-片
bxxp7.c o m 】██████

██████在-线-看-片
bxxp7.c o m 】██████

██████在-线-看-片
bxxp7.c o m 】██████
回复 支持 反对

使用道具 举报

已抛锚 成长值: 5530

发表于 昨天 13:19 | 显示全部楼层
██████在-线-看-片bxxp7.c o m 】██████

██████在-线-看-片
bxxp7.c o m 】██████

██████在-线-看-片
bxxp7.c o m 】██████

██████在-线-看-片
bxxp7.c o m 】██████

██████在-线-看-片
bxxp7.c o m 】██████

██████在-线-看-片
bxxp7.c o m 】██████

██████在-线-看-片
bxxp7.c o m 】██████
回复 支持 反对

使用道具 举报

懒得打字嘛,点击右侧快捷回复 【右侧内容,后台自定义】
您需要登录后才可以回帖 登录 | 立即加入

本版积分规则

现在加入蓝光电影网,注册一个账号

QQ| 手机版|小黑屋| 蓝光电影网 |网站地图

Copyright © 2015-2019 Comsenz Inc.  Template by 蓝光电影论坛 All Rights Reserved.

Powered by 蓝光电影网 X3.4

特别声明:本站所有资源均由网上收集而来,版权归原影音公司所有,如果侵犯了你的权益,请通知我们,我们会及时删除侵权内容.

快速回复 返回顶部 返回列表