找回密码

蓝光电影网

查看: 394|回复: 10

[REMUX.HEVC] 海洋奇缘/摩瓦娜 Moana.2016.2160p.BluRay.REMUX.HEVC.DTS-HD.MA.TrueHD.7.1.Atmos-FGT 55.05GB

[复制链接]

 成长值: 23245

发表于 2019-10-26 00:47:15 | 显示全部楼层 |阅读模式
海洋奇缘/摩瓦娜 Moana.2016.2160p.BluRay.REMUX.HEVC.DTS-HD.MA.TrueHD.7.1.Atmos-FGT 55.05GB-1.png

译  名 海洋奇缘 / 摩瓦娜 / 摩阿娜 / 莫阿娜
片  名 Moana
年  代 2016
产  地 美国
类  别 动画 / 歌舞 / 奇幻 / 冒险
语  言 英语
上映日期 2016-11-23(美国) / 2016-11-25(中国大陆)
IMDb评分  7.6/10 from 234250 users
IMDb链接  https://www.imdb.com/title/tt3521164
豆瓣评分 7.5/10 from 110927 users
豆瓣链接 https://movie.douban.com/subject/25793398/
片  长 107分钟
导  演 罗恩·克莱蒙兹 Ron Clements / 约翰·马斯克 John Musker / 唐·霍尔 Don Hall / 克里斯·威廉姆斯 Chris Williams
编  剧 杰拉德·布什 Jared Bush / 罗恩·克莱蒙兹 Ron Clements / 约翰·马斯克 John Musker / 克里斯·威廉姆斯 Chris Williams / 唐·霍尔 Don Hall / 帕米拉·里本 Pamela Ribon / 亚伦·坎德尔 Aaron Kandell / 乔丹·坎德尔 Jordan Kandell
主  演 奥丽伊·卡瓦洛 Auli'i Cravalho
       道恩·强森 Dwayne Johnson
       瑞切尔·豪斯 Rachel House
       特穆拉·莫里森 Temuera Morrison
       杰梅奈·克莱门特 Jemaine Clement
       尼可·斯彻金格 Nicole Scherzinger
       艾伦·图代克 Alan Tudyk
       奥斯卡·凯特利 Oscar Kightley
       特洛伊·波拉马鲁 Troy Polamalu
       普阿娜妮·卡瓦洛 Puanani Cravalho
       露易丝·布什 Louise Bush


标  签 迪士尼 | 动画 | 美国 | 冒险 | 奇幻 | 成长 | 2016 | 喜剧

简  介  

  故事最早始于住在风和海的半神毛伊(道恩·强森 Dwayne Johnson 配音),他偷走了女神的特菲堤之心,导致岩浆魔鬼厄卡陷入疯狂的状态,南太平洋各小岛也面临着毁灭的威胁。一千多年后,某座小岛上的酋长女儿莫阿娜(奥丽依·卡拉瓦霍 Auli'i Cravalho 配音)在父母的呵护下渐渐长大,童年时她曾偶然捡到特菲堤之心,亦曾受到大海的召唤,然而父亲却严厉禁止莫阿娜出海,即使小岛正遭受着死亡的威胁。从奶奶那里,莫阿娜知晓了他们这一族人的历史,于是为了拯救小岛,她依然出海去寻找被困在某地的毛伊,好让他归还特菲堤之心。历经千辛万苦,莫阿娜终于见到了这个传说中的高傲自大的半神。而毛伊则担心特菲堤之心带来霉运拒绝前往。
  只不过在命运的指引下,毛伊还是随着莫阿娜踏上未知的征途……

获奖情况  

  第89届奥斯卡金像奖(2017)
  最佳动画长片(提名) 约翰·马斯克 / 奥斯娜特·舒尔 / 罗恩·克莱蒙兹
  最佳原创歌曲(提名) 林-曼努尔·米兰达

  第74届金球奖(2017)
  电影类 最佳动画长片(提名)
  电影类 最佳原创歌曲(提名)

  第70届英国电影学院奖(2017)
  电影奖 最佳动画片(提名) 约翰·马斯克 / 罗恩·克莱蒙兹

  第44届动画安妮奖(2017)
  最佳动画长片(提名)
  最佳配音 奥丽伊·卡瓦洛
  最佳剪辑(提名)
  最佳分镜(提名)
  最佳角色设计(提名)
  最佳动画效果

  第28届美国制片人工会奖(2017)
  最佳动画片制片人奖(提名)

  第67届美国剪辑工会奖(2017)
  动画片最佳剪辑(提名)

  第15届美国视觉效果协会奖(2017)
  最佳动画电影视觉效果(提名)
  最佳动画电影CG动画角色(提名)
  最佳动画电影CG背景
  最佳动画电影模拟动画效果

  第53届美国声音效果协会奖(2017)
  动画电影最佳音效(提名)

  第22届美国评论家选择电影奖(2017)
  最佳动画片(提名)
  最佳歌曲(提名)

  第21届金卫星奖(2017)
  电影部门 最佳动画片(提名)

  第15届华盛顿影评人协会奖(2016)
  最佳动画片(提名)
  最佳配音(提名) 奥丽伊·卡瓦洛

  第29届芝加哥影评人协会奖(2016)
  最佳动画片(提名)

  第20届美国在线影评人协会奖(2017)
  最佳动画片(提名)

  第3届豆瓣电影年度榜单(2016)
  评分最高的动画片(提名)
  1. Video
  2. ID                                       : 1
  3. Format                                   : HEVC
  4. Format/Info                              : High Efficiency Video Coding
  5. Format profile                           : Main High@L4@High
  6. HDR format                               : SMPTE ST 2086, HDR10 compatible
  7. Codec ID                                 : V_MPEGH/ISO/HEVC
  8. Duration                                 : 1 h 47 min
  9. Bit rate                                 : 56.0 Mb/s
  10. Width                                    : 3 840 pixels
  11. Height                                   : 2 160 pixels
  12. Display aspect ratio                     : 16:9
  13. Frame rate mode                          : Constant
  14. Frame rate                               : 23.976 (24000/1001) FPS
  15. Color space                              : YUV
  16. Chroma subsampling                       : 4:2:0 (Type 2)
  17. Bit depth                                : 10 bits
  18. Bits/(Pixel*Frame)                       : 0.282
  19. Stream size                              : 42.0 GiB (76%)
  20. Title                                    : Moana.2016.2160p.BluRay.REMUX.HEVC.DTS-HD.MA.TrueHD.7.1.Atmos-FGT
  21. Language                                 : English
  22. Default                                  : No
  23. Forced                                   : No
  24. Color range                              : Limited
  25. Color primaries                          : BT.2020
  26. Transfer characteristics                 : PQ
  27. Matrix coefficients                      : BT.2020 non-constant
  28. Mastering display color primaries        : Display P3
  29. Mastering display luminance              : min: 0.0050 cd/m2, max: 4000 cd/m2

  30. Audio #1
  31. ID                                       : 2
  32. Format                                   : MLP FBA 16-ch
  33. Format/Info                              : Meridian Lossless Packing FBA with 16-channel presentation
  34. Commercial name                          : Dolby TrueHD with Dolby Atmos
  35. Codec ID                                 : A_TRUEHD
  36. Duration                                 : 1 h 47 min
  37. Bit rate mode                            : Variable
  38. Bit rate                                 : 7 681 kb/s
  39. Maximum bit rate                         : 11.3 Mb/s
  40. Channel(s)                               : 8 channels
  41. Channel layout                           : L R C LFE Ls Rs Lb Rb
  42. Sampling rate                            : 48.0 kHz
  43. Frame rate                               : 1 200.000 FPS (40 SPF)
  44. Compression mode                         : Lossless
  45. Stream size                              : 5.75 GiB (10%)
  46. Title                                    : Moana.2016.2160p.BluRay.REMUX.HEVC.DTS-HD.MA.TrueHD.7.1.Atmos-FGT
  47. Language                                 : English
  48. Default                                  : Yes
  49. Forced                                   : No
  50. Number of dynamic objects                : 13
  51. Bed channel count                        : 1 channel
  52. Bed channel configuration                : LFE

  53. Audio #2
  54. ID                                       : 3
  55. Format                                   : DTS XLL
  56. Format/Info                              : Digital Theater Systems
  57. Commercial name                          : DTS-HD Master Audio
  58. Codec ID                                 : A_DTS
  59. Duration                                 : 1 h 47 min
  60. Bit rate mode                            : Variable
  61. Bit rate                                 : 3 923 kb/s
  62. Channel(s)                               : 8 channels
  63. Channel layout                           : C L R LFE Lb Rb Lss Rss
  64. Sampling rate                            : 48.0 kHz
  65. Frame rate                               : 93.750 FPS (512 SPF)
  66. Bit depth                                : 24 bits
  67. Compression mode                         : Lossless
  68. Stream size                              : 2.94 GiB (5%)
  69. Title                                    : Moana.2016.2160p.BluRay.REMUX.HEVC.DTS-HD.MA.TrueHD.7.1.Atmos-FGT
  70. Language                                 : English
  71. Default                                  : No
  72. Forced                                   : No

  73. Audio #3
  74. ID                                       : 4
  75. Format                                   : AC-3
  76. Format/Info                              : Audio Coding 3
  77. Commercial name                          : Dolby Digital
  78. Codec ID                                 : A_AC3
  79. Duration                                 : 1 h 47 min
  80. Bit rate mode                            : Constant
  81. Bit rate                                 : 640 kb/s
  82. Channel(s)                               : 6 channels
  83. Channel layout                           : L R C LFE Ls Rs
  84. Sampling rate                            : 48.0 kHz
  85. Frame rate                               : 31.250 FPS (1536 SPF)
  86. Bit depth                                : 16 bits
  87. Compression mode                         : Lossy
  88. Stream size                              : 491 MiB (1%)
  89. Title                                    : Moana.2016.2160p.BluRay.REMUX.HEVC.DTS-HD.MA.TrueHD.7.1.Atmos-FGT
  90. Language                                 : English
  91. Service kind                             : Complete Main
  92. Default                                  : No
  93. Forced                                   : No

  94. Audio #4
  95. ID                                       : 5
  96. Format                                   : AC-3
  97. Format/Info                              : Audio Coding 3
  98. Commercial name                          : Dolby Digital
  99. Codec ID                                 : A_AC3
  100. Duration                                 : 1 h 47 min
  101. Bit rate mode                            : Constant
  102. Bit rate                                 : 320 kb/s
  103. Channel(s)                               : 2 channels
  104. Channel layout                           : L R
  105. Sampling rate                            : 48.0 kHz
  106. Frame rate                               : 31.250 FPS (1536 SPF)
  107. Bit depth                                : 16 bits
  108. Compression mode                         : Lossy
  109. Stream size                              : 245 MiB (0%)
  110. Title                                    : Moana.2016.2160p.BluRay.REMUX.HEVC.DTS-HD.MA.TrueHD.7.1.Atmos-FGT
  111. Language                                 : English
  112. Service kind                             : Complete Main
  113. Default                                  : No
  114. Forced                                   : No

  115. Audio #5
  116. ID                                       : 6
  117. Format                                   : E-AC-3
  118. Format/Info                              : Enhanced AC-3
  119. Commercial name                          : Dolby Digital Plus
  120. Format profile                           : Blu-ray Disc
  121. Codec ID                                 : A_EAC3
  122. Duration                                 : 1 h 47 min
  123. Bit rate mode                            : Constant
  124. Bit rate                                 : 1 024 kb/s
  125. Channel(s)                               : 8 channels
  126. Channel layout                           : L R C LFE Ls Rs Lb Rb
  127. Sampling rate                            : 48.0 kHz
  128. Frame rate                               : 31.250 FPS (1536 SPF)
  129. Compression mode                         : Lossy
  130. Stream size                              : 785 MiB (1%)
  131. Title                                    : Moana.2016.2160p.BluRay.REMUX.HEVC.DTS-HD.MA.TrueHD.7.1.Atmos-FGT
  132. Language                                 : French
  133. Service kind                             : Complete Main
  134. Default                                  : No
  135. Forced                                   : No

  136. Audio #6
  137. ID                                       : 7
  138. Format                                   : AC-3
  139. Format/Info                              : Audio Coding 3
  140. Commercial name                          : Dolby Digital
  141. Codec ID                                 : A_AC3
  142. Duration                                 : 1 h 47 min
  143. Bit rate mode                            : Constant
  144. Bit rate                                 : 576 kb/s
  145. Channel(s)                               : 6 channels
  146. Channel layout                           : L R C LFE Ls Rs
  147. Sampling rate                            : 48.0 kHz
  148. Frame rate                               : 31.250 FPS (1536 SPF)
  149. Bit depth                                : 16 bits
  150. Compression mode                         : Lossy
  151. Stream size                              : 442 MiB (1%)
  152. Title                                    : Moana.2016.2160p.BluRay.REMUX.HEVC.DTS-HD.MA.TrueHD.7.1.Atmos-FGT
  153. Language                                 : French
  154. Service kind                             : Complete Main
  155. Default                                  : No
  156. Forced                                   : No

  157. Audio #7
  158. ID                                       : 8
  159. Format                                   : E-AC-3
  160. Format/Info                              : Enhanced AC-3
  161. Commercial name                          : Dolby Digital Plus
  162. Format profile                           : Blu-ray Disc
  163. Codec ID                                 : A_EAC3
  164. Duration                                 : 1 h 47 min
  165. Bit rate mode                            : Constant
  166. Bit rate                                 : 1 024 kb/s
  167. Channel(s)                               : 8 channels
  168. Channel layout                           : L R C LFE Ls Rs Lb Rb
  169. Sampling rate                            : 48.0 kHz
  170. Frame rate                               : 31.250 FPS (1536 SPF)
  171. Compression mode                         : Lossy
  172. Stream size                              : 785 MiB (1%)
  173. Title                                    : Moana.2016.2160p.BluRay.REMUX.HEVC.DTS-HD.MA.TrueHD.7.1.Atmos-FGT
  174. Language                                 : Spanish
  175. Service kind                             : Complete Main
  176. Default                                  : No
  177. Forced                                   : No

  178. Audio #8
  179. ID                                       : 9
  180. Format                                   : AC-3
  181. Format/Info                              : Audio Coding 3
  182. Commercial name                          : Dolby Digital
  183. Codec ID                                 : A_AC3
  184. Duration                                 : 1 h 47 min
  185. Bit rate mode                            : Constant
  186. Bit rate                                 : 576 kb/s
  187. Channel(s)                               : 6 channels
  188. Channel layout                           : L R C LFE Ls Rs
  189. Sampling rate                            : 48.0 kHz
  190. Frame rate                               : 31.250 FPS (1536 SPF)
  191. Bit depth                                : 16 bits
  192. Compression mode                         : Lossy
  193. Stream size                              : 442 MiB (1%)
  194. Title                                    : Moana.2016.2160p.BluRay.REMUX.HEVC.DTS-HD.MA.TrueHD.7.1.Atmos-FGT
  195. Language                                 : Spanish
  196. Service kind                             : Complete Main
  197. Default                                  : No
  198. Forced                                   : No

  199. Audio #9
  200. ID                                       : 10
  201. Format                                   : E-AC-3
  202. Format/Info                              : Enhanced AC-3
  203. Commercial name                          : Dolby Digital Plus
  204. Format profile                           : Blu-ray Disc
  205. Codec ID                                 : A_EAC3
  206. Duration                                 : 1 h 47 min
  207. Bit rate mode                            : Constant
  208. Bit rate                                 : 1 024 kb/s
  209. Channel(s)                               : 8 channels
  210. Channel layout                           : L R C LFE Ls Rs Lb Rb
  211. Sampling rate                            : 48.0 kHz
  212. Frame rate                               : 31.250 FPS (1536 SPF)
  213. Compression mode                         : Lossy
  214. Stream size                              : 785 MiB (1%)
  215. Title                                    : Moana.2016.2160p.BluRay.REMUX.HEVC.DTS-HD.MA.TrueHD.7.1.Atmos-FGT
  216. Language                                 : Japanese
  217. Service kind                             : Complete Main
  218. Default                                  : No
  219. Forced                                   : No

  220. Audio #10
  221. ID                                       : 11
  222. Format                                   : AC-3
  223. Format/Info                              : Audio Coding 3
  224. Commercial name                          : Dolby Digital
  225. Codec ID                                 : A_AC3
  226. Duration                                 : 1 h 47 min
  227. Bit rate mode                            : Constant
  228. Bit rate                                 : 576 kb/s
  229. Channel(s)                               : 6 channels
  230. Channel layout                           : L R C LFE Ls Rs
  231. Sampling rate                            : 48.0 kHz
  232. Frame rate                               : 31.250 FPS (1536 SPF)
  233. Bit depth                                : 16 bits
  234. Compression mode                         : Lossy
  235. Stream size                              : 442 MiB (1%)
  236. Title                                    : Moana.2016.2160p.BluRay.REMUX.HEVC.DTS-HD.MA.TrueHD.7.1.Atmos-FGT
  237. Language                                 : Japanese
  238. Service kind                             : Complete Main
  239. Default                                  : No
  240. Forced                                   : No

  241. Text #1
  242. ID                                       : 12
  243. Format                                   : UTF-8
  244. Codec ID                                 : S_TEXT/UTF8
  245. Codec ID/Info                            : UTF-8 Plain Text
  246. Duration                                 : 1 h 45 min
  247. Bit rate                                 : 44 b/s
  248. Count of elements                        : 1246
  249. Stream size                              : 34.7 KiB (0%)
  250. Title                                    : English-SRT
  251. Language                                 : English
  252. Default                                  : Yes
  253. Forced                                   : No

  254. Text #2
  255. ID                                       : 13
  256. Format                                   : UTF-8
  257. Codec ID                                 : S_TEXT/UTF8
  258. Codec ID/Info                            : UTF-8 Plain Text
  259. Duration                                 : 1 h 45 min
  260. Bit rate                                 : 47 b/s
  261. Count of elements                        : 1346
  262. Stream size                              : 36.6 KiB (0%)
  263. Title                                    : English-SDH-SRT
  264. Language                                 : English
  265. Default                                  : No
  266. Forced                                   : No

  267. Text #3
  268. ID                                       : 14
  269. Format                                   : PGS
  270. Muxing mode                              : zlib
  271. Codec ID                                 : S_HDMV/PGS
  272. Codec ID/Info                            : Picture based subtitle format used on BDs/HD-DVDs
  273. Duration                                 : 1 h 45 min
  274. Bit rate                                 : 32.0 kb/s
  275. Count of elements                        : 2868
  276. Stream size                              : 24.2 MiB (0%)
  277. Title                                    : English-PGS
  278. Language                                 : English
  279. Default                                  : No
  280. Forced                                   : No

  281. Text #4
  282. ID                                       : 15
  283. Format                                   : PGS
  284. Muxing mode                              : zlib
  285. Codec ID                                 : S_HDMV/PGS
  286. Codec ID/Info                            : Picture based subtitle format used on BDs/HD-DVDs
  287. Duration                                 : 1 h 45 min
  288. Bit rate                                 : 29.3 kb/s
  289. Count of elements                        : 2560
  290. Stream size                              : 22.1 MiB (0%)
  291. Title                                    : French-PGS
  292. Language                                 : French
  293. Default                                  : No
  294. Forced                                   : No

  295. Text #5
  296. ID                                       : 16
  297. Format                                   : PGS
  298. Muxing mode                              : zlib
  299. Codec ID                                 : S_HDMV/PGS
  300. Codec ID/Info                            : Picture based subtitle format used on BDs/HD-DVDs
  301. Duration                                 : 1 h 45 min
  302. Bit rate                                 : 26.0 kb/s
  303. Count of elements                        : 2432
  304. Stream size                              : 19.6 MiB (0%)
  305. Title                                    : Spanish-PGS
  306. Language                                 : Spanish
  307. Default                                  : No
  308. Forced                                   : No

  309. Text #6
  310. ID                                       : 17
  311. Format                                   : PGS
  312. Muxing mode                              : zlib
  313. Codec ID                                 : S_HDMV/PGS
  314. Codec ID/Info                            : Picture based subtitle format used on BDs/HD-DVDs
  315. Duration                                 : 1 h 45 min
  316. Bit rate                                 : 22.9 kb/s
  317. Count of elements                        : 2108
  318. Stream size                              : 17.3 MiB (0%)
  319. Title                                    : Japanese-PGS
  320. Language                                 : Japanese
  321. Default                                  : No
  322. Forced                                   : No

  323. Text #7
  324. ID                                       : 18
  325. Format                                   : PGS
  326. Muxing mode                              : zlib
  327. Codec ID                                 : S_HDMV/PGS
  328. Codec ID/Info                            : Picture based subtitle format used on BDs/HD-DVDs
  329. Duration                                 : 2 min 34 s
  330. Bit rate                                 : 55.1 kb/s
  331. Count of elements                        : 94
  332. Stream size                              : 1.02 MiB (0%)
  333. Title                                    : French-FORCED-PGS
  334. Language                                 : French
  335. Default                                  : No
  336. Forced                                   : No

  337. Text #8
  338. ID                                       : 19
  339. Format                                   : PGS
  340. Muxing mode                              : zlib
  341. Codec ID                                 : S_HDMV/PGS
  342. Codec ID/Info                            : Picture based subtitle format used on BDs/HD-DVDs
  343. Duration                                 : 4 s 776 ms
  344. Bit rate                                 : 38.4 kb/s
  345. Count of elements                        : 2
  346. Stream size                              : 22.4 KiB (0%)
  347. Title                                    : Spanish-FORCED-PGS
  348. Language                                 : Spanish
  349. Default                                  : No
  350. Forced                                   : No

  351. Menu
  352. 00:00:00.000                             : en:Chapter 01
  353. 00:07:15.518                             : en:Chapter 02
  354. 00:11:59.635                             : en:Chapter 03
  355. 00:16:13.472                             : en:Chapter 04
  356. 00:21:29.162                             : en:Chapter 05
  357. 00:28:02.263                             : en:Chapter 06
  358. 00:32:10.887                             : en:Chapter 07
  359. 00:35:15.738                             : en:Chapter 08
  360. 00:41:36.452                             : en:Chapter 09
  361. 00:45:04.660                             : en:Chapter 10
  362. 00:49:10.155                             : en:Chapter 11
  363. 00:53:20.864                             : en:Chapter 12
  364. 00:57:33.158                             : en:Chapter 13
  365. 01:05:44.857                             : en:Chapter 14
  366. 01:10:45.908                             : en:Chapter 15
  367. 01:12:51.700                             : en:Chapter 16
  368. 01:15:41.787                             : en:Chapter 17
  369. 01:23:16.908                             : en:Chapter 18
  370. 01:29:50.760                             : en:Chapter 19
  371. 01:36:13.184                             : en:Chapter 20
复制代码

海洋奇缘/摩瓦娜 Moana.2016.2160p.BluRay.REMUX.HEVC.DTS-HD.MA.TrueHD.7.1.Atmos-FGT 55.05GB-2.png 海洋奇缘/摩瓦娜 Moana.2016.2160p.BluRay.REMUX.HEVC.DTS-HD.MA.TrueHD.7.1.Atmos-FGT 55.05GB-3.png 海洋奇缘/摩瓦娜 Moana.2016.2160p.BluRay.REMUX.HEVC.DTS-HD.MA.TrueHD.7.1.Atmos-FGT 55.05GB-4.png







回复

使用道具 举报

发表于 2019-10-26 01:00:26 | 显示全部楼层

楼主太厉害了!楼主,电影应该很好看我觉得蓝光电影网真是个好地方!
回复 支持 反对

使用道具 举报

发表于 2019-10-26 08:06:15 | 显示全部楼层
谢谢分享!!!!!!
回复

使用道具 举报

发表于 2019-10-26 09:06:01 | 显示全部楼层

楼主太厉害了!楼主,电影应该很好看我觉得蓝光电影网真是个好地方!
回复 支持 反对

使用道具 举报

发表于 2019-10-26 10:28:58 | 显示全部楼层
谢谢分享,很好的片子~~~
回复 支持 反对

使用道具 举报

发表于 2019-10-26 11:07:48 | 显示全部楼层
楼主发贴辛苦了,谢谢楼主分享!我觉得蓝光电影网是注册对了!
回复 支持 反对

使用道具 举报

发表于 2019-10-26 14:20:11 | 显示全部楼层

楼主太厉害了!楼主,电影应该很好看我觉得蓝光电影网真是个好地方!
回复 支持 反对

使用道具 举报

发表于 2019-10-27 10:15:56 | 显示全部楼层
感谢楼主精彩分享。
回复 支持 反对

使用道具 举报

 成长值: 1030

发表于 2019-10-28 11:49:52 | 显示全部楼层
谢谢楼主无私分享。
回复 支持 反对

使用道具 举报

发表于 2019-10-31 00:17:45 | 显示全部楼层

楼主发贴辛苦了,谢谢楼主分享!我觉得蓝光电影网是注册对了!
回复 支持 反对

使用道具 举报

懒得打字嘛,点击右侧快捷回复 【右侧内容,后台自定义】
您需要登录后才可以回帖 登录 | 立即加入

本版积分规则

现在加入蓝光电影网,注册一个账号

QQ| 手机版|小黑屋| 蓝光电影网 |网站地图 

Copyright © 2015-2019 Comsenz Inc.  Template by 蓝光电影论坛 All Rights Reserved.

Powered by 蓝光电影网 X3.4

特别声明:本站所有资源均由网上收集而来,版权归原影音公司所有,如果侵犯了你的权益,请通知我们,我们会及时删除侵权内容.

快速回复 返回顶部 返回列表