找回密码

蓝光电影网

查看: 155|回复: 1

[8bit.SDR] 公主与青蛙 The.Princess.and.the.Frog.2009.2160p.BluRay.x264.8bit.SDR.TrueHD.7.1.Atmos-SWTYBLZ 14.40GB

[复制链接]

 成长值: 23245

发表于 2019-10-26 00:40:16 | 显示全部楼层 |阅读模式
公主与青蛙 The.Princess.and.the.Frog.2009.2160p.BluRay.x264.8bit.SDR.TrueHD.7.1.Atmos-SWTYBLZ 14.40GB-1.png

译  名 公主与青蛙 / The Frog Princess / 公主和青蛙 / 青蛙公主
片  名 The Princess and the Frog
年  代 2009
产  地 美国
类  别 喜剧 / 爱情 / 动画 / 歌舞
语  言 英语
上映日期 2009-12-11(美国)
IMDb评分  7.1/10 from 112853 users
IMDb链接  https://www.imdb.com/title/tt0780521
豆瓣评分 7.4/10 from 42394 users
豆瓣链接 https://movie.douban.com/subject/1949005/
片  长 97分钟
导  演 Ron Clements / John Musker
编  剧 Ron Clements / Rob Edwards / John Musker
主  演 Anika Noni Rose
       Bruno Campos
       Keith David
       Michael-Leon Wooley
       Jennifer Cody
       Peter Bartlett
       Jenifer Lewis
       John Goodman
       Terrence Howard


标  签 动画 | Disney | 美国 | 迪斯尼 | 童话 | 爱情 | 2009 | 音乐

简  介  

  蒂亚娜(Tiana)是个从不相信童话的女孩子,具有烹饪天赋的她最大的目标便是开一家属于自己的餐厅,多年来她一直努力赚钱,希望够自己的双手去实现梦想。可是就在她即将攒够钱的那天晚上,她遇到一只自称是王子马文(Naveen)的青蛙,他说自己是被影子人施了魔法并且许诺只要蒂亚娜吻他,那么他就可以帮蒂亚娜实现梦想。可是当蒂亚娜吻完青蛙,青蛙并没有变成马文王子,蒂亚娜却变成了一只青蛙。他们在躲避坏人的追赶时遇到喜欢演奏爵士乐的鳄鱼路易斯和荧火虫雷蒙,他们决定一起去密西西比河河口找女巫妈妈沃提帮忙。邪恶的影子人派出大批的影子杀手已经追上了这一行人,在紧要关头,妈妈沃提出现救了他们并且告诉了他们如果要变会人类,马文就必须去亲吻真正的公主夏洛特。可是此时马文在和蒂亚娜相处的过程中早已经爱上了这个执着的女孩子……
  本片无论从音乐和画面都融入大量新奥尔良元素,为影片创作音乐的兰迪·纽曼(Randy Newman)曾获奥斯卡奖,他本人就是新奥尔良人。

获奖情况  

  第82届奥斯卡金像奖(2010)
  最佳动画长片(提名) 约翰·马斯克 / 罗恩·克莱蒙兹
  最佳原创歌曲(提名) 兰迪·纽曼

  第67届金球奖(2010)
  电影类 最佳动画长片(提名)

  第37届动画安妮奖(2010)
  最佳动画长片(提名)
  最佳配音 Jennifer Cody
  最佳配音(提名) 詹妮弗·路易斯
  最佳艺术指导(提名) Ian Gooding
  最佳动画角色 埃里克·古德伯格
  最佳动画角色(提名) Andreas Deja / Bruce W. Smith
  最佳动画效果 James DeValera Mansfield

  第22届芝加哥影评人协会奖(2009)
  最佳动画片(提名)

  第12届美国青少年选择奖(2010)
  最佳动画片(提名)
  1. Video
  2. ID                                       : 1
  3. Format                                   : AVC
  4. Format/Info                              : Advanced Video Codec
  5. Format profile                           : High@L4
  6. Format settings                          : CABAC / 5 Ref Frames
  7. Format settings, CABAC                   : Yes
  8. Format settings, Reference frames        : 5 frames
  9. Codec ID                                 : V_MPEG4/ISO/AVC
  10. Duration                                 : 1 h 37 min
  11. Bit rate                                 : 12.6 Mb/s
  12. Width                                    : 3 840 pixels
  13. Height                                   : 2 160 pixels
  14. Display aspect ratio                     : 16:9
  15. Frame rate mode                          : Constant
  16. Frame rate                               : 23.976 (24000/1001) FPS
  17. Color space                              : YUV
  18. Chroma subsampling                       : 4:2:0
  19. Bit depth                                : 8 bits
  20. Scan type                                : Progressive
  21. Bits/(Pixel*Frame)                       : 0.064
  22. Stream size                              : 8.60 GiB (60%)
  23. Title                                    : The.Princess.and.the.Frog.2009.2160p.BluRay.x264.8bit.SDR.TrueHD.7.1.Atmos-SWTYBLZ
  24. Writing library                          : x264 core 157 r2935 545de2f
  25. Encoding settings                        : cabac=1 / ref=5 / deblock=1:1:1 / analyse=0x3:0x113 / me=umh / subme=10 / psy=1 / psy_rd=0.40:0.00 / mixed_ref=1 / me_range=48 / chroma_me=1 / trellis=2 / 8x8dct=1 / cqm=0 / deadzone=21,11 / fast_pskip=1 / chroma_qp_offset=-2 / threads=48 / lookahead_threads=5 / sliced_threads=0 / nr=0 / decimate=0 / interlaced=0 / bluray_compat=0 / constrained_intra=0 / bframes=5 / b_pyramid=2 / b_adapt=2 / b_bias=0 / direct=3 / weightb=1 / open_gop=0 / weightp=2 / keyint=250 / keyint_min=23 / scenecut=40 / intra_refresh=0 / rc_lookahead=50 / rc=crf / mbtree=1 / crf=14.0 / qcomp=0.60 / qpmin=0 / qpmax=69 / qpstep=4 / ip_ratio=1.40 / aq=1:0.60
  26. Default                                  : Yes
  27. Forced                                   : No

  28. Audio #1
  29. ID                                       : 2
  30. Format                                   : MLP FBA 16-ch
  31. Format/Info                              : Meridian Lossless Packing FBA with 16-channel presentation
  32. Commercial name                          : Dolby TrueHD with Dolby Atmos
  33. Codec ID                                 : A_TRUEHD
  34. Duration                                 : 1 h 37 min
  35. Bit rate mode                            : Variable
  36. Bit rate                                 : 7 645 kb/s
  37. Maximum bit rate                         : 9 270 kb/s
  38. Channel(s)                               : 8 channels
  39. Channel layout                           : L R C LFE Ls Rs Lb Rb
  40. Sampling rate                            : 48.0 kHz
  41. Frame rate                               : 1 200.000 FPS (40 SPF)
  42. Compression mode                         : Lossless
  43. Stream size                              : 5.20 GiB (36%)
  44. Title                                    : The.Princess.and.the.Frog.2009.2160p.BluRay.x264.8bit.SDR.TrueHD.7.1.Atmos-SWTYBLZ
  45. Language                                 : English
  46. Default                                  : Yes
  47. Forced                                   : No
  48. Number of dynamic objects                : 13
  49. Bed channel count                        : 1 channel
  50. Bed channel configuration                : LFE

  51. Audio #2
  52. ID                                       : 3
  53. Format                                   : AC-3
  54. Format/Info                              : Audio Coding 3
  55. Commercial name                          : Dolby Digital
  56. Codec ID                                 : A_AC3
  57. Duration                                 : 1 h 37 min
  58. Bit rate mode                            : Constant
  59. Bit rate                                 : 640 kb/s
  60. Channel(s)                               : 6 channels
  61. Channel layout                           : L R C LFE Ls Rs
  62. Sampling rate                            : 48.0 kHz
  63. Frame rate                               : 31.250 FPS (1536 SPF)
  64. Bit depth                                : 16 bits
  65. Compression mode                         : Lossy
  66. Stream size                              : 446 MiB (3%)
  67. Title                                    : The.Princess.and.the.Frog.2009.2160p.BluRay.x264.8bit.SDR.TrueHD.7.1.Atmos-SWTYBLZ
  68. Language                                 : English
  69. Service kind                             : Complete Main
  70. Default                                  : No
  71. Forced                                   : No

  72. Text #1
  73. ID                                       : 4
  74. Format                                   : UTF-8
  75. Codec ID                                 : S_TEXT/UTF8
  76. Codec ID/Info                            : UTF-8 Plain Text
  77. Duration                                 : 1 h 33 min
  78. Bit rate                                 : 70 b/s
  79. Count of elements                        : 1374
  80. Stream size                              : 47.9 KiB (0%)
  81. Title                                    : English-SRT
  82. Language                                 : English
  83. Default                                  : Yes
  84. Forced                                   : No

  85. Text #2
  86. ID                                       : 5
  87. Format                                   : PGS
  88. Muxing mode                              : zlib
  89. Codec ID                                 : S_HDMV/PGS
  90. Codec ID/Info                            : Picture based subtitle format used on BDs/HD-DVDs
  91. Duration                                 : 1 h 33 min
  92. Bit rate                                 : 50.8 kb/s
  93. Count of elements                        : 3332
  94. Stream size                              : 33.8 MiB (0%)
  95. Title                                    : English-PGS
  96. Language                                 : English
  97. Default                                  : No
  98. Forced                                   : No

  99. Text #3
  100. ID                                       : 6
  101. Format                                   : PGS
  102. Muxing mode                              : zlib
  103. Codec ID                                 : S_HDMV/PGS
  104. Codec ID/Info                            : Picture based subtitle format used on BDs/HD-DVDs
  105. Duration                                 : 1 h 29 min
  106. Bit rate                                 : 44.5 kb/s
  107. Count of elements                        : 2668
  108. Stream size                              : 28.5 MiB (0%)
  109. Title                                    : French-PGS
  110. Language                                 : French
  111. Default                                  : No
  112. Forced                                   : No

  113. Text #4
  114. ID                                       : 7
  115. Format                                   : PGS
  116. Muxing mode                              : zlib
  117. Codec ID                                 : S_HDMV/PGS
  118. Codec ID/Info                            : Picture based subtitle format used on BDs/HD-DVDs
  119. Duration                                 : 1 h 29 min
  120. Bit rate                                 : 40.4 kb/s
  121. Count of elements                        : 2636
  122. Stream size                              : 25.8 MiB (0%)
  123. Title                                    : Spanish-PGS
  124. Language                                 : Spanish
  125. Default                                  : No
  126. Forced                                   : No

  127. Menu
  128. 00:00:00.000                             : en:Chapter 01
  129. 00:03:58.446                             : en:Chapter 02
  130. 00:07:16.769                             : en:Chapter 03
  131. 00:12:05.975                             : en:Chapter 04
  132. 00:17:46.148                             : en:Chapter 05
  133. 00:22:05.157                             : en:Chapter 06
  134. 00:26:47.856                             : en:Chapter 07
  135. 00:31:22.547                             : en:Chapter 08
  136. 00:35:49.689                             : en:Chapter 09
  137. 00:41:12.720                             : en:Chapter 10
  138. 00:44:31.210                             : en:Chapter 11
  139. 00:50:38.452                             : en:Chapter 12
  140. 00:54:53.290                             : en:Chapter 13
  141. 01:00:09.230                             : en:Chapter 14
  142. 01:07:22.163                             : en:Chapter 15
  143. 01:13:35.119                             : en:Chapter 16
  144. 01:21:51.072                             : en:Chapter 17
  145. 01:24:24.434                             : en:Chapter 18
  146. 01:27:06.930                             : en:Chapter 19
  147. 01:30:28.965                             : en:Chapter 20
复制代码

公主与青蛙 The.Princess.and.the.Frog.2009.2160p.BluRay.x264.8bit.SDR.TrueHD.7.1.Atmos-SWTYBLZ 14.40GB-2.png 公主与青蛙 The.Princess.and.the.Frog.2009.2160p.BluRay.x264.8bit.SDR.TrueHD.7.1.Atmos-SWTYBLZ 14.40GB-3.png 公主与青蛙 The.Princess.and.the.Frog.2009.2160p.BluRay.x264.8bit.SDR.TrueHD.7.1.Atmos-SWTYBLZ 14.40GB-4.png 公主与青蛙 The.Princess.and.the.Frog.2009.2160p.BluRay.x264.8bit.SDR.TrueHD.7.1.Atmos-SWTYBLZ 14.40GB-5.png 公主与青蛙 The.Princess.and.the.Frog.2009.2160p.BluRay.x264.8bit.SDR.TrueHD.7.1.Atmos-SWTYBLZ 14.40GB-6.png 公主与青蛙 The.Princess.and.the.Frog.2009.2160p.BluRay.x264.8bit.SDR.TrueHD.7.1.Atmos-SWTYBLZ 14.40GB-7.png 公主与青蛙 The.Princess.and.the.Frog.2009.2160p.BluRay.x264.8bit.SDR.TrueHD.7.1.Atmos-SWTYBLZ 14.40GB-8.png







回复

使用道具 举报

 成长值: 780

发表于 2019-11-4 09:47:30 | 显示全部楼层

楼主,我太崇拜你了!我想我是一天也不能离开蓝光电影网
回复 支持 反对

使用道具 举报

懒得打字嘛,点击右侧快捷回复 【右侧内容,后台自定义】
您需要登录后才可以回帖 登录 | 立即加入

本版积分规则

现在加入蓝光电影网,注册一个账号

QQ| 手机版|小黑屋| 蓝光电影网 |网站地图 

Copyright © 2015-2019 Comsenz Inc.  Template by 蓝光电影论坛 All Rights Reserved.

Powered by 蓝光电影网 X3.4

特别声明:本站所有资源均由网上收集而来,版权归原影音公司所有,如果侵犯了你的权益,请通知我们,我们会及时删除侵权内容.

快速回复 返回顶部 返回列表