找回密码

蓝光电影网

查看: 190|回复: 7

[10bit.HDR] 海洋奇缘/摩瓦娜 Moana.2016.2160p.UHD.BluRay.X265.10bit.HDR.TrueHD.7.1.Atmos-AViATOR 14.12GB

[复制链接]

 成长值: 23245

发表于 2019-10-26 00:25:09 | 显示全部楼层 |阅读模式
海洋奇缘/摩瓦娜 Moana.2016.2160p.UHD.BluRay.X265.10bit.HDR.TrueHD.7.1.Atmos-AViATOR 14.12GB-1.png

译  名 海洋奇缘 / 摩瓦娜 / 摩阿娜 / 莫阿娜
片  名 Moana
年  代 2016
产  地 美国
类  别 动画 / 歌舞 / 奇幻 / 冒险
语  言 英语
上映日期 2016-11-23(美国) / 2016-11-25(中国大陆)
IMDb评分  7.6/10 from 234250 users
IMDb链接  https://www.imdb.com/title/tt3521164
豆瓣评分 7.5/10 from 110927 users
豆瓣链接 https://movie.douban.com/subject/25793398/
片  长 107分钟
导  演 罗恩·克莱蒙兹 Ron Clements / 约翰·马斯克 John Musker / 唐·霍尔 Don Hall / 克里斯·威廉姆斯 Chris Williams
编  剧 杰拉德·布什 Jared Bush / 罗恩·克莱蒙兹 Ron Clements / 约翰·马斯克 John Musker / 克里斯·威廉姆斯 Chris Williams / 唐·霍尔 Don Hall / 帕米拉·里本 Pamela Ribon / 亚伦·坎德尔 Aaron Kandell / 乔丹·坎德尔 Jordan Kandell
主  演 奥丽伊·卡瓦洛 Auli'i Cravalho
       道恩·强森 Dwayne Johnson
       瑞切尔·豪斯 Rachel House
       特穆拉·莫里森 Temuera Morrison
       杰梅奈·克莱门特 Jemaine Clement
       尼可·斯彻金格 Nicole Scherzinger
       艾伦·图代克 Alan Tudyk
       奥斯卡·凯特利 Oscar Kightley
       特洛伊·波拉马鲁 Troy Polamalu
       普阿娜妮·卡瓦洛 Puanani Cravalho
       露易丝·布什 Louise Bush


标  签 迪士尼 | 动画 | 美国 | 冒险 | 奇幻 | 成长 | 2016 | 喜剧

简  介  

  故事最早始于住在风和海的半神毛伊(道恩·强森 Dwayne Johnson 配音),他偷走了女神的特菲堤之心,导致岩浆魔鬼厄卡陷入疯狂的状态,南太平洋各小岛也面临着毁灭的威胁。一千多年后,某座小岛上的酋长女儿莫阿娜(奥丽依·卡拉瓦霍 Auli'i Cravalho 配音)在父母的呵护下渐渐长大,童年时她曾偶然捡到特菲堤之心,亦曾受到大海的召唤,然而父亲却严厉禁止莫阿娜出海,即使小岛正遭受着死亡的威胁。从奶奶那里,莫阿娜知晓了他们这一族人的历史,于是为了拯救小岛,她依然出海去寻找被困在某地的毛伊,好让他归还特菲堤之心。历经千辛万苦,莫阿娜终于见到了这个传说中的高傲自大的半神。而毛伊则担心特菲堤之心带来霉运拒绝前往。
  只不过在命运的指引下,毛伊还是随着莫阿娜踏上未知的征途……

获奖情况  

  第89届奥斯卡金像奖(2017)
  最佳动画长片(提名) 约翰·马斯克 / 奥斯娜特·舒尔 / 罗恩·克莱蒙兹
  最佳原创歌曲(提名) 林-曼努尔·米兰达

  第74届金球奖(2017)
  电影类 最佳动画长片(提名)
  电影类 最佳原创歌曲(提名)

  第70届英国电影学院奖(2017)
  电影奖 最佳动画片(提名) 约翰·马斯克 / 罗恩·克莱蒙兹

  第44届动画安妮奖(2017)
  最佳动画长片(提名)
  最佳配音 奥丽伊·卡瓦洛
  最佳剪辑(提名)
  最佳分镜(提名)
  最佳角色设计(提名)
  最佳动画效果

  第28届美国制片人工会奖(2017)
  最佳动画片制片人奖(提名)

  第67届美国剪辑工会奖(2017)
  动画片最佳剪辑(提名)

  第15届美国视觉效果协会奖(2017)
  最佳动画电影视觉效果(提名)
  最佳动画电影CG动画角色(提名)
  最佳动画电影CG背景
  最佳动画电影模拟动画效果

  第53届美国声音效果协会奖(2017)
  动画电影最佳音效(提名)

  第22届美国评论家选择电影奖(2017)
  最佳动画片(提名)
  最佳歌曲(提名)

  第21届金卫星奖(2017)
  电影部门 最佳动画片(提名)

  第15届华盛顿影评人协会奖(2016)
  最佳动画片(提名)
  最佳配音(提名) 奥丽伊·卡瓦洛

  第29届芝加哥影评人协会奖(2016)
  最佳动画片(提名)

  第20届美国在线影评人协会奖(2017)
  最佳动画片(提名)

  第3届豆瓣电影年度榜单(2016)
  评分最高的动画片(提名)
  1. Video
  2. ID                                       : 1
  3. Format                                   : HEVC
  4. Format/Info                              : High Efficiency Video Coding
  5. Format profile                           : Main High@L4@High
  6. HDR format                               : SMPTE ST 2086, HDR10 compatible
  7. Codec ID                                 : V_MPEGH/ISO/HEVC
  8. Duration                                 : 1 h 47 min
  9. Bit rate                                 : 10.3 Mb/s
  10. Width                                    : 3 840 pixels
  11. Height                                   : 1 608 pixels
  12. Display aspect ratio                     : 2.40:1
  13. Frame rate mode                          : Constant
  14. Frame rate                               : 23.976 (24000/1001) FPS
  15. Color space                              : YUV
  16. Chroma subsampling                       : 4:2:0 (Type 2)
  17. Bit depth                                : 10 bits
  18. Bits/(Pixel*Frame)                       : 0.070
  19. Stream size                              : 7.74 GiB (55%)
  20. Writing library                          : x265 3.2f46aa2bc1c34:[Windows][GCC 9.2.0][64 bit] 10bit
  21. Encoding settings                        : cpuid=1176575 / frame-threads=5 / numa-pools=36 / wpp / no-pmode / no-pme / no-psnr / no-ssim / log-level=2 / input-csp=1 / input-res=3840x1608 / interlace=0 / total-frames=154229 / level-idc=51 / high-tier=1 / uhd-bd=0 / ref=4 / no-allow-non-conformance / repeat-headers / annexb / aud / hrd / info / hash=0 / no-temporal-layers / no-open-gop / min-keyint=1 / keyint=24 / gop-lookahead=0 / bframes=4 / b-adapt=2 / b-pyramid / bframe-bias=0 / rc-lookahead=25 / lookahead-slices=4 / scenecut=40 / radl=0 / no-splice / no-intra-refresh / ctu=64 / min-cu-size=8 / rect / no-amp / max-tu-size=32 / tu-inter-depth=1 / tu-intra-depth=1 / limit-tu=0 / rdoq-level=2 / dynamic-rd=0.00 / no-ssim-rd / signhide / no-tskip / nr-intra=0 / nr-inter=0 / no-constrained-intra / no-strong-intra-smoothing / max-merge=3 / limit-refs=3 / limit-modes / me=3 / subme=3 / merange=57 / temporal-mvp / no-frame-dup / no-hme / weightp / no-weightb / no-analyze-src-pics / deblock=-3:-3 / no-sao / no-sao-non-deblock / rd=4 / selective-sao=0 / no-early-skip / rskip / no-fast-intra / no-tskip-fast / no-cu-lossless / no-b-intra / no-splitrd-skip / rdpenalty=0 / psy-rd=2.00 / psy-rdoq=1.00 / no-rd-refine / no-lossless / cbqpoffs=0 / crqpoffs=0 / rc=crf / crf=17.0 / qcomp=0.60 / qpstep=4 / stats-write=0 / stats-read=0 / vbv-maxrate=160000 / vbv-bufsize=160000 / vbv-init=0.9 / crf-max=0.0 / crf-min=0.0 / ipratio=1.40 / pbratio=1.30 / aq-mode=2 / aq-strength=1.00 / cutree / zone-count=0 / no-strict-cbr / qg-size=32 / no-rc-grain / qpmax=69 / qpmin=0 / no-const-vbv / sar=1 / overscan=0 / videoformat=5 / range=0 / colorprim=9 / transfer=16 / colormatrix=9 / chromaloc=1 / chromaloc-top=2 / chromaloc-bottom=2 / display-window=0 / master-display=G(13250,34500)B(7500,3000)R(34000,16000)WP(15635,16450)L(40000000,50) / cll=0,0 / min-luma=0 / max-luma=1023 / log2-max-poc-lsb=8 / vui-timing-info / vui-hrd-info / slices=1 / no-opt-qp-pps / no-opt-ref-list-length-pps / no-multi-pass-opt-rps / scenecut-bias=0.05 / no-opt-cu-delta-qp / no-aq-motion / hdr / hdr-opt / no-dhdr10-opt / no-idr-recovery-sei / analysis-reuse-level=5 / scale-factor=0 / refine-intra=0 / refine-inter=0 / refine-mv=1 / refine-ctu-distortion=0 / no-limit-sao / ctu-info=0 / no-lowpass-dct / refine-analysis-type=0 / copy-pic=1 / max-ausize-factor=1.0 / no-dynamic-refine / no-single-sei / no-hevc-aq / no-svt / no-field / qp-adaptation-range=1.00
  22. Default                                  : Yes
  23. Forced                                   : No
  24. Color range                              : Limited
  25. Color primaries                          : BT.2020
  26. Transfer characteristics                 : PQ
  27. Matrix coefficients                      : BT.2020 non-constant
  28. Mastering display color primaries        : Display P3
  29. Mastering display luminance              : min: 0.0050 cd/m2, max: 4000 cd/m2

  30. Audio #1
  31. ID                                       : 2
  32. Format                                   : MLP FBA 16-ch
  33. Format/Info                              : Meridian Lossless Packing FBA with 16-channel presentation
  34. Commercial name                          : Dolby TrueHD with Dolby Atmos
  35. Codec ID                                 : A_TRUEHD
  36. Duration                                 : 1 h 47 min
  37. Bit rate mode                            : Variable
  38. Bit rate                                 : 7 681 kb/s
  39. Maximum bit rate                         : 11.3 Mb/s
  40. Channel(s)                               : 8 channels
  41. Channel layout                           : L R C LFE Ls Rs Lb Rb
  42. Sampling rate                            : 48.0 kHz
  43. Frame rate                               : 1 200.000 FPS (40 SPF)
  44. Compression mode                         : Lossless
  45. Stream size                              : 5.75 GiB (41%)
  46. Language                                 : English
  47. Default                                  : Yes
  48. Forced                                   : No
  49. Number of dynamic objects                : 13
  50. Bed channel count                        : 1 channel
  51. Bed channel configuration                : LFE

  52. Audio #2
  53. ID                                       : 3
  54. Format                                   : AC-3
  55. Format/Info                              : Audio Coding 3
  56. Commercial name                          : Dolby Digital
  57. Codec ID                                 : A_AC3
  58. Duration                                 : 1 h 47 min
  59. Bit rate mode                            : Constant
  60. Bit rate                                 : 640 kb/s
  61. Channel(s)                               : 6 channels
  62. Channel layout                           : L R C LFE Ls Rs
  63. Sampling rate                            : 48.0 kHz
  64. Frame rate                               : 31.250 FPS (1536 SPF)
  65. Bit depth                                : 16 bits
  66. Compression mode                         : Lossy
  67. Stream size                              : 491 MiB (3%)
  68. Language                                 : English
  69. Service kind                             : Complete Main
  70. Default                                  : No
  71. Forced                                   : No

  72. Text #1
  73. ID                                       : 4
  74. Format                                   : PGS
  75. Muxing mode                              : zlib
  76. Codec ID                                 : S_HDMV/PGS
  77. Codec ID/Info                            : Picture based subtitle format used on BDs/HD-DVDs
  78. Duration                                 : 1 h 45 min
  79. Bit rate                                 : 32.0 kb/s
  80. Count of elements                        : 2868
  81. Stream size                              : 24.2 MiB (0%)
  82. Title                                    : English SDH
  83. Language                                 : English
  84. Default                                  : No
  85. Forced                                   : No

  86. Text #2
  87. ID                                       : 5
  88. Format                                   : PGS
  89. Muxing mode                              : zlib
  90. Codec ID                                 : S_HDMV/PGS
  91. Codec ID/Info                            : Picture based subtitle format used on BDs/HD-DVDs
  92. Duration                                 : 1 h 45 min
  93. Bit rate                                 : 29.3 kb/s
  94. Count of elements                        : 2560
  95. Stream size                              : 22.1 MiB (0%)
  96. Title                                    : French
  97. Language                                 : French
  98. Default                                  : No
  99. Forced                                   : No

  100. Text #3
  101. ID                                       : 6
  102. Format                                   : PGS
  103. Muxing mode                              : zlib
  104. Codec ID                                 : S_HDMV/PGS
  105. Codec ID/Info                            : Picture based subtitle format used on BDs/HD-DVDs
  106. Duration                                 : 1 h 45 min
  107. Bit rate                                 : 26.0 kb/s
  108. Count of elements                        : 2432
  109. Stream size                              : 19.6 MiB (0%)
  110. Title                                    : Spanish
  111. Language                                 : Spanish
  112. Default                                  : No
  113. Forced                                   : No

  114. Text #4
  115. ID                                       : 7
  116. Format                                   : PGS
  117. Muxing mode                              : zlib
  118. Codec ID                                 : S_HDMV/PGS
  119. Codec ID/Info                            : Picture based subtitle format used on BDs/HD-DVDs
  120. Duration                                 : 1 h 45 min
  121. Bit rate                                 : 22.9 kb/s
  122. Count of elements                        : 2108
  123. Stream size                              : 17.3 MiB (0%)
  124. Title                                    : Japanese
  125. Language                                 : Japanese
  126. Default                                  : No
  127. Forced                                   : No

  128. Text #5
  129. ID                                       : 8
  130. Format                                   : PGS
  131. Muxing mode                              : zlib
  132. Codec ID                                 : S_HDMV/PGS
  133. Codec ID/Info                            : Picture based subtitle format used on BDs/HD-DVDs
  134. Duration                                 : 2 min 34 s
  135. Bit rate                                 : 55.1 kb/s
  136. Count of elements                        : 94
  137. Stream size                              : 1.02 MiB (0%)
  138. Title                                    : French
  139. Language                                 : French
  140. Default                                  : No
  141. Forced                                   : No

  142. Text #6
  143. ID                                       : 9
  144. Format                                   : PGS
  145. Muxing mode                              : zlib
  146. Codec ID                                 : S_HDMV/PGS
  147. Codec ID/Info                            : Picture based subtitle format used on BDs/HD-DVDs
  148. Duration                                 : 4 s 45 ms
  149. Bit rate                                 : 45.4 kb/s
  150. Count of elements                        : 2
  151. Stream size                              : 22.4 KiB (0%)
  152. Title                                    : Spanish
  153. Language                                 : Spanish
  154. Default                                  : No
  155. Forced                                   : No
复制代码

海洋奇缘/摩瓦娜 Moana.2016.2160p.UHD.BluRay.X265.10bit.HDR.TrueHD.7.1.Atmos-AViATOR 14.12GB-2.png 海洋奇缘/摩瓦娜 Moana.2016.2160p.UHD.BluRay.X265.10bit.HDR.TrueHD.7.1.Atmos-AViATOR 14.12GB-3.png 海洋奇缘/摩瓦娜 Moana.2016.2160p.UHD.BluRay.X265.10bit.HDR.TrueHD.7.1.Atmos-AViATOR 14.12GB-4.png







回复

使用道具 举报

发表于 2019-10-26 00:37:38 | 显示全部楼层
海洋奇缘
回复

使用道具 举报

发表于 2019-10-26 08:48:01 | 显示全部楼层

这东西我收了!谢谢楼主!蓝光电影网真好!
回复 支持 反对

使用道具 举报

发表于 2019-10-26 09:18:41 | 显示全部楼层
楼主发贴辛苦了,谢谢楼主分享!我觉得蓝光电影网是注册对了!
回复 支持 反对

使用道具 举报

发表于 2019-10-26 14:40:43 | 显示全部楼层

楼主太厉害了!楼主,电影应该很好看我觉得蓝光电影网真是个好地方!
回复 支持 反对

使用道具 举报

发表于 2019-10-26 17:02:57 | 显示全部楼层

这东西我收了!谢谢楼主!蓝光电影网真好!
回复 支持 反对

使用道具 举报

发表于 2019-10-28 09:31:38 | 显示全部楼层
楼主发贴辛苦了,谢谢楼主分享!我觉得蓝光电影网是注册对了!
回复 支持 反对

使用道具 举报

发表于 2019-10-29 18:06:52 | 显示全部楼层
楼主发贴辛苦了,谢谢楼主分享!我觉得蓝光电影网是注册对了!
回复 支持 反对

使用道具 举报

懒得打字嘛,点击右侧快捷回复 【右侧内容,后台自定义】
您需要登录后才可以回帖 登录 | 立即加入

本版积分规则

现在加入蓝光电影网,注册一个账号

QQ| 手机版|小黑屋| 蓝光电影网 |网站地图 

Copyright © 2015-2019 Comsenz Inc.  Template by 蓝光电影论坛 All Rights Reserved.

Powered by 蓝光电影网 X3.4

特别声明:本站所有资源均由网上收集而来,版权归原影音公司所有,如果侵犯了你的权益,请通知我们,我们会及时删除侵权内容.

快速回复 返回顶部 返回列表