找回密码

蓝光电影网

查看: 101|回复: 3

[REMUX.HEVC] 公主与青蛙 The.Princess.and.the.Frog.2009.2160p.BluRay.REMUX.HEVC.TrueHD.7.1.Atmos-FGT 38.60GB

[复制链接]

 成长值: 23155

发表于 2019-10-25 16:37:34 | 显示全部楼层 |阅读模式
公主与青蛙 The.Princess.and.the.Frog.2009.2160p.BluRay.REMUX.HEVC.TrueHD.7.1.Atmos-FGT 38.60GB-1.png

译  名 公主与青蛙 / The Frog Princess / 公主和青蛙 / 青蛙公主
片  名 The Princess and the Frog
年  代 2009
产  地 美国
类  别 喜剧 / 爱情 / 动画 / 歌舞
语  言 英语
上映日期 2009-12-11(美国)
IMDb评分  7.1/10 from 112853 users
IMDb链接  https://www.imdb.com/title/tt0780521
豆瓣评分 7.4/10 from 42394 users
豆瓣链接 https://movie.douban.com/subject/1949005/
片  长 97分钟
导  演 Ron Clements / John Musker
编  剧 Ron Clements / Rob Edwards / John Musker
主  演 Anika Noni Rose
       Bruno Campos
       Keith David
       Michael-Leon Wooley
       Jennifer Cody
       Peter Bartlett
       Jenifer Lewis
       John Goodman
       Terrence Howard


标  签 动画 | Disney | 美国 | 迪斯尼 | 童话 | 爱情 | 2009 | 音乐

简  介  

  蒂亚娜(Tiana)是个从不相信童话的女孩子,具有烹饪天赋的她最大的目标便是开一家属于自己的餐厅,多年来她一直努力赚钱,希望够自己的双手去实现梦想。可是就在她即将攒够钱的那天晚上,她遇到一只自称是王子马文(Naveen)的青蛙,他说自己是被影子人施了魔法并且许诺只要蒂亚娜吻他,那么他就可以帮蒂亚娜实现梦想。可是当蒂亚娜吻完青蛙,青蛙并没有变成马文王子,蒂亚娜却变成了一只青蛙。他们在躲避坏人的追赶时遇到喜欢演奏爵士乐的鳄鱼路易斯和荧火虫雷蒙,他们决定一起去密西西比河河口找女巫妈妈沃提帮忙。邪恶的影子人派出大批的影子杀手已经追上了这一行人,在紧要关头,妈妈沃提出现救了他们并且告诉了他们如果要变会人类,马文就必须去亲吻真正的公主夏洛特。可是此时马文在和蒂亚娜相处的过程中早已经爱上了这个执着的女孩子……
  本片无论从音乐和画面都融入大量新奥尔良元素,为影片创作音乐的兰迪·纽曼(Randy Newman)曾获奥斯卡奖,他本人就是新奥尔良人。

获奖情况  

  第82届奥斯卡金像奖(2010)
  最佳动画长片(提名) 约翰·马斯克 / 罗恩·克莱蒙兹
  最佳原创歌曲(提名) 兰迪·纽曼

  第67届金球奖(2010)
  电影类 最佳动画长片(提名)

  第37届动画安妮奖(2010)
  最佳动画长片(提名)
  最佳配音 Jennifer Cody
  最佳配音(提名) 詹妮弗·路易斯
  最佳艺术指导(提名) Ian Gooding
  最佳动画角色 埃里克·古德伯格
  最佳动画角色(提名) Andreas Deja / Bruce W. Smith
  最佳动画效果 James DeValera Mansfield

  第22届芝加哥影评人协会奖(2009)
  最佳动画片(提名)

  第12届美国青少年选择奖(2010)
  最佳动画片(提名)
  1. Video
  2. ID                                       : 1
  3. Format                                   : HEVC
  4. Format/Info                              : High Efficiency Video Coding
  5. Format profile                           : Main High@L4@High
  6. HDR format                               : SMPTE ST 2086, HDR10 compatible
  7. Codec ID                                 : V_MPEGH/ISO/HEVC
  8. Duration                                 : 1 h 37 min
  9. Bit rate                                 : 46.7 Mb/s
  10. Width                                    : 3 840 pixels
  11. Height                                   : 2 160 pixels
  12. Display aspect ratio                     : 16:9
  13. Frame rate mode                          : Constant
  14. Frame rate                               : 23.976 (24000/1001) FPS
  15. Color space                              : YUV
  16. Chroma subsampling                       : 4:2:0 (Type 2)
  17. Bit depth                                : 10 bits
  18. Bits/(Pixel*Frame)                       : 0.235
  19. Stream size                              : 31.8 GiB (82%)
  20. Title                                    : The.Princess.and.the.Frog.2009.2160p.BluRay.REMUX.HEVC.TrueHD.7.1.Atmos-FGT
  21. Writing library                          : ATEME Titan File 3.9.0 (4.9.0.0)        
  22. Language                                 : English
  23. Default                                  : No
  24. Forced                                   : No
  25. Color range                              : Limited
  26. Color primaries                          : BT.2020
  27. Transfer characteristics                 : PQ
  28. Matrix coefficients                      : BT.2020 non-constant
  29. Mastering display color primaries        : Display P3
  30. Mastering display luminance              : min: 0.0050 cd/m2, max: 4000 cd/m2

  31. Audio #1
  32. ID                                       : 2
  33. Format                                   : MLP FBA 16-ch
  34. Format/Info                              : Meridian Lossless Packing FBA with 16-channel presentation
  35. Commercial name                          : Dolby TrueHD with Dolby Atmos
  36. Codec ID                                 : A_TRUEHD
  37. Duration                                 : 1 h 37 min
  38. Bit rate mode                            : Variable
  39. Bit rate                                 : 7 645 kb/s
  40. Maximum bit rate                         : 9 270 kb/s
  41. Channel(s)                               : 8 channels
  42. Channel layout                           : L R C LFE Ls Rs Lb Rb
  43. Sampling rate                            : 48.0 kHz
  44. Frame rate                               : 1 200.000 FPS (40 SPF)
  45. Compression mode                         : Lossless
  46. Stream size                              : 5.20 GiB (13%)
  47. Title                                    : The.Princess.and.the.Frog.2009.2160p.BluRay.REMUX.HEVC.TrueHD.7.1.Atmos-FGT
  48. Language                                 : English
  49. Default                                  : Yes
  50. Forced                                   : No
  51. Number of dynamic objects                : 13
  52. Bed channel count                        : 1 channel
  53. Bed channel configuration                : LFE

  54. Audio #2
  55. ID                                       : 3
  56. Format                                   : AC-3
  57. Format/Info                              : Audio Coding 3
  58. Commercial name                          : Dolby Digital
  59. Codec ID                                 : A_AC3
  60. Duration                                 : 1 h 37 min
  61. Bit rate mode                            : Constant
  62. Bit rate                                 : 640 kb/s
  63. Channel(s)                               : 6 channels
  64. Channel layout                           : L R C LFE Ls Rs
  65. Sampling rate                            : 48.0 kHz
  66. Frame rate                               : 31.250 FPS (1536 SPF)
  67. Bit depth                                : 16 bits
  68. Compression mode                         : Lossy
  69. Stream size                              : 446 MiB (1%)
  70. Title                                    : The.Princess.and.the.Frog.2009.2160p.BluRay.REMUX.HEVC.TrueHD.7.1.Atmos-FGT
  71. Language                                 : English
  72. Service kind                             : Complete Main
  73. Default                                  : No
  74. Forced                                   : No

  75. Audio #3
  76. ID                                       : 4
  77. Format                                   : AC-3
  78. Format/Info                              : Audio Coding 3
  79. Commercial name                          : Dolby Digital
  80. Codec ID                                 : A_AC3
  81. Duration                                 : 1 h 37 min
  82. Bit rate mode                            : Constant
  83. Bit rate                                 : 320 kb/s
  84. Channel(s)                               : 2 channels
  85. Channel layout                           : L R
  86. Sampling rate                            : 48.0 kHz
  87. Frame rate                               : 31.250 FPS (1536 SPF)
  88. Bit depth                                : 16 bits
  89. Compression mode                         : Lossy
  90. Stream size                              : 223 MiB (1%)
  91. Title                                    : The.Princess.and.the.Frog.2009.2160p.BluRay.REMUX.HEVC.TrueHD.7.1.Atmos-FGT
  92. Language                                 : English
  93. Service kind                             : Complete Main
  94. Default                                  : No
  95. Forced                                   : No

  96. Audio #4
  97. ID                                       : 5
  98. Format                                   : AC-3
  99. Format/Info                              : Audio Coding 3
  100. Commercial name                          : Dolby Digital
  101. Codec ID                                 : A_AC3
  102. Duration                                 : 1 h 37 min
  103. Bit rate mode                            : Constant
  104. Bit rate                                 : 640 kb/s
  105. Channel(s)                               : 6 channels
  106. Channel layout                           : L R C LFE Ls Rs
  107. Sampling rate                            : 48.0 kHz
  108. Frame rate                               : 31.250 FPS (1536 SPF)
  109. Bit depth                                : 16 bits
  110. Compression mode                         : Lossy
  111. Stream size                              : 446 MiB (1%)
  112. Title                                    : The.Princess.and.the.Frog.2009.2160p.BluRay.REMUX.HEVC.TrueHD.7.1.Atmos-FGT
  113. Language                                 : French
  114. Service kind                             : Complete Main
  115. Default                                  : No
  116. Forced                                   : No

  117. Audio #5
  118. ID                                       : 6
  119. Format                                   : AC-3
  120. Format/Info                              : Audio Coding 3
  121. Commercial name                          : Dolby Digital
  122. Codec ID                                 : A_AC3
  123. Duration                                 : 1 h 37 min
  124. Bit rate mode                            : Constant
  125. Bit rate                                 : 640 kb/s
  126. Channel(s)                               : 6 channels
  127. Channel layout                           : L R C LFE Ls Rs
  128. Sampling rate                            : 48.0 kHz
  129. Frame rate                               : 31.250 FPS (1536 SPF)
  130. Bit depth                                : 16 bits
  131. Compression mode                         : Lossy
  132. Stream size                              : 446 MiB (1%)
  133. Title                                    : The.Princess.and.the.Frog.2009.2160p.BluRay.REMUX.HEVC.TrueHD.7.1.Atmos-FGT
  134. Language                                 : Spanish
  135. Service kind                             : Complete Main
  136. Default                                  : No
  137. Forced                                   : No

  138. Text #1
  139. ID                                       : 7
  140. Format                                   : UTF-8
  141. Codec ID                                 : S_TEXT/UTF8
  142. Codec ID/Info                            : UTF-8 Plain Text
  143. Duration                                 : 1 h 33 min
  144. Bit rate                                 : 70 b/s
  145. Count of elements                        : 1374
  146. Stream size                              : 47.9 KiB (0%)
  147. Title                                    : English-SRT
  148. Language                                 : English
  149. Default                                  : Yes
  150. Forced                                   : No

  151. Text #2
  152. ID                                       : 8
  153. Format                                   : PGS
  154. Muxing mode                              : zlib
  155. Codec ID                                 : S_HDMV/PGS
  156. Codec ID/Info                            : Picture based subtitle format used on BDs/HD-DVDs
  157. Duration                                 : 1 h 33 min
  158. Bit rate                                 : 50.8 kb/s
  159. Count of elements                        : 3332
  160. Stream size                              : 33.8 MiB (0%)
  161. Title                                    : English-PGS
  162. Language                                 : English
  163. Default                                  : No
  164. Forced                                   : No

  165. Text #3
  166. ID                                       : 9
  167. Format                                   : PGS
  168. Muxing mode                              : zlib
  169. Codec ID                                 : S_HDMV/PGS
  170. Codec ID/Info                            : Picture based subtitle format used on BDs/HD-DVDs
  171. Duration                                 : 1 h 29 min
  172. Bit rate                                 : 44.5 kb/s
  173. Count of elements                        : 2668
  174. Stream size                              : 28.5 MiB (0%)
  175. Title                                    : French-PGS
  176. Language                                 : French
  177. Default                                  : No
  178. Forced                                   : No

  179. Text #4
  180. ID                                       : 10
  181. Format                                   : PGS
  182. Muxing mode                              : zlib
  183. Codec ID                                 : S_HDMV/PGS
  184. Codec ID/Info                            : Picture based subtitle format used on BDs/HD-DVDs
  185. Duration                                 : 1 h 29 min
  186. Bit rate                                 : 40.4 kb/s
  187. Count of elements                        : 2636
  188. Stream size                              : 25.8 MiB (0%)
  189. Title                                    : Spanish-PGS
  190. Language                                 : Spanish
  191. Default                                  : No
  192. Forced                                   : No

  193. Menu
  194. 00:00:00.000                             : en:Chapter 01
  195. 00:03:58.446                             : en:Chapter 02
  196. 00:07:16.769                             : en:Chapter 03
  197. 00:12:05.975                             : en:Chapter 04
  198. 00:17:46.148                             : en:Chapter 05
  199. 00:22:05.157                             : en:Chapter 06
  200. 00:26:47.856                             : en:Chapter 07
  201. 00:31:22.547                             : en:Chapter 08
  202. 00:35:49.689                             : en:Chapter 09
  203. 00:41:12.720                             : en:Chapter 10
  204. 00:44:31.210                             : en:Chapter 11
  205. 00:50:38.452                             : en:Chapter 12
  206. 00:54:53.290                             : en:Chapter 13
  207. 01:00:09.230                             : en:Chapter 14
  208. 01:07:22.163                             : en:Chapter 15
  209. 01:13:35.119                             : en:Chapter 16
  210. 01:21:51.072                             : en:Chapter 17
  211. 01:24:24.434                             : en:Chapter 18
  212. 01:27:06.930                             : en:Chapter 19
  213. 01:30:28.965                             : en:Chapter 20
复制代码

公主与青蛙 The.Princess.and.the.Frog.2009.2160p.BluRay.REMUX.HEVC.TrueHD.7.1.Atmos-FGT 38.60GB-2.png 公主与青蛙 The.Princess.and.the.Frog.2009.2160p.BluRay.REMUX.HEVC.TrueHD.7.1.Atmos-FGT 38.60GB-3.png 公主与青蛙 The.Princess.and.the.Frog.2009.2160p.BluRay.REMUX.HEVC.TrueHD.7.1.Atmos-FGT 38.60GB-4.png







回复

使用道具 举报

发表于 2019-10-25 21:31:39 | 显示全部楼层
楼主发贴辛苦了,谢谢楼主分享!我觉得蓝光电影网是注册对了!
回复 支持 反对

使用道具 举报

 成长值: 720

发表于 2019-10-28 09:09:46 | 显示全部楼层
楼主发贴辛苦了,谢谢楼主分享!我觉得蓝光电影网是注册对了!
回复 支持 反对

使用道具 举报

已抛锚 成长值: 5530

发表于 昨天 13:52 | 显示全部楼层
██████在-线-看-片bxxp7.c o m 】██████

██████在-线-看-片
bxxp7.c o m 】██████

██████在-线-看-片
bxxp7.c o m 】██████

██████在-线-看-片
bxxp7.c o m 】██████

██████在-线-看-片
bxxp7.c o m 】██████

██████在-线-看-片
bxxp7.c o m 】██████

██████在-线-看-片
bxxp7.c o m 】██████
回复 支持 反对

使用道具 举报

懒得打字嘛,点击右侧快捷回复 【右侧内容,后台自定义】
您需要登录后才可以回帖 登录 | 立即加入

本版积分规则

现在加入蓝光电影网,注册一个账号

QQ| 手机版|小黑屋| 蓝光电影网 |网站地图

Copyright © 2015-2019 Comsenz Inc.  Template by 蓝光电影论坛 All Rights Reserved.

Powered by 蓝光电影网 X3.4

特别声明:本站所有资源均由网上收集而来,版权归原影音公司所有,如果侵犯了你的权益,请通知我们,我们会及时删除侵权内容.

快速回复 返回顶部 返回列表