找回密码

蓝光电影网

查看: 155|回复: 4

[8bit.SDR] 赛车总动员3:极速挑战/Cars 3:闪电再起 Cars.3.2017.2160p.BluRay.x264.8bit.SDR.DTS-HD.MA.TrueHD.7.1.Atmos-SWTYBLZ 20.05GB

[复制链接]

 成长值: 23155

发表于 2019-10-25 14:07:20 | 显示全部楼层 |阅读模式
赛车总动员3:极速挑战/Cars 3:闪电再起 Cars.3.2017.2160p.BluRay.x264.8bit.SDR.DTS-HD.MA.TrueHD.7.1.Atmos-SWTYBLZ 20.05GB-1.png

译  名 赛车总动员3:极速挑战 / Cars 3:闪电再起(台) / 反斗车王3(港) / 小汽车的故事3 / 汽车总动员3 / 赛车总动员3 / 飞车正传3
片  名 Cars 3
年  代 2017
产  地 美国
类  别 喜剧 / 动画 / 冒险
语  言 英语
上映日期 2017-06-16(美国) / 2017-08-25(中国大陆)
IMDb评分  6.7/10 from 63226 users
IMDb链接  https://www.imdb.com/title/tt3606752
豆瓣评分 7.0/10 from 30383 users
豆瓣链接 https://movie.douban.com/subject/25849480/
片  长 102分钟
导  演 布莱恩·飞 Brian Fee
编  剧 布莱恩·飞 Brian Fee / 本·奎因 Ben Queen / 伊尔·波戴尔 Eyal Podell / 乔纳森·E·斯图尔特 Jonathon E. Stewart / 基尔·默里 Kiel Murray / 鲍勃·彼德森 Bob Peterson / 迈克·里奇 Mike Rich
主  演 欧文·威尔逊 Owen Wilson
       克里斯黛拉·阿朗索 Cristela Alonzo
       克里斯·库珀 Chris Cooper
       内森·菲利安 Nathan Fillion
       王牌接线员拉里 Larry The Cable Guy
       阿米·汉莫 Armie Hammer
       雷·马格利奥齐 Ray Magliozzi
       托尼·夏尔赫布 Tony Shalhoub
       邦尼·亨特 Bonnie Hunt
       丽亚·德拉利亚 Lea DeLaria
       凯丽·华盛顿 Kerry Washington
       鲍勃·科斯塔斯 Bob Costas
       玛格·马丁戴尔 Margo Martindale
       达雷尔·沃尔特里普 Darrell Waltrip
       小伊塞亚·维特洛克 Isiah Whitlock Jr.
       保罗·杜利 Paul Dooley
       凯瑟琳·海蒙德 Katherine Helmond
       切奇·马林 Cheech Marin


标  签 动画 | 迪士尼 | 美国 | 汽车总动员 | 2017 | 赛车 | 喜剧 | 温情

简  介  

  征战沙场多年,闪电麦昆(欧文·威尔逊 Owen Wilson 配音)早已成为经验丰富的老将。对于现在的他来说,比赛更像与老友们的聚会,大家共同享受狂奔带来的乐趣。然而这和谐的一幕很快被残酷的现实打破,以风暴杰克逊(艾米·汉莫 Armie Hammer 配音)为代表的次世代高科技赛车相继步入赛场,他们凭借更加优良的性能与高科技的组装改造将老一代赛车一一淘汰,甚至包括王者麦昆。四个月后,伤愈的麦昆决定复出,而他也被合作多年的赞助商转到了斯特林(内森·菲利安 Nathan Fillion 配音)麾下。接受从内到外的全新改造后,麦昆在教练科鲁兹·拉米雷斯(克里斯黛拉·阿朗索 Cristela Alonzo 配音)的监督下展开训练。然而他面临着一项严峻的考验,如果他不能在接下来的比赛中取得胜利,那么他必须从此退休。
  希望渺茫,不服输的麦昆能否重新取得胜利的荣光……

获奖情况  

  第45届动画安妮奖(2018)
  最佳动画长片(提名)
  最佳动画效果(提名)

  第22届美国艺术指导工会奖(2018)
  电影奖 最佳动画电影艺术指导(提名)

  第16届美国视觉效果协会奖(2018)
  最佳动画电影视觉效果(提名)
  最佳动画电影CG背景(提名)
  最佳动画电影模拟动画效果(提名)

  第54届美国声音效果协会奖(2018)
  动画电影最佳音效(提名)

  第22届金卫星奖(2018)
  电影部门 最佳动画片(提名)
  1. Video
  2. ID                                       : 1
  3. Format                                   : AVC
  4. Format/Info                              : Advanced Video Codec
  5. Format profile                           : High@L4
  6. Format settings                          : CABAC / 7 Ref Frames
  7. Format settings, CABAC                   : Yes
  8. Format settings, Reference frames        : 7 frames
  9. Codec ID                                 : V_MPEG4/ISO/AVC
  10. Duration                                 : 1 h 42 min
  11. Bit rate                                 : 17.8 Mb/s
  12. Width                                    : 3 840 pixels
  13. Height                                   : 1 608 pixels
  14. Display aspect ratio                     : 2.40:1
  15. Frame rate mode                          : Constant
  16. Frame rate                               : 23.976 (24000/1001) FPS
  17. Color space                              : YUV
  18. Chroma subsampling                       : 4:2:0
  19. Bit depth                                : 8 bits
  20. Scan type                                : Progressive
  21. Bits/(Pixel*Frame)                       : 0.120
  22. Stream size                              : 12.7 GiB (64%)
  23. Title                                    : Cars.3.2017.2160p.BluRay.x264.8bit.SDR.DTS-HD.MA.TrueHD.7.1.Atmos-SWTYBLZ
  24. Writing library                          : x264 core 157 r2935 545de2f
  25. Encoding settings                        : cabac=1 / ref=7 / deblock=1:1:1 / analyse=0x3:0x113 / me=umh / subme=10 / psy=1 / psy_rd=0.40:0.00 / mixed_ref=1 / me_range=48 / chroma_me=1 / trellis=2 / 8x8dct=1 / cqm=0 / deadzone=21,11 / fast_pskip=1 / chroma_qp_offset=-2 / threads=48 / lookahead_threads=5 / sliced_threads=0 / nr=0 / decimate=0 / interlaced=0 / bluray_compat=0 / constrained_intra=0 / bframes=5 / b_pyramid=2 / b_adapt=2 / b_bias=0 / direct=3 / weightb=1 / open_gop=0 / weightp=2 / keyint=250 / keyint_min=23 / scenecut=40 / intra_refresh=0 / rc_lookahead=50 / rc=crf / mbtree=1 / crf=18.0 / qcomp=0.60 / qpmin=0 / qpmax=69 / qpstep=4 / ip_ratio=1.40 / aq=1:0.60
  26. Default                                  : Yes
  27. Forced                                   : No

  28. Audio #1
  29. ID                                       : 2
  30. Format                                   : MLP FBA 16-ch
  31. Format/Info                              : Meridian Lossless Packing FBA with 16-channel presentation
  32. Commercial name                          : Dolby TrueHD with Dolby Atmos
  33. Codec ID                                 : A_TRUEHD
  34. Duration                                 : 1 h 42 min
  35. Bit rate mode                            : Variable
  36. Bit rate                                 : 4 896 kb/s
  37. Maximum bit rate                         : 6 966 kb/s
  38. Channel(s)                               : 8 channels
  39. Channel layout                           : L R C LFE Ls Rs Lb Rb
  40. Sampling rate                            : 48.0 kHz
  41. Frame rate                               : 1 200.000 FPS (40 SPF)
  42. Compression mode                         : Lossless
  43. Stream size                              : 3.50 GiB (18%)
  44. Title                                    : Cars.3.2017.2160p.BluRay.x264.8bit.SDR.DTS-HD.MA.TrueHD.7.1.Atmos-SWTYBLZ
  45. Language                                 : English
  46. Default                                  : Yes
  47. Forced                                   : No
  48. Number of dynamic objects                : 13
  49. Bed channel count                        : 1 channel
  50. Bed channel configuration                : LFE

  51. Audio #2
  52. ID                                       : 3
  53. Format                                   : DTS XLL
  54. Format/Info                              : Digital Theater Systems
  55. Commercial name                          : DTS-HD Master Audio
  56. Codec ID                                 : A_DTS
  57. Duration                                 : 1 h 42 min
  58. Bit rate mode                            : Variable
  59. Bit rate                                 : 4 415 kb/s
  60. Channel(s)                               : 8 channels
  61. Channel layout                           : C L R LFE Lb Rb Lss Rss
  62. Sampling rate                            : 48.0 kHz
  63. Frame rate                               : 93.750 FPS (512 SPF)
  64. Bit depth                                : 24 bits
  65. Compression mode                         : Lossless
  66. Stream size                              : 3.16 GiB (16%)
  67. Title                                    : Cars.3.2017.2160p.BluRay.x264.8bit.SDR.DTS-HD.MA.TrueHD.7.1.Atmos-SWTYBLZ
  68. Language                                 : English
  69. Default                                  : No
  70. Forced                                   : No

  71. Audio #3
  72. ID                                       : 4
  73. Format                                   : AC-3
  74. Format/Info                              : Audio Coding 3
  75. Commercial name                          : Dolby Digital
  76. Codec ID                                 : A_AC3
  77. Duration                                 : 1 h 42 min
  78. Bit rate mode                            : Constant
  79. Bit rate                                 : 640 kb/s
  80. Channel(s)                               : 6 channels
  81. Channel layout                           : L R C LFE Ls Rs
  82. Sampling rate                            : 48.0 kHz
  83. Frame rate                               : 31.250 FPS (1536 SPF)
  84. Bit depth                                : 16 bits
  85. Compression mode                         : Lossy
  86. Stream size                              : 469 MiB (2%)
  87. Title                                    : Cars.3.2017.2160p.BluRay.x264.8bit.SDR.DTS-HD.MA.TrueHD.7.1.Atmos-SWTYBLZ
  88. Language                                 : English
  89. Service kind                             : Complete Main
  90. Default                                  : No
  91. Forced                                   : No

  92. Text #1
  93. ID                                       : 5
  94. Format                                   : UTF-8
  95. Codec ID                                 : S_TEXT/UTF8
  96. Codec ID/Info                            : UTF-8 Plain Text
  97. Duration                                 : 1 h 40 min
  98. Bit rate                                 : 81 b/s
  99. Count of elements                        : 1740
  100. Stream size                              : 60.3 KiB (0%)
  101. Title                                    : English-SRT
  102. Language                                 : English
  103. Default                                  : Yes
  104. Forced                                   : No

  105. Text #2
  106. ID                                       : 6
  107. Format                                   : UTF-8
  108. Codec ID                                 : S_TEXT/UTF8
  109. Codec ID/Info                            : UTF-8 Plain Text
  110. Duration                                 : 1 h 40 min
  111. Bit rate                                 : 91 b/s
  112. Count of elements                        : 1929
  113. Stream size                              : 67.4 KiB (0%)
  114. Title                                    : English-SDH-SRT
  115. Language                                 : English
  116. Default                                  : No
  117. Forced                                   : No

  118. Text #3
  119. ID                                       : 7
  120. Format                                   : PGS
  121. Muxing mode                              : zlib
  122. Codec ID                                 : S_HDMV/PGS
  123. Codec ID/Info                            : Picture based subtitle format used on BDs/HD-DVDs
  124. Duration                                 : 1 h 40 min
  125. Bit rate                                 : 57.0 kb/s
  126. Count of elements                        : 3860
  127. Stream size                              : 41.1 MiB (0%)
  128. Title                                    : English-PGS
  129. Language                                 : English
  130. Default                                  : No
  131. Forced                                   : No

  132. Text #4
  133. ID                                       : 8
  134. Format                                   : PGS
  135. Muxing mode                              : zlib
  136. Codec ID                                 : S_HDMV/PGS
  137. Codec ID/Info                            : Picture based subtitle format used on BDs/HD-DVDs
  138. Duration                                 : 1 h 40 min
  139. Bit rate                                 : 48.7 kb/s
  140. Count of elements                        : 2878
  141. Stream size                              : 35.1 MiB (0%)
  142. Title                                    : Spanish-PGS
  143. Language                                 : Spanish
  144. Default                                  : No
  145. Forced                                   : No

  146. Menu
  147. 00:00:00.000                             : en:Chapter 01
  148. 00:04:57.255                             : en:Chapter 02
  149. 00:10:54.904                             : en:Chapter 03
  150. 00:13:59.421                             : en:Chapter 04
  151. 00:18:15.094                             : en:Chapter 05
  152. 00:21:07.641                             : en:Chapter 06
  153. 00:34:08.880                             : en:Chapter 07
  154. 00:37:52.103                             : en:Chapter 08
  155. 00:42:44.812                             : en:Chapter 09
  156. 00:49:44.398                             : en:Chapter 10
  157. 00:53:57.567                             : en:Chapter 11
  158. 00:58:17.494                             : en:Chapter 12
  159. 00:59:27.230                             : en:Chapter 13
  160. 01:02:15.940                             : en:Chapter 14
  161. 01:06:35.533                             : en:Chapter 15
  162. 01:08:33.109                             : en:Chapter 16
  163. 01:15:48.085                             : en:Chapter 17
  164. 01:20:57.769                             : en:Chapter 18
  165. 01:29:42.126                             : en:Chapter 19
  166. 01:32:17.031                             : en:Chapter 20
  167. 01:34:00.092                             : en:Chapter 21
复制代码

赛车总动员3:极速挑战/Cars 3:闪电再起 Cars.3.2017.2160p.BluRay.x264.8bit.SDR.DTS-HD.MA.TrueHD.7.1.Atmos-SWTYBLZ 20.05GB-2.png 0a1a74e3b9c3b.png 赛车总动员3:极速挑战/Cars 3:闪电再起 Cars.3.2017.2160p.BluRay.x264.8bit.SDR.DTS-HD.MA.TrueHD.7.1.Atmos-SWTYBLZ 20.05GB-4.png 赛车总动员3:极速挑战/Cars 3:闪电再起 Cars.3.2017.2160p.BluRay.x264.8bit.SDR.DTS-HD.MA.TrueHD.7.1.Atmos-SWTYBLZ 20.05GB-5.png 赛车总动员3:极速挑战/Cars 3:闪电再起 Cars.3.2017.2160p.BluRay.x264.8bit.SDR.DTS-HD.MA.TrueHD.7.1.Atmos-SWTYBLZ 20.05GB-6.png 赛车总动员3:极速挑战/Cars 3:闪电再起 Cars.3.2017.2160p.BluRay.x264.8bit.SDR.DTS-HD.MA.TrueHD.7.1.Atmos-SWTYBLZ 20.05GB-7.png 赛车总动员3:极速挑战/Cars 3:闪电再起 Cars.3.2017.2160p.BluRay.x264.8bit.SDR.DTS-HD.MA.TrueHD.7.1.Atmos-SWTYBLZ 20.05GB-8.png






回复

使用道具 举报

 成长值: 720

发表于 2019-10-28 09:10:19 | 显示全部楼层

楼主太厉害了!楼主,电影应该很好看我觉得蓝光电影网真是个好地方!
回复 支持 反对

使用道具 举报

 成长值: 720

发表于 2019-10-28 09:10:50 | 显示全部楼层
楼主发贴辛苦了,谢谢楼主分享!我觉得蓝光电影网是注册对了!
回复 支持 反对

使用道具 举报

已抛锚 成长值: 5530

发表于 5 天前 | 显示全部楼层
██████在-线-看-片bxxp7.c o m 】██████

██████在-线-看-片
bxxp7.c o m 】██████

██████在-线-看-片
bxxp7.c o m 】██████

██████在-线-看-片
bxxp7.c o m 】██████

██████在-线-看-片
bxxp7.c o m 】██████

██████在-线-看-片
bxxp7.c o m 】██████

██████在-线-看-片
bxxp7.c o m 】██████
回复 支持 反对

使用道具 举报

已抛锚 成长值: 5530

发表于 昨天 13:54 | 显示全部楼层
██████在-线-看-片bxxp7.c o m 】██████

██████在-线-看-片
bxxp7.c o m 】██████

██████在-线-看-片
bxxp7.c o m 】██████

██████在-线-看-片
bxxp7.c o m 】██████

██████在-线-看-片
bxxp7.c o m 】██████

██████在-线-看-片
bxxp7.c o m 】██████

██████在-线-看-片
bxxp7.c o m 】██████
回复 支持 反对

使用道具 举报

懒得打字嘛,点击右侧快捷回复 【右侧内容,后台自定义】
您需要登录后才可以回帖 登录 | 立即加入

本版积分规则

现在加入蓝光电影网,注册一个账号

QQ| 手机版|小黑屋| 蓝光电影网 |网站地图

Copyright © 2015-2019 Comsenz Inc.  Template by 蓝光电影论坛 All Rights Reserved.

Powered by 蓝光电影网 X3.4

特别声明:本站所有资源均由网上收集而来,版权归原影音公司所有,如果侵犯了你的权益,请通知我们,我们会及时删除侵权内容.

快速回复 返回顶部 返回列表