找回密码

蓝光电影网

查看: 129|回复: 0

[10bit.SDR] 赛车总动员3:极速挑战/Cars 3:闪电再起 Cars.3.2017.2160p.BluRay.x265.10bit.SDR.DTS-HD.MA.TrueHD.7.1.Atmos-SWTYBLZ 20.98GB

[复制链接]

 成长值: 23245

发表于 2019-10-25 14:05:08 | 显示全部楼层 |阅读模式
赛车总动员3:极速挑战/Cars 3:闪电再起 Cars.3.2017.2160p.BluRay.x265.10bit.SDR.DTS-HD.MA.TrueHD.7.1.Atmos-SWTYBLZ 20.98GB-1.png

译  名 赛车总动员3:极速挑战 / Cars 3:闪电再起(台) / 反斗车王3(港) / 小汽车的故事3 / 汽车总动员3 / 赛车总动员3 / 飞车正传3
片  名 Cars 3
年  代 2017
产  地 美国
类  别 喜剧 / 动画 / 冒险
语  言 英语
上映日期 2017-06-16(美国) / 2017-08-25(中国大陆)
IMDb评分  6.7/10 from 63226 users
IMDb链接  https://www.imdb.com/title/tt3606752
豆瓣评分 7.0/10 from 30383 users
豆瓣链接 https://movie.douban.com/subject/25849480/
片  长 102分钟
导  演 布莱恩·飞 Brian Fee
编  剧 布莱恩·飞 Brian Fee / 本·奎因 Ben Queen / 伊尔·波戴尔 Eyal Podell / 乔纳森·E·斯图尔特 Jonathon E. Stewart / 基尔·默里 Kiel Murray / 鲍勃·彼德森 Bob Peterson / 迈克·里奇 Mike Rich
主  演 欧文·威尔逊 Owen Wilson
       克里斯黛拉·阿朗索 Cristela Alonzo
       克里斯·库珀 Chris Cooper
       内森·菲利安 Nathan Fillion
       王牌接线员拉里 Larry The Cable Guy
       阿米·汉莫 Armie Hammer
       雷·马格利奥齐 Ray Magliozzi
       托尼·夏尔赫布 Tony Shalhoub
       邦尼·亨特 Bonnie Hunt
       丽亚·德拉利亚 Lea DeLaria
       凯丽·华盛顿 Kerry Washington
       鲍勃·科斯塔斯 Bob Costas
       玛格·马丁戴尔 Margo Martindale
       达雷尔·沃尔特里普 Darrell Waltrip
       小伊塞亚·维特洛克 Isiah Whitlock Jr.
       保罗·杜利 Paul Dooley
       凯瑟琳·海蒙德 Katherine Helmond
       切奇·马林 Cheech Marin


标  签 动画 | 迪士尼 | 美国 | 汽车总动员 | 2017 | 赛车 | 喜剧 | 温情

简  介  

  征战沙场多年,闪电麦昆(欧文·威尔逊 Owen Wilson 配音)早已成为经验丰富的老将。对于现在的他来说,比赛更像与老友们的聚会,大家共同享受狂奔带来的乐趣。然而这和谐的一幕很快被残酷的现实打破,以风暴杰克逊(艾米·汉莫 Armie Hammer 配音)为代表的次世代高科技赛车相继步入赛场,他们凭借更加优良的性能与高科技的组装改造将老一代赛车一一淘汰,甚至包括王者麦昆。四个月后,伤愈的麦昆决定复出,而他也被合作多年的赞助商转到了斯特林(内森·菲利安 Nathan Fillion 配音)麾下。接受从内到外的全新改造后,麦昆在教练科鲁兹·拉米雷斯(克里斯黛拉·阿朗索 Cristela Alonzo 配音)的监督下展开训练。然而他面临着一项严峻的考验,如果他不能在接下来的比赛中取得胜利,那么他必须从此退休。
  希望渺茫,不服输的麦昆能否重新取得胜利的荣光……

获奖情况  

  第45届动画安妮奖(2018)
  最佳动画长片(提名)
  最佳动画效果(提名)

  第22届美国艺术指导工会奖(2018)
  电影奖 最佳动画电影艺术指导(提名)

  第16届美国视觉效果协会奖(2018)
  最佳动画电影视觉效果(提名)
  最佳动画电影CG背景(提名)
  最佳动画电影模拟动画效果(提名)

  第54届美国声音效果协会奖(2018)
  动画电影最佳音效(提名)

  第22届金卫星奖(2018)
  电影部门 最佳动画片(提名)
  1. Video
  2. ID                                       : 1
  3. Format                                   : HEVC
  4. Format/Info                              : High Efficiency Video Coding
  5. Format profile                           : Main High@L4@High
  6. Codec ID                                 : V_MPEGH/ISO/HEVC
  7. Duration                                 : 1 h 42 min
  8. Bit rate                                 : 19.1 Mb/s
  9. Width                                    : 3 840 pixels
  10. Height                                   : 1 608 pixels
  11. Display aspect ratio                     : 2.40:1
  12. Frame rate mode                          : Constant
  13. Frame rate                               : 23.976 (24000/1001) FPS
  14. Color space                              : YUV
  15. Chroma subsampling                       : 4:2:0
  16. Bit depth                                : 10 bits
  17. Bits/(Pixel*Frame)                       : 0.129
  18. Stream size                              : 13.6 GiB (65%)
  19. Title                                    : Cars.3.2017.2160p.BluRay.x265.10bit.SDR.DTS-HD.MA.TrueHD.7.1.Atmos-SWTYBLZ
  20. Writing library                          : x265 3.0ed72af837053:[Windows][GCC 8.2.0][64 bit] 10bit
  21. Encoding settings                        : cpuid=1111039 / frame-threads=16 / numa-pools=44,44 / wpp / no-pmode / no-pme / no-psnr / no-ssim / log-level=2 / input-csp=1 / input-res=3840x1608 / interlace=0 / total-frames=147333 / level-idc=51 / high-tier=1 / uhd-bd=0 / ref=3 / no-allow-non-conformance / repeat-headers / annexb / aud / hrd / info / hash=0 / no-temporal-layers / no-open-gop / min-keyint=1 / keyint=24 / gop-lookahead=0 / bframes=6 / b-adapt=2 / b-pyramid / bframe-bias=0 / rc-lookahead=25 / lookahead-slices=4 / scenecut=40 / radl=0 / no-splice / no-intra-refresh / ctu=64 / min-cu-size=8 / no-rect / no-amp / max-tu-size=32 / tu-inter-depth=1 / tu-intra-depth=1 / limit-tu=0 / rdoq-level=0 / dynamic-rd=0.00 / no-ssim-rd / signhide / no-tskip / nr-intra=0 / nr-inter=0 / no-constrained-intra / strong-intra-smoothing / max-merge=2 / limit-refs=3 / no-limit-modes / me=1 / subme=2 / merange=57 / temporal-mvp / weightp / no-weightb / no-analyze-src-pics / deblock=1:1 / no-sao / no-sao-non-deblock / rd=3 / no-early-skip / rskip / no-fast-intra / no-tskip-fast / no-cu-lossless / no-b-intra / no-splitrd-skip / rdpenalty=0 / psy-rd=0.40 / psy-rdoq=0.00 / no-rd-refine / no-lossless / cbqpoffs=0 / crqpoffs=0 / rc=crf / crf=16.0 / qcomp=0.60 / qpstep=4 / stats-write=0 / stats-read=0 / vbv-maxrate=160000 / vbv-bufsize=160000 / vbv-init=0.9 / crf-max=0.0 / crf-min=0.0 / ipratio=1.40 / pbratio=1.30 / aq-mode=1 / aq-strength=0.40 / cutree / zone-count=0 / no-strict-cbr / qg-size=32 / no-rc-grain / qpmax=69 / qpmin=0 / no-const-vbv / sar=1 / overscan=0 / videoformat=5 / range=0 / colorprim=2 / transfer=2 / colormatrix=2 / chromaloc=0 / display-window=0 / max-cll=0,0 / min-luma=0 / max-luma=1023 / log2-max-poc-lsb=8 / vui-timing-info / vui-hrd-info / slices=1 / opt-qp-pps / opt-ref-list-length-pps / no-multi-pass-opt-rps / scenecut-bias=0.05 / no-opt-cu-delta-qp / no-aq-motion / no-hdr / no-hdr-opt / no-dhdr10-opt / no-idr-recovery-sei / analysis-reuse-level=5 / scale-factor=0 / refine-intra=0 / refine-inter=0 / refine-mv=0 / refine-ctu-distortion=0 / no-limit-sao / ctu-info=0 / no-lowpass-dct / refine-analysis-type=0 / copy-pic=1 / max-ausize-factor=1.0 / no-dynamic-refine / no-single-sei / no-hevc-aq / qp-adaptation-range=1.00
  22. Default                                  : Yes
  23. Forced                                   : No

  24. Audio #1
  25. ID                                       : 2
  26. Format                                   : MLP FBA 16-ch
  27. Format/Info                              : Meridian Lossless Packing FBA with 16-channel presentation
  28. Commercial name                          : Dolby TrueHD with Dolby Atmos
  29. Codec ID                                 : A_TRUEHD
  30. Duration                                 : 1 h 42 min
  31. Bit rate mode                            : Variable
  32. Bit rate                                 : 4 896 kb/s
  33. Maximum bit rate                         : 6 966 kb/s
  34. Channel(s)                               : 8 channels
  35. Channel layout                           : L R C LFE Ls Rs Lb Rb
  36. Sampling rate                            : 48.0 kHz
  37. Frame rate                               : 1 200.000 FPS (40 SPF)
  38. Compression mode                         : Lossless
  39. Stream size                              : 3.50 GiB (17%)
  40. Title                                    : Cars.3.2017.2160p.BluRay.x265.10bit.SDR.DTS-HD.MA.TrueHD.7.1.Atmos-SWTYBLZ
  41. Language                                 : English
  42. Default                                  : Yes
  43. Forced                                   : No
  44. Number of dynamic objects                : 13
  45. Bed channel count                        : 1 channel
  46. Bed channel configuration                : LFE

  47. Audio #2
  48. ID                                       : 3
  49. Format                                   : DTS XLL
  50. Format/Info                              : Digital Theater Systems
  51. Commercial name                          : DTS-HD Master Audio
  52. Codec ID                                 : A_DTS
  53. Duration                                 : 1 h 42 min
  54. Bit rate mode                            : Variable
  55. Bit rate                                 : 4 415 kb/s
  56. Channel(s)                               : 8 channels
  57. Channel layout                           : C L R LFE Lb Rb Lss Rss
  58. Sampling rate                            : 48.0 kHz
  59. Frame rate                               : 93.750 FPS (512 SPF)
  60. Bit depth                                : 24 bits
  61. Compression mode                         : Lossless
  62. Stream size                              : 3.16 GiB (15%)
  63. Title                                    : Cars.3.2017.2160p.BluRay.x265.10bit.SDR.DTS-HD.MA.TrueHD.7.1.Atmos-SWTYBLZ
  64. Language                                 : English
  65. Default                                  : No
  66. Forced                                   : No

  67. Audio #3
  68. ID                                       : 4
  69. Format                                   : AC-3
  70. Format/Info                              : Audio Coding 3
  71. Commercial name                          : Dolby Digital
  72. Codec ID                                 : A_AC3
  73. Duration                                 : 1 h 42 min
  74. Bit rate mode                            : Constant
  75. Bit rate                                 : 640 kb/s
  76. Channel(s)                               : 6 channels
  77. Channel layout                           : L R C LFE Ls Rs
  78. Sampling rate                            : 48.0 kHz
  79. Frame rate                               : 31.250 FPS (1536 SPF)
  80. Bit depth                                : 16 bits
  81. Compression mode                         : Lossy
  82. Stream size                              : 469 MiB (2%)
  83. Title                                    : Cars.3.2017.2160p.BluRay.x265.10bit.SDR.DTS-HD.MA.TrueHD.7.1.Atmos-SWTYBLZ
  84. Language                                 : English
  85. Service kind                             : Complete Main
  86. Default                                  : No
  87. Forced                                   : No

  88. Text #1
  89. ID                                       : 5
  90. Format                                   : UTF-8
  91. Codec ID                                 : S_TEXT/UTF8
  92. Codec ID/Info                            : UTF-8 Plain Text
  93. Duration                                 : 1 h 40 min
  94. Bit rate                                 : 81 b/s
  95. Count of elements                        : 1740
  96. Stream size                              : 60.3 KiB (0%)
  97. Title                                    : English-SRT
  98. Language                                 : English
  99. Default                                  : Yes
  100. Forced                                   : No

  101. Text #2
  102. ID                                       : 6
  103. Format                                   : UTF-8
  104. Codec ID                                 : S_TEXT/UTF8
  105. Codec ID/Info                            : UTF-8 Plain Text
  106. Duration                                 : 1 h 40 min
  107. Bit rate                                 : 91 b/s
  108. Count of elements                        : 1929
  109. Stream size                              : 67.4 KiB (0%)
  110. Title                                    : English-SDH-SRT
  111. Language                                 : English
  112. Default                                  : No
  113. Forced                                   : No

  114. Text #3
  115. ID                                       : 7
  116. Format                                   : PGS
  117. Muxing mode                              : zlib
  118. Codec ID                                 : S_HDMV/PGS
  119. Codec ID/Info                            : Picture based subtitle format used on BDs/HD-DVDs
  120. Duration                                 : 1 h 40 min
  121. Bit rate                                 : 57.0 kb/s
  122. Count of elements                        : 3860
  123. Stream size                              : 41.1 MiB (0%)
  124. Title                                    : English-PGS
  125. Language                                 : English
  126. Default                                  : No
  127. Forced                                   : No

  128. Text #4
  129. ID                                       : 8
  130. Format                                   : PGS
  131. Muxing mode                              : zlib
  132. Codec ID                                 : S_HDMV/PGS
  133. Codec ID/Info                            : Picture based subtitle format used on BDs/HD-DVDs
  134. Duration                                 : 1 h 40 min
  135. Bit rate                                 : 48.7 kb/s
  136. Count of elements                        : 2878
  137. Stream size                              : 35.1 MiB (0%)
  138. Title                                    : Spanish-PGS
  139. Language                                 : Spanish
  140. Default                                  : No
  141. Forced                                   : No

  142. Menu
  143. 00:00:00.000                             : en:Chapter 01
  144. 00:04:57.255                             : en:Chapter 02
  145. 00:10:54.904                             : en:Chapter 03
  146. 00:13:59.421                             : en:Chapter 04
  147. 00:18:15.094                             : en:Chapter 05
  148. 00:21:07.641                             : en:Chapter 06
  149. 00:34:08.880                             : en:Chapter 07
  150. 00:37:52.103                             : en:Chapter 08
  151. 00:42:44.812                             : en:Chapter 09
  152. 00:49:44.398                             : en:Chapter 10
  153. 00:53:57.567                             : en:Chapter 11
  154. 00:58:17.494                             : en:Chapter 12
  155. 00:59:27.230                             : en:Chapter 13
  156. 01:02:15.940                             : en:Chapter 14
  157. 01:06:35.533                             : en:Chapter 15
  158. 01:08:33.109                             : en:Chapter 16
  159. 01:15:48.085                             : en:Chapter 17
  160. 01:20:57.769                             : en:Chapter 18
  161. 01:29:42.126                             : en:Chapter 19
  162. 01:32:17.031                             : en:Chapter 20
  163. 01:34:00.092                             : en:Chapter 21
复制代码

赛车总动员3:极速挑战/Cars 3:闪电再起 Cars.3.2017.2160p.BluRay.x265.10bit.SDR.DTS-HD.MA.TrueHD.7.1.Atmos-SWTYBLZ 20.98GB-2.png 赛车总动员3:极速挑战/Cars 3:闪电再起 Cars.3.2017.2160p.BluRay.x265.10bit.SDR.DTS-HD.MA.TrueHD.7.1.Atmos-SWTYBLZ 20.98GB-3.png 12efd15189092.png 赛车总动员3:极速挑战/Cars 3:闪电再起 Cars.3.2017.2160p.BluRay.x265.10bit.SDR.DTS-HD.MA.TrueHD.7.1.Atmos-SWTYBLZ 20.98GB-5.png 赛车总动员3:极速挑战/Cars 3:闪电再起 Cars.3.2017.2160p.BluRay.x265.10bit.SDR.DTS-HD.MA.TrueHD.7.1.Atmos-SWTYBLZ 20.98GB-6.png 赛车总动员3:极速挑战/Cars 3:闪电再起 Cars.3.2017.2160p.BluRay.x265.10bit.SDR.DTS-HD.MA.TrueHD.7.1.Atmos-SWTYBLZ 20.98GB-7.png 赛车总动员3:极速挑战/Cars 3:闪电再起 Cars.3.2017.2160p.BluRay.x265.10bit.SDR.DTS-HD.MA.TrueHD.7.1.Atmos-SWTYBLZ 20.98GB-8.png







回复

使用道具 举报

懒得打字嘛,点击右侧快捷回复 【右侧内容,后台自定义】
您需要登录后才可以回帖 登录 | 立即加入

本版积分规则

现在加入蓝光电影网,注册一个账号

QQ| 手机版|小黑屋| 蓝光电影网 |网站地图 

Copyright © 2015-2019 Comsenz Inc.  Template by 蓝光电影论坛 All Rights Reserved.

Powered by 蓝光电影网 X3.4

特别声明:本站所有资源均由网上收集而来,版权归原影音公司所有,如果侵犯了你的权益,请通知我们,我们会及时删除侵权内容.

快速回复 返回顶部 返回列表