找回密码

蓝光电影网

查看: 139|回复: 2

[REMUX.HEVC] 赛车总动员3:极速挑战/Cars 3:闪电再起 Cars.3.2017.2160p.BluRay.REMUX.HEVC.DTS-HD.MA.TrueHD.7.1.Atmos-FGT 42.26GB

[复制链接]

 成长值: 23245

发表于 2019-10-25 14:01:12 | 显示全部楼层 |阅读模式
赛车总动员3:极速挑战/Cars 3:闪电再起 Cars.3.2017.2160p.BluRay.REMUX.HEVC.DTS-HD.MA.TrueHD.7.1.Atmos-FGT 42.26GB-1.png

译  名 赛车总动员3:极速挑战 / Cars 3:闪电再起(台) / 反斗车王3(港) / 小汽车的故事3 / 汽车总动员3 / 赛车总动员3 / 飞车正传3
片  名 Cars 3
年  代 2017
产  地 美国
类  别 喜剧 / 动画 / 冒险
语  言 英语
上映日期 2017-06-16(美国) / 2017-08-25(中国大陆)
IMDb评分  6.7/10 from 63226 users
IMDb链接  https://www.imdb.com/title/tt3606752
豆瓣评分 7.0/10 from 30383 users
豆瓣链接 https://movie.douban.com/subject/25849480/
片  长 102分钟
导  演 布莱恩·飞 Brian Fee
编  剧 布莱恩·飞 Brian Fee / 本·奎因 Ben Queen / 伊尔·波戴尔 Eyal Podell / 乔纳森·E·斯图尔特 Jonathon E. Stewart / 基尔·默里 Kiel Murray / 鲍勃·彼德森 Bob Peterson / 迈克·里奇 Mike Rich
主  演 欧文·威尔逊 Owen Wilson
       克里斯黛拉·阿朗索 Cristela Alonzo
       克里斯·库珀 Chris Cooper
       内森·菲利安 Nathan Fillion
       王牌接线员拉里 Larry The Cable Guy
       阿米·汉莫 Armie Hammer
       雷·马格利奥齐 Ray Magliozzi
       托尼·夏尔赫布 Tony Shalhoub
       邦尼·亨特 Bonnie Hunt
       丽亚·德拉利亚 Lea DeLaria
       凯丽·华盛顿 Kerry Washington
       鲍勃·科斯塔斯 Bob Costas
       玛格·马丁戴尔 Margo Martindale
       达雷尔·沃尔特里普 Darrell Waltrip
       小伊塞亚·维特洛克 Isiah Whitlock Jr.
       保罗·杜利 Paul Dooley
       凯瑟琳·海蒙德 Katherine Helmond
       切奇·马林 Cheech Marin


标  签 动画 | 迪士尼 | 美国 | 汽车总动员 | 2017 | 赛车 | 喜剧 | 温情

简  介  

  征战沙场多年,闪电麦昆(欧文·威尔逊 Owen Wilson 配音)早已成为经验丰富的老将。对于现在的他来说,比赛更像与老友们的聚会,大家共同享受狂奔带来的乐趣。然而这和谐的一幕很快被残酷的现实打破,以风暴杰克逊(艾米·汉莫 Armie Hammer 配音)为代表的次世代高科技赛车相继步入赛场,他们凭借更加优良的性能与高科技的组装改造将老一代赛车一一淘汰,甚至包括王者麦昆。四个月后,伤愈的麦昆决定复出,而他也被合作多年的赞助商转到了斯特林(内森·菲利安 Nathan Fillion 配音)麾下。接受从内到外的全新改造后,麦昆在教练科鲁兹·拉米雷斯(克里斯黛拉·阿朗索 Cristela Alonzo 配音)的监督下展开训练。然而他面临着一项严峻的考验,如果他不能在接下来的比赛中取得胜利,那么他必须从此退休。
  希望渺茫,不服输的麦昆能否重新取得胜利的荣光……

获奖情况  

  第45届动画安妮奖(2018)
  最佳动画长片(提名)
  最佳动画效果(提名)

  第22届美国艺术指导工会奖(2018)
  电影奖 最佳动画电影艺术指导(提名)

  第16届美国视觉效果协会奖(2018)
  最佳动画电影视觉效果(提名)
  最佳动画电影CG背景(提名)
  最佳动画电影模拟动画效果(提名)

  第54届美国声音效果协会奖(2018)
  动画电影最佳音效(提名)

  第22届金卫星奖(2018)
  电影部门 最佳动画片(提名)
  1. Video
  2. ID                                       : 1
  3. Format                                   : HEVC
  4. Format/Info                              : High Efficiency Video Coding
  5. Format profile                           : Main High@L4@High
  6. HDR format                               : SMPTE ST 2086, HDR10 compatible
  7. Codec ID                                 : V_MPEGH/ISO/HEVC
  8. Duration                                 : 1 h 42 min
  9. Bit rate                                 : 44.5 Mb/s
  10. Width                                    : 3 840 pixels
  11. Height                                   : 2 160 pixels
  12. Display aspect ratio                     : 16:9
  13. Frame rate mode                          : Constant
  14. Frame rate                               : 23.976 (24000/1001) FPS
  15. Color space                              : YUV
  16. Chroma subsampling                       : 4:2:0 (Type 2)
  17. Bit depth                                : 10 bits
  18. Bits/(Pixel*Frame)                       : 0.224
  19. Stream size                              : 31.9 GiB (75%)
  20. Title                                    : Cars.3.2017.2160p.BluRay.REMUX.HEVC.DTS-HD.MA.TrueHD.7.1.Atmos-FGT
  21. Writing library                          : ATEME Titan File 3.8.3 (4.8.3.0)        
  22. Language                                 : English
  23. Default                                  : No
  24. Forced                                   : No
  25. Color range                              : Limited
  26. Color primaries                          : BT.2020
  27. Transfer characteristics                 : PQ
  28. Matrix coefficients                      : BT.2020 non-constant
  29. Mastering display color primaries        : Display P3
  30. Mastering display luminance              : min: 0.0000 cd/m2, max: 1000 cd/m2

  31. Audio #1
  32. ID                                       : 2
  33. Format                                   : MLP FBA 16-ch
  34. Format/Info                              : Meridian Lossless Packing FBA with 16-channel presentation
  35. Commercial name                          : Dolby TrueHD with Dolby Atmos
  36. Codec ID                                 : A_TRUEHD
  37. Duration                                 : 1 h 42 min
  38. Bit rate mode                            : Variable
  39. Bit rate                                 : 4 896 kb/s
  40. Maximum bit rate                         : 6 966 kb/s
  41. Channel(s)                               : 8 channels
  42. Channel layout                           : L R C LFE Ls Rs Lb Rb
  43. Sampling rate                            : 48.0 kHz
  44. Frame rate                               : 1 200.000 FPS (40 SPF)
  45. Compression mode                         : Lossless
  46. Stream size                              : 3.50 GiB (8%)
  47. Title                                    : Cars.3.2017.2160p.BluRay.REMUX.HEVC.DTS-HD.MA.TrueHD.7.1.Atmos-FGT
  48. Language                                 : English
  49. Default                                  : Yes
  50. Forced                                   : No
  51. Number of dynamic objects                : 13
  52. Bed channel count                        : 1 channel
  53. Bed channel configuration                : LFE

  54. Audio #2
  55. ID                                       : 3
  56. Format                                   : DTS XLL
  57. Format/Info                              : Digital Theater Systems
  58. Commercial name                          : DTS-HD Master Audio
  59. Codec ID                                 : A_DTS
  60. Duration                                 : 1 h 42 min
  61. Bit rate mode                            : Variable
  62. Bit rate                                 : 4 415 kb/s
  63. Channel(s)                               : 8 channels
  64. Channel layout                           : C L R LFE Lb Rb Lss Rss
  65. Sampling rate                            : 48.0 kHz
  66. Frame rate                               : 93.750 FPS (512 SPF)
  67. Bit depth                                : 24 bits
  68. Compression mode                         : Lossless
  69. Stream size                              : 3.16 GiB (7%)
  70. Title                                    : Cars.3.2017.2160p.BluRay.REMUX.HEVC.DTS-HD.MA.TrueHD.7.1.Atmos-FGT
  71. Language                                 : English
  72. Default                                  : No
  73. Forced                                   : No

  74. Audio #3
  75. ID                                       : 4
  76. Format                                   : AC-3
  77. Format/Info                              : Audio Coding 3
  78. Commercial name                          : Dolby Digital
  79. Codec ID                                 : A_AC3
  80. Duration                                 : 1 h 42 min
  81. Bit rate mode                            : Constant
  82. Bit rate                                 : 640 kb/s
  83. Channel(s)                               : 6 channels
  84. Channel layout                           : L R C LFE Ls Rs
  85. Sampling rate                            : 48.0 kHz
  86. Frame rate                               : 31.250 FPS (1536 SPF)
  87. Bit depth                                : 16 bits
  88. Compression mode                         : Lossy
  89. Stream size                              : 469 MiB (1%)
  90. Title                                    : Cars.3.2017.2160p.BluRay.REMUX.HEVC.DTS-HD.MA.TrueHD.7.1.Atmos-FGT
  91. Language                                 : English
  92. Service kind                             : Complete Main
  93. Default                                  : No
  94. Forced                                   : No

  95. Audio #4
  96. ID                                       : 5
  97. Format                                   : E-AC-3
  98. Format/Info                              : Enhanced AC-3
  99. Commercial name                          : Dolby Digital Plus
  100. Format profile                           : Blu-ray Disc
  101. Codec ID                                 : A_EAC3
  102. Duration                                 : 1 h 42 min
  103. Bit rate mode                            : Constant
  104. Bit rate                                 : 1 024 kb/s
  105. Channel(s)                               : 8 channels
  106. Channel layout                           : L R C LFE Ls Rs Lb Rb
  107. Sampling rate                            : 48.0 kHz
  108. Frame rate                               : 31.250 FPS (1536 SPF)
  109. Compression mode                         : Lossy
  110. Stream size                              : 750 MiB (2%)
  111. Title                                    : Cars.3.2017.2160p.BluRay.REMUX.HEVC.DTS-HD.MA.TrueHD.7.1.Atmos-FGT
  112. Language                                 : English
  113. Service kind                             : Complete Main
  114. Default                                  : No
  115. Forced                                   : No

  116. Audio #5
  117. ID                                       : 6
  118. Format                                   : AC-3
  119. Format/Info                              : Audio Coding 3
  120. Commercial name                          : Dolby Digital
  121. Codec ID                                 : A_AC3
  122. Duration                                 : 1 h 42 min
  123. Bit rate mode                            : Constant
  124. Bit rate                                 : 576 kb/s
  125. Channel(s)                               : 6 channels
  126. Channel layout                           : L R C LFE Ls Rs
  127. Sampling rate                            : 48.0 kHz
  128. Frame rate                               : 31.250 FPS (1536 SPF)
  129. Bit depth                                : 16 bits
  130. Compression mode                         : Lossy
  131. Stream size                              : 422 MiB (1%)
  132. Title                                    : Cars.3.2017.2160p.BluRay.REMUX.HEVC.DTS-HD.MA.TrueHD.7.1.Atmos-FGT
  133. Language                                 : English
  134. Service kind                             : Complete Main
  135. Default                                  : No
  136. Forced                                   : No

  137. Audio #6
  138. ID                                       : 7
  139. Format                                   : AC-3
  140. Format/Info                              : Audio Coding 3
  141. Commercial name                          : Dolby Digital
  142. Codec ID                                 : A_AC3
  143. Duration                                 : 1 h 42 min
  144. Bit rate mode                            : Constant
  145. Bit rate                                 : 640 kb/s
  146. Channel(s)                               : 6 channels
  147. Channel layout                           : L R C LFE Ls Rs
  148. Sampling rate                            : 48.0 kHz
  149. Frame rate                               : 31.250 FPS (1536 SPF)
  150. Bit depth                                : 16 bits
  151. Compression mode                         : Lossy
  152. Stream size                              : 469 MiB (1%)
  153. Title                                    : Cars.3.2017.2160p.BluRay.REMUX.HEVC.DTS-HD.MA.TrueHD.7.1.Atmos-FGT
  154. Language                                 : English
  155. Service kind                             : Complete Main
  156. Default                                  : No
  157. Forced                                   : No

  158. Audio #7
  159. ID                                       : 8
  160. Format                                   : AC-3
  161. Format/Info                              : Audio Coding 3
  162. Commercial name                          : Dolby Digital
  163. Codec ID                                 : A_AC3
  164. Duration                                 : 1 h 42 min
  165. Bit rate mode                            : Constant
  166. Bit rate                                 : 320 kb/s
  167. Channel(s)                               : 2 channels
  168. Channel layout                           : L R
  169. Sampling rate                            : 48.0 kHz
  170. Frame rate                               : 31.250 FPS (1536 SPF)
  171. Bit depth                                : 16 bits
  172. Compression mode                         : Lossy
  173. Stream size                              : 234 MiB (1%)
  174. Title                                    : Cars.3.2017.2160p.BluRay.REMUX.HEVC.DTS-HD.MA.TrueHD.7.1.Atmos-FGT
  175. Language                                 : English
  176. Service kind                             : Complete Main
  177. Default                                  : No
  178. Forced                                   : No

  179. Audio #8
  180. ID                                       : 9
  181. Format                                   : AC-3
  182. Format/Info                              : Audio Coding 3
  183. Commercial name                          : Dolby Digital
  184. Codec ID                                 : A_AC3
  185. Duration                                 : 1 h 42 min
  186. Bit rate mode                            : Constant
  187. Bit rate                                 : 320 kb/s
  188. Channel(s)                               : 2 channels
  189. Channel layout                           : L R
  190. Sampling rate                            : 48.0 kHz
  191. Frame rate                               : 31.250 FPS (1536 SPF)
  192. Bit depth                                : 16 bits
  193. Compression mode                         : Lossy
  194. Stream size                              : 234 MiB (1%)
  195. Title                                    : Cars.3.2017.2160p.BluRay.REMUX.HEVC.DTS-HD.MA.TrueHD.7.1.Atmos-FGT
  196. Language                                 : English
  197. Service kind                             : Complete Main
  198. Default                                  : No
  199. Forced                                   : No

  200. Audio #9
  201. ID                                       : 10
  202. Format                                   : E-AC-3
  203. Format/Info                              : Enhanced AC-3
  204. Commercial name                          : Dolby Digital Plus
  205. Format profile                           : Blu-ray Disc
  206. Codec ID                                 : A_EAC3
  207. Duration                                 : 1 h 42 min
  208. Bit rate mode                            : Constant
  209. Bit rate                                 : 1 024 kb/s
  210. Channel(s)                               : 8 channels
  211. Channel layout                           : L R C LFE Ls Rs Lb Rb
  212. Sampling rate                            : 48.0 kHz
  213. Frame rate                               : 31.250 FPS (1536 SPF)
  214. Compression mode                         : Lossy
  215. Stream size                              : 750 MiB (2%)
  216. Title                                    : Cars.3.2017.2160p.BluRay.REMUX.HEVC.DTS-HD.MA.TrueHD.7.1.Atmos-FGT
  217. Language                                 : Spanish
  218. Service kind                             : Complete Main
  219. Default                                  : No
  220. Forced                                   : No

  221. Audio #10
  222. ID                                       : 11
  223. Format                                   : AC-3
  224. Format/Info                              : Audio Coding 3
  225. Commercial name                          : Dolby Digital
  226. Codec ID                                 : A_AC3
  227. Duration                                 : 1 h 42 min
  228. Bit rate mode                            : Constant
  229. Bit rate                                 : 576 kb/s
  230. Channel(s)                               : 6 channels
  231. Channel layout                           : L R C LFE Ls Rs
  232. Sampling rate                            : 48.0 kHz
  233. Frame rate                               : 31.250 FPS (1536 SPF)
  234. Bit depth                                : 16 bits
  235. Compression mode                         : Lossy
  236. Stream size                              : 422 MiB (1%)
  237. Title                                    : Cars.3.2017.2160p.BluRay.REMUX.HEVC.DTS-HD.MA.TrueHD.7.1.Atmos-FGT
  238. Language                                 : Spanish
  239. Service kind                             : Complete Main
  240. Default                                  : No
  241. Forced                                   : No

  242. Text #1
  243. ID                                       : 12
  244. Format                                   : UTF-8
  245. Codec ID                                 : S_TEXT/UTF8
  246. Codec ID/Info                            : UTF-8 Plain Text
  247. Duration                                 : 1 h 40 min
  248. Bit rate                                 : 81 b/s
  249. Count of elements                        : 1740
  250. Stream size                              : 60.3 KiB (0%)
  251. Title                                    : English-SRT
  252. Language                                 : English
  253. Default                                  : Yes
  254. Forced                                   : No

  255. Text #2
  256. ID                                       : 13
  257. Format                                   : UTF-8
  258. Codec ID                                 : S_TEXT/UTF8
  259. Codec ID/Info                            : UTF-8 Plain Text
  260. Duration                                 : 1 h 40 min
  261. Bit rate                                 : 91 b/s
  262. Count of elements                        : 1929
  263. Stream size                              : 67.4 KiB (0%)
  264. Title                                    : English-SDH-SRT
  265. Language                                 : English
  266. Default                                  : No
  267. Forced                                   : No

  268. Text #3
  269. ID                                       : 14
  270. Format                                   : PGS
  271. Muxing mode                              : zlib
  272. Codec ID                                 : S_HDMV/PGS
  273. Codec ID/Info                            : Picture based subtitle format used on BDs/HD-DVDs
  274. Duration                                 : 1 h 40 min
  275. Bit rate                                 : 57.0 kb/s
  276. Count of elements                        : 3860
  277. Stream size                              : 41.1 MiB (0%)
  278. Title                                    : English-PGS
  279. Language                                 : English
  280. Default                                  : No
  281. Forced                                   : No

  282. Text #4
  283. ID                                       : 15
  284. Format                                   : PGS
  285. Muxing mode                              : zlib
  286. Codec ID                                 : S_HDMV/PGS
  287. Codec ID/Info                            : Picture based subtitle format used on BDs/HD-DVDs
  288. Duration                                 : 1 h 40 min
  289. Bit rate                                 : 48.7 kb/s
  290. Count of elements                        : 2878
  291. Stream size                              : 35.1 MiB (0%)
  292. Title                                    : Spanish-PGS
  293. Language                                 : Spanish
  294. Default                                  : No
  295. Forced                                   : No

  296. Menu
  297. 00:00:00.000                             : en:Chapter 01
  298. 00:04:57.255                             : en:Chapter 02
  299. 00:10:54.904                             : en:Chapter 03
  300. 00:13:59.421                             : en:Chapter 04
  301. 00:18:15.094                             : en:Chapter 05
  302. 00:21:07.641                             : en:Chapter 06
  303. 00:34:08.880                             : en:Chapter 07
  304. 00:37:52.103                             : en:Chapter 08
  305. 00:42:44.812                             : en:Chapter 09
  306. 00:49:44.398                             : en:Chapter 10
  307. 00:53:57.567                             : en:Chapter 11
  308. 00:58:17.494                             : en:Chapter 12
  309. 00:59:27.230                             : en:Chapter 13
  310. 01:02:15.940                             : en:Chapter 14
  311. 01:06:35.533                             : en:Chapter 15
  312. 01:08:33.109                             : en:Chapter 16
  313. 01:15:48.085                             : en:Chapter 17
  314. 01:20:57.769                             : en:Chapter 18
  315. 01:29:42.126                             : en:Chapter 19
  316. 01:32:17.031                             : en:Chapter 20
  317. 01:34:00.092                             : en:Chapter 21
复制代码

赛车总动员3:极速挑战/Cars 3:闪电再起 Cars.3.2017.2160p.BluRay.REMUX.HEVC.DTS-HD.MA.TrueHD.7.1.Atmos-FGT 42.26GB-2.png 赛车总动员3:极速挑战/Cars 3:闪电再起 Cars.3.2017.2160p.BluRay.REMUX.HEVC.DTS-HD.MA.TrueHD.7.1.Atmos-FGT 42.26GB-3.png 赛车总动员3:极速挑战/Cars 3:闪电再起 Cars.3.2017.2160p.BluRay.REMUX.HEVC.DTS-HD.MA.TrueHD.7.1.Atmos-FGT 42.26GB-4.png







回复

使用道具 举报

发表于 2019-10-25 14:22:35 | 显示全部楼层
谢谢楼主分享
回复 支持 反对

使用道具 举报

 成长值: 1030

发表于 2019-10-28 11:52:41 | 显示全部楼层
谢谢楼主无私分享。
回复 支持 反对

使用道具 举报

懒得打字嘛,点击右侧快捷回复 【右侧内容,后台自定义】
您需要登录后才可以回帖 登录 | 立即加入

本版积分规则

现在加入蓝光电影网,注册一个账号

QQ| 手机版|小黑屋| 蓝光电影网 |网站地图 

Copyright © 2015-2019 Comsenz Inc.  Template by 蓝光电影论坛 All Rights Reserved.

Powered by 蓝光电影网 X3.4

特别声明:本站所有资源均由网上收集而来,版权归原影音公司所有,如果侵犯了你的权益,请通知我们,我们会及时删除侵权内容.

快速回复 返回顶部 返回列表