找回密码

蓝光电影网

查看: 312|回复: 7

[10bit.SDR] 霹雳娇娃/查理的天使 Charlies.Angels.2000.2160p.BluRay.x265.10bit.SDR.DTS-HD.MA.TrueHD.7.1.Atmos-SWTYBLZ 36.72GB

[复制链接]

 成长值: 23155

发表于 2019-10-24 23:21:01 | 显示全部楼层 |阅读模式
霹雳娇娃/查理的天使 Charlies.Angels.2000.2160p.BluRay.x265.10bit.SDR.DTS-HD.MA.TrueHD.7.1.Atmos-SWTYBLZ 36.72GB-1.png

译  名 霹雳娇娃 / 查理的天使 / 神探俏娇娃 / 霹雳天使
片  名 Charlie's Angels
年  代 2000
产  地 美国 / 德国
类  别 喜剧 / 动作 / 惊悚 / 犯罪 / 冒险
语  言 英语
上映日期 2000-11-03(美国) / 2001-02-13(中国大陆)
IMDb评分  5.5/10 from 165924 users
IMDb链接  https://www.imdb.com/title/tt0160127
豆瓣评分 6.8/10 from 63491 users
豆瓣链接 https://movie.douban.com/subject/1293258/
片  长 98 分钟
导  演 McG
编  剧 Ryan Rowe / Ed Solomon / John August
主  演 卡梅隆·迪亚兹 Cameron Diaz
       德鲁·巴里摩尔 Drew Barrymore
       刘玉玲 Lucy Liu
       比尔·默瑞 Bill Murray
       山姆·洛克威尔 Sam Rockwell
       凯莉·林奇 Kelly Lynch
       蒂姆·克里 Tim Curry
       克里斯平·格洛弗 Crispin Glover
       马特·勒布朗 Matt LeBlanc
       LL Cool J
       汤姆·格林 Tom Green
       卢克·威尔逊 Luke Wilson
       西恩·瓦兰 Sean Whalen
       亚历克斯·崔贝克 Alex Trebek
       Raliegh Wilson
       马克·瑞安 Mark Ryan
       Bobby Ore
       乔·杜尔 Joe Duer
       Reginald C. Hayes
       梅丽莎·麦卡西 Melissa McCarthy
       鲍勃·斯蒂芬森 Bob Stephenson
       耐德·巴拉米 Ned Bellamy
       Raymond Patterson
       Michael Barryte
       安德鲁·威尔逊 Andrew Wilson
       Branden Williams
       Diesel Pfingsten
       凯文·格雷维奥斯 Kevin Grevioux
       迈克尔·帕帕约翰 Michael Papajohn
       吉姆·帕尔默 Jim Palmer
       Shawn Woods
       小伊萨克·C.辛格尔顿 Isaac C. Singleton Jr.
       Paul Eliopoulos
       Tim Gilbert
       Al Goto
       Steven Ito
       费利佩·萨瓦赫奇 Felipe Savahge
       迈克·史密斯 Mike Smith
       杰瑞·特林伯 Jerry Trimble
       约翰·福赛思 John Forsythe
       Ivana Bozilovic
       佩姬·布鲁克斯 Paige Brooks
       Jennifer Cole
       艾菲恩·克洛科特 Affion Crockett
       凯伦·麦克道戈 Karen McDougal
       Paul Oliver
       Heather Elizabeth Parkhurst
       凯文·亚历山大·斯蒂亚 Kevin Alexander Stea
       苏西·斯蒂恩 Suzie Steen
       托尼·斯蒂夫阿诺 Tony Stef'Ano
       袁祥仁 Cheung-Yan Yuen


标  签 动作 | 美国 | 喜剧 | 美国电影 | 霹雳娇娃 | 2000 | 电影 | CameronDiaz

简  介  

  查理先生手下有三名女打手,她们才貌双全拥有一身好功夫,专门接受查理先生的命令为他人伸张正义。她们分别是:娜塔莉(卡梅伦?迪亚兹 饰)、戴兰(茱莉?巴里摩尔 饰)与艾利克斯(刘玉玲 饰)。
  她们最近接受了一个任务:艾瑞克?克诺斯(萨姆?罗克韦尔 饰)先生设计了一款高科技的声音辨别系统。艾瑞克却不幸被绑架了,这三名“天使”需要从不法分子手中拯救艾瑞克。因为这套由艾瑞克设计的高科技系统,一旦被不法分子利用的话后果堪虞。
  三位“天使”得知情况后,很快联想到了艾瑞克公司的对手,该负责人罗格成为了最大的嫌疑。三人于是日夜调查罗格的行踪,也掌握了重要的线索。正在她们有把握拯救艾瑞克的时候,一通电话打破了她们三人的全盘计划。
  1. Video
  2. ID                                       : 1
  3. Format                                   : HEVC
  4. Format/Info                              : High Efficiency Video Coding
  5. Format profile                           : Main High@L4@High
  6. Codec ID                                 : V_MPEGH/ISO/HEVC
  7. Duration                                 : 1 h 38 min
  8. Bit rate                                 : 44.1 Mb/s
  9. Width                                    : 3 840 pixels
  10. Height                                   : 1 600 pixels
  11. Display aspect ratio                     : 2.40:1
  12. Frame rate mode                          : Constant
  13. Frame rate                               : 23.976 (24000/1001) FPS
  14. Color space                              : YUV
  15. Chroma subsampling                       : 4:2:0
  16. Bit depth                                : 10 bits
  17. Bits/(Pixel*Frame)                       : 0.299
  18. Stream size                              : 30.3 GiB (83%)
  19. Title                                    : Charlies.Angels.2000.2160p.BluRay.x265.10bit.SDR.DTS-HD.MA.TrueHD.7.1.Atmos-SWTYBLZ
  20. Writing library                          : x265 3.0ed72af837053:[Windows][GCC 8.2.0][64 bit] 10bit
  21. Encoding settings                        : cpuid=1111039 / frame-threads=16 / numa-pools=44,44 / wpp / no-pmode / no-pme / no-psnr / no-ssim / log-level=2 / input-csp=1 / input-res=3840x1600 / interlace=0 / total-frames=141552 / level-idc=51 / high-tier=1 / uhd-bd=0 / ref=3 / no-allow-non-conformance / repeat-headers / annexb / aud / hrd / info / hash=0 / no-temporal-layers / no-open-gop / min-keyint=1 / keyint=24 / gop-lookahead=0 / bframes=4 / b-adapt=2 / b-pyramid / bframe-bias=0 / rc-lookahead=25 / lookahead-slices=4 / scenecut=40 / radl=0 / no-splice / no-intra-refresh / ctu=64 / min-cu-size=8 / no-rect / no-amp / max-tu-size=32 / tu-inter-depth=1 / tu-intra-depth=1 / limit-tu=0 / rdoq-level=0 / dynamic-rd=0.00 / no-ssim-rd / signhide / no-tskip / nr-intra=0 / nr-inter=0 / no-constrained-intra / strong-intra-smoothing / max-merge=2 / limit-refs=3 / no-limit-modes / me=1 / subme=2 / merange=57 / temporal-mvp / weightp / no-weightb / no-analyze-src-pics / deblock=0:0 / no-sao / no-sao-non-deblock / rd=3 / no-early-skip / rskip / no-fast-intra / no-tskip-fast / no-cu-lossless / no-b-intra / no-splitrd-skip / rdpenalty=0 / psy-rd=2.00 / psy-rdoq=0.00 / no-rd-refine / no-lossless / cbqpoffs=0 / crqpoffs=0 / rc=crf / crf=18.0 / qcomp=0.60 / qpstep=4 / stats-write=0 / stats-read=0 / vbv-maxrate=160000 / vbv-bufsize=160000 / vbv-init=0.9 / crf-max=0.0 / crf-min=0.0 / ipratio=1.40 / pbratio=1.30 / aq-mode=1 / aq-strength=1.00 / cutree / zone-count=0 / no-strict-cbr / qg-size=32 / no-rc-grain / qpmax=69 / qpmin=0 / no-const-vbv / sar=1 / overscan=0 / videoformat=5 / range=0 / colorprim=2 / transfer=2 / colormatrix=2 / chromaloc=0 / display-window=0 / max-cll=0,0 / min-luma=0 / max-luma=1023 / log2-max-poc-lsb=8 / vui-timing-info / vui-hrd-info / slices=1 / opt-qp-pps / opt-ref-list-length-pps / no-multi-pass-opt-rps / scenecut-bias=0.05 / no-opt-cu-delta-qp / no-aq-motion / no-hdr / no-hdr-opt / no-dhdr10-opt / no-idr-recovery-sei / analysis-reuse-level=5 / scale-factor=0 / refine-intra=0 / refine-inter=0 / refine-mv=0 / refine-ctu-distortion=0 / no-limit-sao / ctu-info=0 / no-lowpass-dct / refine-analysis-type=0 / copy-pic=1 / max-ausize-factor=1.0 / no-dynamic-refine / no-single-sei / no-hevc-aq / qp-adaptation-range=1.00
  22. Language                                 : English
  23. Default                                  : Yes
  24. Forced                                   : No

  25. Audio #1
  26. ID                                       : 2
  27. Format                                   : MLP FBA 16-ch
  28. Format/Info                              : Meridian Lossless Packing FBA with 16-channel presentation
  29. Commercial name                          : Dolby TrueHD with Dolby Atmos
  30. Codec ID                                 : A_TRUEHD
  31. Duration                                 : 1 h 38 min
  32. Bit rate mode                            : Variable
  33. Bit rate                                 : 3 655 kb/s
  34. Maximum bit rate                         : 6 054 kb/s
  35. Channel(s)                               : 8 channels
  36. Channel layout                           : L R C LFE Ls Rs Lb Rb
  37. Sampling rate                            : 48.0 kHz
  38. Frame rate                               : 1 200.000 FPS (40 SPF)
  39. Compression mode                         : Lossless
  40. Stream size                              : 2.51 GiB (7%)
  41. Title                                    : Charlies.Angels.2000.2160p.BluRay.x265.10bit.SDR.DTS-HD.MA.TrueHD.7.1.Atmos-SWTYBLZ
  42. Language                                 : English
  43. Default                                  : Yes
  44. Forced                                   : No
  45. Number of dynamic objects                : 11
  46. Bed channel count                        : 1 channel
  47. Bed channel configuration                : LFE

  48. Audio #2
  49. ID                                       : 3
  50. Format                                   : DTS XLL
  51. Format/Info                              : Digital Theater Systems
  52. Commercial name                          : DTS-HD Master Audio
  53. Codec ID                                 : A_DTS
  54. Duration                                 : 1 h 38 min
  55. Bit rate mode                            : Variable
  56. Bit rate                                 : 4 385 kb/s
  57. Channel(s)                               : 8 channels
  58. Channel layout                           : C L R LFE Lb Rb Lss Rss
  59. Sampling rate                            : 48.0 kHz
  60. Frame rate                               : 93.750 FPS (512 SPF)
  61. Bit depth                                : 24 bits
  62. Compression mode                         : Lossless
  63. Stream size                              : 3.01 GiB (8%)
  64. Title                                    : Charlies.Angels.2000.2160p.BluRay.x265.10bit.SDR.DTS-HD.MA.TrueHD.7.1.Atmos-SWTYBLZ
  65. Language                                 : English
  66. Default                                  : No
  67. Forced                                   : No

  68. Audio #3
  69. ID                                       : 4
  70. Format                                   : AC-3
  71. Format/Info                              : Audio Coding 3
  72. Commercial name                          : Dolby Digital
  73. Codec ID                                 : A_AC3
  74. Duration                                 : 1 h 38 min
  75. Bit rate mode                            : Constant
  76. Bit rate                                 : 640 kb/s
  77. Channel(s)                               : 6 channels
  78. Channel layout                           : L R C LFE Ls Rs
  79. Sampling rate                            : 48.0 kHz
  80. Frame rate                               : 31.250 FPS (1536 SPF)
  81. Bit depth                                : 16 bits
  82. Compression mode                         : Lossy
  83. Stream size                              : 450 MiB (1%)
  84. Title                                    : Charlies.Angels.2000.2160p.BluRay.x265.10bit.SDR.DTS-HD.MA.TrueHD.7.1.Atmos-SWTYBLZ
  85. Language                                 : English
  86. Service kind                             : Complete Main
  87. Default                                  : No
  88. Forced                                   : No

  89. Text #1
  90. ID                                       : 5
  91. Format                                   : UTF-8
  92. Codec ID                                 : S_TEXT/UTF8
  93. Codec ID/Info                            : UTF-8 Plain Text
  94. Duration                                 : 11 s 511 ms
  95. Bit rate                                 : 97 b/s
  96. Count of elements                        : 4
  97. Stream size                              : 141 Bytes (0%)
  98. Title                                    : English-FORCED-SRT
  99. Language                                 : English
  100. Default                                  : Yes
  101. Forced                                   : Yes

  102. Text #2
  103. ID                                       : 6
  104. Format                                   : UTF-8
  105. Codec ID                                 : S_TEXT/UTF8
  106. Codec ID/Info                            : UTF-8 Plain Text
  107. Duration                                 : 1 h 37 min
  108. Bit rate                                 : 54 b/s
  109. Count of elements                        : 1197
  110. Stream size                              : 38.9 KiB (0%)
  111. Title                                    : English-SRT
  112. Language                                 : English
  113. Default                                  : No
  114. Forced                                   : No

  115. Text #3
  116. ID                                       : 7
  117. Format                                   : UTF-8
  118. Codec ID                                 : S_TEXT/UTF8
  119. Codec ID/Info                            : UTF-8 Plain Text
  120. Duration                                 : 1 h 37 min
  121. Bit rate                                 : 60 b/s
  122. Count of elements                        : 1365
  123. Stream size                              : 43.6 KiB (0%)
  124. Title                                    : English-SDH-SRT
  125. Language                                 : English
  126. Default                                  : No
  127. Forced                                   : No

  128. Text #4
  129. ID                                       : 8
  130. Format                                   : PGS
  131. Muxing mode                              : zlib
  132. Codec ID                                 : S_HDMV/PGS
  133. Codec ID/Info                            : Picture based subtitle format used on BDs/HD-DVDs
  134. Duration                                 : 1 h 37 min
  135. Bit rate                                 : 33.7 kb/s
  136. Count of elements                        : 2732
  137. Stream size                              : 23.6 MiB (0%)
  138. Title                                    : English-SDH-PGS
  139. Language                                 : English
  140. Default                                  : No
  141. Forced                                   : No

  142. Text #5
  143. ID                                       : 9
  144. Format                                   : PGS
  145. Muxing mode                              : zlib
  146. Codec ID                                 : S_HDMV/PGS
  147. Codec ID/Info                            : Picture based subtitle format used on BDs/HD-DVDs
  148. Duration                                 : 1 h 31 min
  149. Bit rate                                 : 24.3 kb/s
  150. Count of elements                        : 1835
  151. Stream size                              : 16.0 MiB (0%)
  152. Title                                    : English-PGS
  153. Language                                 : English
  154. Default                                  : No
  155. Forced                                   : No

  156. Text #6
  157. ID                                       : 10
  158. Format                                   : PGS
  159. Muxing mode                              : zlib
  160. Codec ID                                 : S_HDMV/PGS
  161. Codec ID/Info                            : Picture based subtitle format used on BDs/HD-DVDs
  162. Duration                                 : 11 s 512 ms
  163. Bit rate                                 : 57.1 kb/s
  164. Count of elements                        : 8
  165. Stream size                              : 80.2 KiB (0%)
  166. Title                                    : English-FORCED-PGS
  167. Language                                 : English
  168. Default                                  : No
  169. Forced                                   : No

  170. Text #7
  171. ID                                       : 11
  172. Format                                   : PGS
  173. Muxing mode                              : zlib
  174. Codec ID                                 : S_HDMV/PGS
  175. Codec ID/Info                            : Picture based subtitle format used on BDs/HD-DVDs
  176. Duration                                 : 1 h 37 min
  177. Bit rate                                 : 33.7 kb/s
  178. Count of elements                        : 2732
  179. Stream size                              : 23.6 MiB (0%)
  180. Title                                    : English-SDH-PGS
  181. Language                                 : English
  182. Default                                  : No
  183. Forced                                   : No

  184. Text #8
  185. ID                                       : 12
  186. Format                                   : PGS
  187. Muxing mode                              : zlib
  188. Codec ID                                 : S_HDMV/PGS
  189. Codec ID/Info                            : Picture based subtitle format used on BDs/HD-DVDs
  190. Duration                                 : 1 h 31 min
  191. Bit rate                                 : 24.3 kb/s
  192. Count of elements                        : 1839
  193. Stream size                              : 16.0 MiB (0%)
  194. Title                                    : English-PGS
  195. Language                                 : English
  196. Default                                  : No
  197. Forced                                   : No

  198. Text #9
  199. ID                                       : 13
  200. Format                                   : PGS
  201. Muxing mode                              : zlib
  202. Codec ID                                 : S_HDMV/PGS
  203. Codec ID/Info                            : Picture based subtitle format used on BDs/HD-DVDs
  204. Duration                                 : 11 s 512 ms
  205. Bit rate                                 : 57.1 kb/s
  206. Count of elements                        : 8
  207. Stream size                              : 80.2 KiB (0%)
  208. Title                                    : Egnlish-FORCED-PGS
  209. Language                                 : English
  210. Default                                  : No
  211. Forced                                   : No

  212. Text #10
  213. ID                                       : 14
  214. Format                                   : PGS
  215. Muxing mode                              : zlib
  216. Codec ID                                 : S_HDMV/PGS
  217. Codec ID/Info                            : Picture based subtitle format used on BDs/HD-DVDs
  218. Duration                                 : 1 h 31 min
  219. Bit rate                                 : 13.6 kb/s
  220. Count of elements                        : 1795
  221. Stream size                              : 8.94 MiB (0%)
  222. Title                                    : Arabic-PGS
  223. Language                                 : Arabic
  224. Default                                  : No
  225. Forced                                   : No

  226. Text #11
  227. ID                                       : 15
  228. Format                                   : PGS
  229. Muxing mode                              : zlib
  230. Codec ID                                 : S_HDMV/PGS
  231. Codec ID/Info                            : Picture based subtitle format used on BDs/HD-DVDs
  232. Duration                                 : 1 h 31 min
  233. Bit rate                                 : 19.2 kb/s
  234. Count of elements                        : 1813
  235. Stream size                              : 12.6 MiB (0%)
  236. Title                                    : Chinese-PGS
  237. Language                                 : Chinese
  238. Default                                  : No
  239. Forced                                   : No

  240. Text #12
  241. ID                                       : 16
  242. Format                                   : PGS
  243. Muxing mode                              : zlib
  244. Codec ID                                 : S_HDMV/PGS
  245. Codec ID/Info                            : Picture based subtitle format used on BDs/HD-DVDs
  246. Duration                                 : 1 h 31 min
  247. Bit rate                                 : 20.9 kb/s
  248. Count of elements                        : 1784
  249. Stream size                              : 13.7 MiB (0%)
  250. Title                                    : Czech-PGS
  251. Language                                 : Czech
  252. Default                                  : No
  253. Forced                                   : No

  254. Text #13
  255. ID                                       : 17
  256. Format                                   : PGS
  257. Muxing mode                              : zlib
  258. Codec ID                                 : S_HDMV/PGS
  259. Codec ID/Info                            : Picture based subtitle format used on BDs/HD-DVDs
  260. Duration                                 : 1 h 31 min
  261. Bit rate                                 : 20.4 kb/s
  262. Count of elements                        : 1284
  263. Stream size                              : 13.4 MiB (0%)
  264. Title                                    : Danish-PGS
  265. Language                                 : Danish
  266. Default                                  : No
  267. Forced                                   : No

  268. Text #14
  269. ID                                       : 18
  270. Format                                   : PGS
  271. Muxing mode                              : zlib
  272. Codec ID                                 : S_HDMV/PGS
  273. Codec ID/Info                            : Picture based subtitle format used on BDs/HD-DVDs
  274. Duration                                 : 1 h 31 min
  275. Bit rate                                 : 21.0 kb/s
  276. Count of elements                        : 1343
  277. Stream size                              : 13.8 MiB (0%)
  278. Title                                    : Dutch-PGS
  279. Language                                 : Dutch
  280. Default                                  : No
  281. Forced                                   : No

  282. Text #15
  283. ID                                       : 19
  284. Format                                   : PGS
  285. Muxing mode                              : zlib
  286. Codec ID                                 : S_HDMV/PGS
  287. Codec ID/Info                            : Picture based subtitle format used on BDs/HD-DVDs
  288. Duration                                 : 1 h 31 min
  289. Bit rate                                 : 22.1 kb/s
  290. Count of elements                        : 1296
  291. Stream size                              : 14.5 MiB (0%)
  292. Title                                    : Finnish-PGS
  293. Language                                 : Finnish
  294. Default                                  : No
  295. Forced                                   : No

  296. Text #16
  297. ID                                       : 20
  298. Format                                   : PGS
  299. Muxing mode                              : zlib
  300. Codec ID                                 : S_HDMV/PGS
  301. Codec ID/Info                            : Picture based subtitle format used on BDs/HD-DVDs
  302. Duration                                 : 1 h 37 min
  303. Bit rate                                 : 22.0 kb/s
  304. Count of elements                        : 1787
  305. Stream size                              : 15.3 MiB (0%)
  306. Title                                    : French-PGS
  307. Language                                 : French
  308. Default                                  : No
  309. Forced                                   : No

  310. Text #17
  311. ID                                       : 21
  312. Format                                   : PGS
  313. Muxing mode                              : zlib
  314. Codec ID                                 : S_HDMV/PGS
  315. Codec ID/Info                            : Picture based subtitle format used on BDs/HD-DVDs
  316. Duration                                 : 1 h 31 min
  317. Bit rate                                 : 21.9 kb/s
  318. Count of elements                        : 1308
  319. Stream size                              : 14.4 MiB (0%)
  320. Title                                    : German-PGS
  321. Language                                 : German
  322. Default                                  : No
  323. Forced                                   : No

  324. Text #18
  325. ID                                       : 22
  326. Format                                   : PGS
  327. Muxing mode                              : zlib
  328. Codec ID                                 : S_HDMV/PGS
  329. Codec ID/Info                            : Picture based subtitle format used on BDs/HD-DVDs
  330. Duration                                 : 1 h 31 min
  331. Bit rate                                 : 19.3 kb/s
  332. Count of elements                        : 1781
  333. Stream size                              : 12.7 MiB (0%)
  334. Title                                    : Greek-PGS
  335. Language                                 : Greek
  336. Default                                  : No
  337. Forced                                   : No

  338. Text #19
  339. ID                                       : 23
  340. Format                                   : PGS
  341. Muxing mode                              : zlib
  342. Codec ID                                 : S_HDMV/PGS
  343. Codec ID/Info                            : Picture based subtitle format used on BDs/HD-DVDs
  344. Duration                                 : 1 h 37 min
  345. Bit rate                                 : 18.0 kb/s
  346. Count of elements                        : 1815
  347. Stream size                              : 12.6 MiB (0%)
  348. Title                                    : Hindi-PGS
  349. Language                                 : Hindi
  350. Default                                  : No
  351. Forced                                   : No

  352. Text #20
  353. ID                                       : 24
  354. Format                                   : PGS
  355. Muxing mode                              : zlib
  356. Codec ID                                 : S_HDMV/PGS
  357. Codec ID/Info                            : Picture based subtitle format used on BDs/HD-DVDs
  358. Duration                                 : 1 h 37 min
  359. Bit rate                                 : 17.2 kb/s
  360. Count of elements                        : 1787
  361. Stream size                              : 12.0 MiB (0%)
  362. Title                                    : Hungarian-PGS
  363. Language                                 : Hungarian
  364. Default                                  : No
  365. Forced                                   : No

  366. Text #21
  367. ID                                       : 25
  368. Format                                   : PGS
  369. Muxing mode                              : zlib
  370. Codec ID                                 : S_HDMV/PGS
  371. Codec ID/Info                            : Picture based subtitle format used on BDs/HD-DVDs
  372. Duration                                 : 1 h 31 min
  373. Bit rate                                 : 22.4 kb/s
  374. Count of elements                        : 1783
  375. Stream size                              : 14.7 MiB (0%)
  376. Title                                    : Italian-PGS
  377. Language                                 : Italian
  378. Default                                  : No
  379. Forced                                   : No

  380. Text #22
  381. ID                                       : 26
  382. Format                                   : PGS
  383. Muxing mode                              : zlib
  384. Codec ID                                 : S_HDMV/PGS
  385. Codec ID/Info                            : Picture based subtitle format used on BDs/HD-DVDs
  386. Duration                                 : 1 h 31 min
  387. Bit rate                                 : 18.2 kb/s
  388. Count of elements                        : 1840
  389. Stream size                              : 12.0 MiB (0%)
  390. Title                                    : Japanese-PGS
  391. Language                                 : Japanese
  392. Default                                  : No
  393. Forced                                   : No

  394. Text #23
  395. ID                                       : 27
  396. Format                                   : PGS
  397. Muxing mode                              : zlib
  398. Codec ID                                 : S_HDMV/PGS
  399. Codec ID/Info                            : Picture based subtitle format used on BDs/HD-DVDs
  400. Duration                                 : 1 h 31 min
  401. Bit rate                                 : 17.0 kb/s
  402. Count of elements                        : 1849
  403. Stream size                              : 11.2 MiB (0%)
  404. Title                                    : Korean-PGS
  405. Language                                 : Korean
  406. Default                                  : No
  407. Forced                                   : No

  408. Text #24
  409. ID                                       : 28
  410. Format                                   : PGS
  411. Muxing mode                              : zlib
  412. Codec ID                                 : S_HDMV/PGS
  413. Codec ID/Info                            : Picture based subtitle format used on BDs/HD-DVDs
  414. Duration                                 : 1 h 31 min
  415. Bit rate                                 : 19.4 kb/s
  416. Count of elements                        : 1287
  417. Stream size                              : 12.7 MiB (0%)
  418. Title                                    : Norwegian-PGS
  419. Language                                 : Norwegian
  420. Default                                  : No
  421. Forced                                   : No

  422. Text #25
  423. ID                                       : 29
  424. Format                                   : PGS
  425. Muxing mode                              : zlib
  426. Codec ID                                 : S_HDMV/PGS
  427. Codec ID/Info                            : Picture based subtitle format used on BDs/HD-DVDs
  428. Duration                                 : 1 h 31 min
  429. Bit rate                                 : 17.3 kb/s
  430. Count of elements                        : 1777
  431. Stream size                              : 11.4 MiB (0%)
  432. Title                                    : Polish-PGS
  433. Language                                 : Polish
  434. Default                                  : No
  435. Forced                                   : No

  436. Text #26
  437. ID                                       : 30
  438. Format                                   : PGS
  439. Muxing mode                              : zlib
  440. Codec ID                                 : S_HDMV/PGS
  441. Codec ID/Info                            : Picture based subtitle format used on BDs/HD-DVDs
  442. Duration                                 : 1 h 31 min
  443. Bit rate                                 : 22.2 kb/s
  444. Count of elements                        : 1797
  445. Stream size                              : 14.6 MiB (0%)
  446. Title                                    : Portuguese-PGS
  447. Language                                 : Portuguese
  448. Default                                  : No
  449. Forced                                   : No

  450. Text #27
  451. ID                                       : 31
  452. Format                                   : PGS
  453. Muxing mode                              : zlib
  454. Codec ID                                 : S_HDMV/PGS
  455. Codec ID/Info                            : Picture based subtitle format used on BDs/HD-DVDs
  456. Duration                                 : 38 min 13 s
  457. Bit rate                                 : 340 b/s
  458. Count of elements                        : 10
  459. Stream size                              : 95.2 KiB (0%)
  460. Title                                    : Portuguese-PGS
  461. Language                                 : Portuguese
  462. Default                                  : No
  463. Forced                                   : No

  464. Text #28
  465. ID                                       : 32
  466. Format                                   : PGS
  467. Muxing mode                              : zlib
  468. Codec ID                                 : S_HDMV/PGS
  469. Codec ID/Info                            : Picture based subtitle format used on BDs/HD-DVDs
  470. Duration                                 : 1 h 31 min
  471. Bit rate                                 : 24.1 kb/s
  472. Count of elements                        : 1775
  473. Stream size                              : 15.8 MiB (0%)
  474. Title                                    : Romanian-PGS
  475. Language                                 : Romanian
  476. Default                                  : No
  477. Forced                                   : No

  478. Text #29
  479. ID                                       : 33
  480. Format                                   : PGS
  481. Muxing mode                              : zlib
  482. Codec ID                                 : S_HDMV/PGS
  483. Codec ID/Info                            : Picture based subtitle format used on BDs/HD-DVDs
  484. Duration                                 : 1 h 31 min
  485. Bit rate                                 : 25.4 kb/s
  486. Count of elements                        : 1891
  487. Stream size                              : 16.7 MiB (0%)
  488. Title                                    : Russian-PGS
  489. Language                                 : Russian
  490. Default                                  : No
  491. Forced                                   : No

  492. Text #30
  493. ID                                       : 34
  494. Format                                   : PGS
  495. Muxing mode                              : zlib
  496. Codec ID                                 : S_HDMV/PGS
  497. Codec ID/Info                            : Picture based subtitle format used on BDs/HD-DVDs
  498. Duration                                 : 1 h 31 min
  499. Bit rate                                 : 21.8 kb/s
  500. Count of elements                        : 1777
  501. Stream size                              : 14.3 MiB (0%)
  502. Title                                    : Slovak-PGS
  503. Language                                 : Slovak
  504. Default                                  : No
  505. Forced                                   : No

  506. Text #31
  507. ID                                       : 35
  508. Format                                   : PGS
  509. Muxing mode                              : zlib
  510. Codec ID                                 : S_HDMV/PGS
  511. Codec ID/Info                            : Picture based subtitle format used on BDs/HD-DVDs
  512. Duration                                 : 1 h 31 min
  513. Bit rate                                 : 21.5 kb/s
  514. Count of elements                        : 1777
  515. Stream size                              : 14.1 MiB (0%)
  516. Title                                    : Slovenian-PGS
  517. Language                                 : Slovenian
  518. Default                                  : No
  519. Forced                                   : No

  520. Text #32
  521. ID                                       : 36
  522. Format                                   : PGS
  523. Muxing mode                              : zlib
  524. Codec ID                                 : S_HDMV/PGS
  525. Codec ID/Info                            : Picture based subtitle format used on BDs/HD-DVDs
  526. Duration                                 : 1 h 31 min
  527. Bit rate                                 : 21.5 kb/s
  528. Count of elements                        : 1779
  529. Stream size                              : 14.1 MiB (0%)
  530. Title                                    : Spanish-PGS
  531. Language                                 : Spanish
  532. Default                                  : No
  533. Forced                                   : No

  534. Text #33
  535. ID                                       : 37
  536. Format                                   : PGS
  537. Muxing mode                              : zlib
  538. Codec ID                                 : S_HDMV/PGS
  539. Codec ID/Info                            : Picture based subtitle format used on BDs/HD-DVDs
  540. Duration                                 : 1 h 31 min
  541. Bit rate                                 : 21.2 kb/s
  542. Count of elements                        : 1777
  543. Stream size                              : 13.9 MiB (0%)
  544. Title                                    : Spanish-PGS
  545. Language                                 : Spanish
  546. Default                                  : No
  547. Forced                                   : No

  548. Text #34
  549. ID                                       : 38
  550. Format                                   : PGS
  551. Muxing mode                              : zlib
  552. Codec ID                                 : S_HDMV/PGS
  553. Codec ID/Info                            : Picture based subtitle format used on BDs/HD-DVDs
  554. Duration                                 : 1 h 31 min
  555. Bit rate                                 : 20.1 kb/s
  556. Count of elements                        : 1293
  557. Stream size                              : 13.2 MiB (0%)
  558. Title                                    : Swedish-PGS
  559. Language                                 : Swedish
  560. Default                                  : No
  561. Forced                                   : No

  562. Text #35
  563. ID                                       : 39
  564. Format                                   : PGS
  565. Muxing mode                              : zlib
  566. Codec ID                                 : S_HDMV/PGS
  567. Codec ID/Info                            : Picture based subtitle format used on BDs/HD-DVDs
  568. Duration                                 : 1 h 31 min
  569. Bit rate                                 : 21.5 kb/s
  570. Count of elements                        : 1790
  571. Stream size                              : 14.1 MiB (0%)
  572. Title                                    : Thai-PGS
  573. Language                                 : Thai
  574. Default                                  : No
  575. Forced                                   : No

  576. Text #36
  577. ID                                       : 40
  578. Format                                   : PGS
  579. Muxing mode                              : zlib
  580. Codec ID                                 : S_HDMV/PGS
  581. Codec ID/Info                            : Picture based subtitle format used on BDs/HD-DVDs
  582. Duration                                 : 1 h 31 min
  583. Bit rate                                 : 21.6 kb/s
  584. Count of elements                        : 1783
  585. Stream size                              : 14.2 MiB (0%)
  586. Title                                    : Turkish-PGS
  587. Language                                 : Turkish
  588. Default                                  : No
  589. Forced                                   : No

  590. Menu
  591. 00:00:00.000                             : en:Chapter 01
  592. 00:06:55.998                             : en:Chapter 02
  593. 00:08:17.205                             : en:Chapter 03
  594. 00:11:32.358                             : en:Chapter 04
  595. 00:15:05.571                             : en:Chapter 05
  596. 00:23:14.601                             : en:Chapter 06
  597. 00:31:17.208                             : en:Chapter 07
  598. 00:37:25.993                             : en:Chapter 08
  599. 00:48:38.457                             : en:Chapter 09
  600. 00:55:38.543                             : en:Chapter 10
  601. 01:00:44.641                             : en:Chapter 11
  602. 01:03:02.737                             : en:Chapter 12
  603. 01:09:22.700                             : en:Chapter 13
  604. 01:15:41.870                             : en:Chapter 14
  605. 01:23:08.233                             : en:Chapter 15
  606. 01:28:14.747                             : en:Chapter 16
复制代码

霹雳娇娃/查理的天使 Charlies.Angels.2000.2160p.BluRay.x265.10bit.SDR.DTS-HD.MA.TrueHD.7.1.Atmos-SWTYBLZ 36.72GB-2.png 霹雳娇娃/查理的天使 Charlies.Angels.2000.2160p.BluRay.x265.10bit.SDR.DTS-HD.MA.TrueHD.7.1.Atmos-SWTYBLZ 36.72GB-3.png 霹雳娇娃/查理的天使 Charlies.Angels.2000.2160p.BluRay.x265.10bit.SDR.DTS-HD.MA.TrueHD.7.1.Atmos-SWTYBLZ 36.72GB-4.png 霹雳娇娃/查理的天使 Charlies.Angels.2000.2160p.BluRay.x265.10bit.SDR.DTS-HD.MA.TrueHD.7.1.Atmos-SWTYBLZ 36.72GB-5.png 霹雳娇娃/查理的天使 Charlies.Angels.2000.2160p.BluRay.x265.10bit.SDR.DTS-HD.MA.TrueHD.7.1.Atmos-SWTYBLZ 36.72GB-6.png 霹雳娇娃/查理的天使 Charlies.Angels.2000.2160p.BluRay.x265.10bit.SDR.DTS-HD.MA.TrueHD.7.1.Atmos-SWTYBLZ 36.72GB-7.png 霹雳娇娃/查理的天使 Charlies.Angels.2000.2160p.BluRay.x265.10bit.SDR.DTS-HD.MA.TrueHD.7.1.Atmos-SWTYBLZ 36.72GB-8.png







回复

使用道具 举报

发表于 2019-10-25 00:10:03 | 显示全部楼层
楼主发贴辛苦了,谢谢楼主分享!我觉得蓝光电影网是注册对了!
回复 支持 反对

使用道具 举报

发表于 2019-10-25 06:41:33 | 显示全部楼层
楼主发贴辛苦了,谢谢楼主分享!我觉得蓝光电影网是注册对了!
回复 支持 反对

使用道具 举报

发表于 2019-10-25 08:10:39 | 显示全部楼层

既然你诚信诚意的推荐了,那我就勉为其难的看看吧!蓝光电影网不走平凡路。
回复 支持 反对

使用道具 举报

发表于 2019-10-25 09:01:41 | 显示全部楼层
楼主发贴辛苦了,谢谢楼主分享!我觉得蓝光电影网是注册对了!
回复 支持 反对

使用道具 举报

发表于 2019-10-25 13:07:32 | 显示全部楼层
,不错不错,好。
回复 支持 反对

使用道具 举报

发表于 2019-10-25 13:27:32 | 显示全部楼层

既然你诚信诚意的推荐了,那我就勉为其难的看看吧!蓝光电影网不走平凡路。
回复 支持 反对

使用道具 举报

发表于 2019-10-25 15:58:46 | 显示全部楼层
谢谢楼主分享好电影
回复 支持 反对

使用道具 举报

懒得打字嘛,点击右侧快捷回复 【右侧内容,后台自定义】
您需要登录后才可以回帖 登录 | 立即加入

本版积分规则

现在加入蓝光电影网,注册一个账号

QQ| 手机版|小黑屋| 蓝光电影网 |网站地图

Copyright © 2015-2019 Comsenz Inc.  Template by 蓝光电影论坛 All Rights Reserved.

Powered by 蓝光电影网 X3.4

特别声明:本站所有资源均由网上收集而来,版权归原影音公司所有,如果侵犯了你的权益,请通知我们,我们会及时删除侵权内容.

快速回复 返回顶部 返回列表