找回密码

蓝光电影网

查看: 112|回复: 3

[8bit.SDR] 霹雳娇娃/查理的天使 Charlies.Angels.2000.2160p.BluRay.x264.8bit.SDR.DTS-HD.MA.TrueHD.7.1.Atmos-SWTYBLZ 42.16GB

[复制链接]

 成长值: 23155

发表于 2019-10-24 23:18:04 | 显示全部楼层 |阅读模式
霹雳娇娃/查理的天使 Charlies.Angels.2000.2160p.BluRay.x264.8bit.SDR.DTS-HD.MA.TrueHD.7.1.Atmos-SWTYBLZ 42.16GB-1.png

译  名 霹雳娇娃 / 查理的天使 / 神探俏娇娃 / 霹雳天使
片  名 Charlie's Angels
年  代 2000
产  地 美国 / 德国
类  别 喜剧 / 动作 / 惊悚 / 犯罪 / 冒险
语  言 英语
上映日期 2000-11-03(美国) / 2001-02-13(中国大陆)
IMDb评分  5.5/10 from 165924 users
IMDb链接  https://www.imdb.com/title/tt0160127
豆瓣评分 6.8/10 from 63491 users
豆瓣链接 https://movie.douban.com/subject/1293258/
片  长 98 分钟
导  演 McG
编  剧 Ryan Rowe / Ed Solomon / John August
主  演 卡梅隆·迪亚兹 Cameron Diaz
       德鲁·巴里摩尔 Drew Barrymore
       刘玉玲 Lucy Liu
       比尔·默瑞 Bill Murray
       山姆·洛克威尔 Sam Rockwell
       凯莉·林奇 Kelly Lynch
       蒂姆·克里 Tim Curry
       克里斯平·格洛弗 Crispin Glover
       马特·勒布朗 Matt LeBlanc
       LL Cool J
       汤姆·格林 Tom Green
       卢克·威尔逊 Luke Wilson
       西恩·瓦兰 Sean Whalen
       亚历克斯·崔贝克 Alex Trebek
       Raliegh Wilson
       马克·瑞安 Mark Ryan
       Bobby Ore
       乔·杜尔 Joe Duer
       Reginald C. Hayes
       梅丽莎·麦卡西 Melissa McCarthy
       鲍勃·斯蒂芬森 Bob Stephenson
       耐德·巴拉米 Ned Bellamy
       Raymond Patterson
       Michael Barryte
       安德鲁·威尔逊 Andrew Wilson
       Branden Williams
       Diesel Pfingsten
       凯文·格雷维奥斯 Kevin Grevioux
       迈克尔·帕帕约翰 Michael Papajohn
       吉姆·帕尔默 Jim Palmer
       Shawn Woods
       小伊萨克·C.辛格尔顿 Isaac C. Singleton Jr.
       Paul Eliopoulos
       Tim Gilbert
       Al Goto
       Steven Ito
       费利佩·萨瓦赫奇 Felipe Savahge
       迈克·史密斯 Mike Smith
       杰瑞·特林伯 Jerry Trimble
       约翰·福赛思 John Forsythe
       Ivana Bozilovic
       佩姬·布鲁克斯 Paige Brooks
       Jennifer Cole
       艾菲恩·克洛科特 Affion Crockett
       凯伦·麦克道戈 Karen McDougal
       Paul Oliver
       Heather Elizabeth Parkhurst
       凯文·亚历山大·斯蒂亚 Kevin Alexander Stea
       苏西·斯蒂恩 Suzie Steen
       托尼·斯蒂夫阿诺 Tony Stef'Ano
       袁祥仁 Cheung-Yan Yuen


标  签 动作 | 美国 | 喜剧 | 美国电影 | 霹雳娇娃 | 2000 | 电影 | CameronDiaz

简  介  

  查理先生手下有三名女打手,她们才貌双全拥有一身好功夫,专门接受查理先生的命令为他人伸张正义。她们分别是:娜塔莉(卡梅伦?迪亚兹 饰)、戴兰(茱莉?巴里摩尔 饰)与艾利克斯(刘玉玲 饰)。
  她们最近接受了一个任务:艾瑞克?克诺斯(萨姆?罗克韦尔 饰)先生设计了一款高科技的声音辨别系统。艾瑞克却不幸被绑架了,这三名“天使”需要从不法分子手中拯救艾瑞克。因为这套由艾瑞克设计的高科技系统,一旦被不法分子利用的话后果堪虞。
  三位“天使”得知情况后,很快联想到了艾瑞克公司的对手,该负责人罗格成为了最大的嫌疑。三人于是日夜调查罗格的行踪,也掌握了重要的线索。正在她们有把握拯救艾瑞克的时候,一通电话打破了她们三人的全盘计划。
  1. Video
  2. ID                                       : 1
  3. Format                                   : AVC
  4. Format/Info                              : Advanced Video Codec
  5. Format profile                           : High@L4
  6. Format settings                          : CABAC / 5 Ref Frames
  7. Format settings, CABAC                   : Yes
  8. Format settings, Reference frames        : 5 frames
  9. Codec ID                                 : V_MPEG4/ISO/AVC
  10. Duration                                 : 1 h 38 min
  11. Bit rate                                 : 52.0 Mb/s
  12. Width                                    : 3 840 pixels
  13. Height                                   : 1 600 pixels
  14. Display aspect ratio                     : 2.40:1
  15. Frame rate mode                          : Constant
  16. Frame rate                               : 23.976 (24000/1001) FPS
  17. Color space                              : YUV
  18. Chroma subsampling                       : 4:2:0
  19. Bit depth                                : 8 bits
  20. Scan type                                : Progressive
  21. Bits/(Pixel*Frame)                       : 0.353
  22. Stream size                              : 35.8 GiB (85%)
  23. Title                                    : Charlies.Angels.2000.2160p.BluRay.x264.8bit.SDR.DTS-HD.MA.TrueHD.7.1.Atmos-SWTYBLZ
  24. Writing library                          : x264 core 157 r2935 545de2f
  25. Encoding settings                        : cabac=1 / ref=5 / deblock=1:-1:-1 / analyse=0x3:0x113 / me=umh / subme=10 / psy=1 / psy_rd=1.00:0.15 / mixed_ref=1 / me_range=48 / chroma_me=1 / trellis=2 / 8x8dct=1 / cqm=0 / deadzone=21,11 / fast_pskip=1 / chroma_qp_offset=-3 / threads=48 / lookahead_threads=4 / sliced_threads=0 / nr=0 / decimate=0 / interlaced=0 / bluray_compat=0 / constrained_intra=0 / bframes=3 / b_pyramid=2 / b_adapt=2 / b_bias=0 / direct=3 / weightb=1 / open_gop=0 / weightp=2 / keyint=250 / keyint_min=23 / scenecut=40 / intra_refresh=0 / rc_lookahead=50 / rc=crf / mbtree=1 / crf=20.0 / qcomp=0.60 / qpmin=0 / qpmax=69 / qpstep=4 / ip_ratio=1.40 / aq=1:1.00
  26. Language                                 : English
  27. Default                                  : Yes
  28. Forced                                   : No

  29. Audio #1
  30. ID                                       : 2
  31. Format                                   : MLP FBA 16-ch
  32. Format/Info                              : Meridian Lossless Packing FBA with 16-channel presentation
  33. Commercial name                          : Dolby TrueHD with Dolby Atmos
  34. Codec ID                                 : A_TRUEHD
  35. Duration                                 : 1 h 38 min
  36. Bit rate mode                            : Variable
  37. Bit rate                                 : 3 655 kb/s
  38. Maximum bit rate                         : 6 054 kb/s
  39. Channel(s)                               : 8 channels
  40. Channel layout                           : L R C LFE Ls Rs Lb Rb
  41. Sampling rate                            : 48.0 kHz
  42. Frame rate                               : 1 200.000 FPS (40 SPF)
  43. Compression mode                         : Lossless
  44. Stream size                              : 2.51 GiB (6%)
  45. Title                                    : Charlies.Angels.2000.2160p.BluRay.x264.8bit.SDR.DTS-HD.MA.TrueHD.7.1.Atmos-SWTYBLZ
  46. Language                                 : English
  47. Default                                  : Yes
  48. Forced                                   : No
  49. Number of dynamic objects                : 11
  50. Bed channel count                        : 1 channel
  51. Bed channel configuration                : LFE

  52. Audio #2
  53. ID                                       : 3
  54. Format                                   : DTS XLL
  55. Format/Info                              : Digital Theater Systems
  56. Commercial name                          : DTS-HD Master Audio
  57. Codec ID                                 : A_DTS
  58. Duration                                 : 1 h 38 min
  59. Bit rate mode                            : Variable
  60. Bit rate                                 : 4 385 kb/s
  61. Channel(s)                               : 8 channels
  62. Channel layout                           : C L R LFE Lb Rb Lss Rss
  63. Sampling rate                            : 48.0 kHz
  64. Frame rate                               : 93.750 FPS (512 SPF)
  65. Bit depth                                : 24 bits
  66. Compression mode                         : Lossless
  67. Stream size                              : 3.01 GiB (7%)
  68. Title                                    : Charlies.Angels.2000.2160p.BluRay.x264.8bit.SDR.DTS-HD.MA.TrueHD.7.1.Atmos-SWTYBLZ
  69. Language                                 : English
  70. Default                                  : No
  71. Forced                                   : No

  72. Audio #3
  73. ID                                       : 4
  74. Format                                   : AC-3
  75. Format/Info                              : Audio Coding 3
  76. Commercial name                          : Dolby Digital
  77. Codec ID                                 : A_AC3
  78. Duration                                 : 1 h 38 min
  79. Bit rate mode                            : Constant
  80. Bit rate                                 : 640 kb/s
  81. Channel(s)                               : 6 channels
  82. Channel layout                           : L R C LFE Ls Rs
  83. Sampling rate                            : 48.0 kHz
  84. Frame rate                               : 31.250 FPS (1536 SPF)
  85. Bit depth                                : 16 bits
  86. Compression mode                         : Lossy
  87. Stream size                              : 450 MiB (1%)
  88. Title                                    : Charlies.Angels.2000.2160p.BluRay.x264.8bit.SDR.DTS-HD.MA.TrueHD.7.1.Atmos-SWTYBLZ
  89. Language                                 : English
  90. Service kind                             : Complete Main
  91. Default                                  : No
  92. Forced                                   : No

  93. Text #1
  94. ID                                       : 5
  95. Format                                   : UTF-8
  96. Codec ID                                 : S_TEXT/UTF8
  97. Codec ID/Info                            : UTF-8 Plain Text
  98. Duration                                 : 11 s 511 ms
  99. Bit rate                                 : 97 b/s
  100. Count of elements                        : 4
  101. Stream size                              : 141 Bytes (0%)
  102. Title                                    : English-FORCED-SRT
  103. Language                                 : English
  104. Default                                  : Yes
  105. Forced                                   : Yes

  106. Text #2
  107. ID                                       : 6
  108. Format                                   : UTF-8
  109. Codec ID                                 : S_TEXT/UTF8
  110. Codec ID/Info                            : UTF-8 Plain Text
  111. Duration                                 : 1 h 37 min
  112. Bit rate                                 : 54 b/s
  113. Count of elements                        : 1197
  114. Stream size                              : 38.9 KiB (0%)
  115. Title                                    : English-SRT
  116. Language                                 : English
  117. Default                                  : No
  118. Forced                                   : No

  119. Text #3
  120. ID                                       : 7
  121. Format                                   : UTF-8
  122. Codec ID                                 : S_TEXT/UTF8
  123. Codec ID/Info                            : UTF-8 Plain Text
  124. Duration                                 : 1 h 37 min
  125. Bit rate                                 : 60 b/s
  126. Count of elements                        : 1365
  127. Stream size                              : 43.6 KiB (0%)
  128. Title                                    : English-SDH-SRT
  129. Language                                 : English
  130. Default                                  : No
  131. Forced                                   : No

  132. Text #4
  133. ID                                       : 8
  134. Format                                   : PGS
  135. Muxing mode                              : zlib
  136. Codec ID                                 : S_HDMV/PGS
  137. Codec ID/Info                            : Picture based subtitle format used on BDs/HD-DVDs
  138. Duration                                 : 1 h 37 min
  139. Bit rate                                 : 33.7 kb/s
  140. Count of elements                        : 2732
  141. Stream size                              : 23.6 MiB (0%)
  142. Title                                    : English-SDH-PGS
  143. Language                                 : English
  144. Default                                  : No
  145. Forced                                   : No

  146. Text #5
  147. ID                                       : 9
  148. Format                                   : PGS
  149. Muxing mode                              : zlib
  150. Codec ID                                 : S_HDMV/PGS
  151. Codec ID/Info                            : Picture based subtitle format used on BDs/HD-DVDs
  152. Duration                                 : 1 h 31 min
  153. Bit rate                                 : 24.3 kb/s
  154. Count of elements                        : 1835
  155. Stream size                              : 16.0 MiB (0%)
  156. Title                                    : English-PGS
  157. Language                                 : English
  158. Default                                  : No
  159. Forced                                   : No

  160. Text #6
  161. ID                                       : 10
  162. Format                                   : PGS
  163. Muxing mode                              : zlib
  164. Codec ID                                 : S_HDMV/PGS
  165. Codec ID/Info                            : Picture based subtitle format used on BDs/HD-DVDs
  166. Duration                                 : 11 s 512 ms
  167. Bit rate                                 : 57.1 kb/s
  168. Count of elements                        : 8
  169. Stream size                              : 80.2 KiB (0%)
  170. Title                                    : English-FORCED-PGS
  171. Language                                 : English
  172. Default                                  : No
  173. Forced                                   : No

  174. Text #7
  175. ID                                       : 11
  176. Format                                   : PGS
  177. Muxing mode                              : zlib
  178. Codec ID                                 : S_HDMV/PGS
  179. Codec ID/Info                            : Picture based subtitle format used on BDs/HD-DVDs
  180. Duration                                 : 1 h 37 min
  181. Bit rate                                 : 33.7 kb/s
  182. Count of elements                        : 2732
  183. Stream size                              : 23.6 MiB (0%)
  184. Title                                    : English-SDH-PGS
  185. Language                                 : English
  186. Default                                  : No
  187. Forced                                   : No

  188. Text #8
  189. ID                                       : 12
  190. Format                                   : PGS
  191. Muxing mode                              : zlib
  192. Codec ID                                 : S_HDMV/PGS
  193. Codec ID/Info                            : Picture based subtitle format used on BDs/HD-DVDs
  194. Duration                                 : 1 h 31 min
  195. Bit rate                                 : 24.3 kb/s
  196. Count of elements                        : 1839
  197. Stream size                              : 16.0 MiB (0%)
  198. Title                                    : English-PGS
  199. Language                                 : English
  200. Default                                  : No
  201. Forced                                   : No

  202. Text #9
  203. ID                                       : 13
  204. Format                                   : PGS
  205. Muxing mode                              : zlib
  206. Codec ID                                 : S_HDMV/PGS
  207. Codec ID/Info                            : Picture based subtitle format used on BDs/HD-DVDs
  208. Duration                                 : 11 s 512 ms
  209. Bit rate                                 : 57.1 kb/s
  210. Count of elements                        : 8
  211. Stream size                              : 80.2 KiB (0%)
  212. Title                                    : Egnlish-FORCED-PGS
  213. Language                                 : English
  214. Default                                  : No
  215. Forced                                   : No

  216. Text #10
  217. ID                                       : 14
  218. Format                                   : PGS
  219. Muxing mode                              : zlib
  220. Codec ID                                 : S_HDMV/PGS
  221. Codec ID/Info                            : Picture based subtitle format used on BDs/HD-DVDs
  222. Duration                                 : 1 h 31 min
  223. Bit rate                                 : 13.6 kb/s
  224. Count of elements                        : 1795
  225. Stream size                              : 8.94 MiB (0%)
  226. Title                                    : Arabic-PGS
  227. Language                                 : Arabic
  228. Default                                  : No
  229. Forced                                   : No

  230. Text #11
  231. ID                                       : 15
  232. Format                                   : PGS
  233. Muxing mode                              : zlib
  234. Codec ID                                 : S_HDMV/PGS
  235. Codec ID/Info                            : Picture based subtitle format used on BDs/HD-DVDs
  236. Duration                                 : 1 h 31 min
  237. Bit rate                                 : 19.2 kb/s
  238. Count of elements                        : 1813
  239. Stream size                              : 12.6 MiB (0%)
  240. Title                                    : Chinese-PGS
  241. Language                                 : Chinese
  242. Default                                  : No
  243. Forced                                   : No

  244. Text #12
  245. ID                                       : 16
  246. Format                                   : PGS
  247. Muxing mode                              : zlib
  248. Codec ID                                 : S_HDMV/PGS
  249. Codec ID/Info                            : Picture based subtitle format used on BDs/HD-DVDs
  250. Duration                                 : 1 h 31 min
  251. Bit rate                                 : 20.9 kb/s
  252. Count of elements                        : 1784
  253. Stream size                              : 13.7 MiB (0%)
  254. Title                                    : Czech-PGS
  255. Language                                 : Czech
  256. Default                                  : No
  257. Forced                                   : No

  258. Text #13
  259. ID                                       : 17
  260. Format                                   : PGS
  261. Muxing mode                              : zlib
  262. Codec ID                                 : S_HDMV/PGS
  263. Codec ID/Info                            : Picture based subtitle format used on BDs/HD-DVDs
  264. Duration                                 : 1 h 31 min
  265. Bit rate                                 : 20.4 kb/s
  266. Count of elements                        : 1284
  267. Stream size                              : 13.4 MiB (0%)
  268. Title                                    : Danish-PGS
  269. Language                                 : Danish
  270. Default                                  : No
  271. Forced                                   : No

  272. Text #14
  273. ID                                       : 18
  274. Format                                   : PGS
  275. Muxing mode                              : zlib
  276. Codec ID                                 : S_HDMV/PGS
  277. Codec ID/Info                            : Picture based subtitle format used on BDs/HD-DVDs
  278. Duration                                 : 1 h 31 min
  279. Bit rate                                 : 21.0 kb/s
  280. Count of elements                        : 1343
  281. Stream size                              : 13.8 MiB (0%)
  282. Title                                    : Dutch-PGS
  283. Language                                 : Dutch
  284. Default                                  : No
  285. Forced                                   : No

  286. Text #15
  287. ID                                       : 19
  288. Format                                   : PGS
  289. Muxing mode                              : zlib
  290. Codec ID                                 : S_HDMV/PGS
  291. Codec ID/Info                            : Picture based subtitle format used on BDs/HD-DVDs
  292. Duration                                 : 1 h 31 min
  293. Bit rate                                 : 22.1 kb/s
  294. Count of elements                        : 1296
  295. Stream size                              : 14.5 MiB (0%)
  296. Title                                    : Finnish-PGS
  297. Language                                 : Finnish
  298. Default                                  : No
  299. Forced                                   : No

  300. Text #16
  301. ID                                       : 20
  302. Format                                   : PGS
  303. Muxing mode                              : zlib
  304. Codec ID                                 : S_HDMV/PGS
  305. Codec ID/Info                            : Picture based subtitle format used on BDs/HD-DVDs
  306. Duration                                 : 1 h 37 min
  307. Bit rate                                 : 22.0 kb/s
  308. Count of elements                        : 1787
  309. Stream size                              : 15.3 MiB (0%)
  310. Title                                    : French-PGS
  311. Language                                 : French
  312. Default                                  : No
  313. Forced                                   : No

  314. Text #17
  315. ID                                       : 21
  316. Format                                   : PGS
  317. Muxing mode                              : zlib
  318. Codec ID                                 : S_HDMV/PGS
  319. Codec ID/Info                            : Picture based subtitle format used on BDs/HD-DVDs
  320. Duration                                 : 1 h 31 min
  321. Bit rate                                 : 21.9 kb/s
  322. Count of elements                        : 1308
  323. Stream size                              : 14.4 MiB (0%)
  324. Title                                    : German-PGS
  325. Language                                 : German
  326. Default                                  : No
  327. Forced                                   : No

  328. Text #18
  329. ID                                       : 22
  330. Format                                   : PGS
  331. Muxing mode                              : zlib
  332. Codec ID                                 : S_HDMV/PGS
  333. Codec ID/Info                            : Picture based subtitle format used on BDs/HD-DVDs
  334. Duration                                 : 1 h 31 min
  335. Bit rate                                 : 19.3 kb/s
  336. Count of elements                        : 1781
  337. Stream size                              : 12.7 MiB (0%)
  338. Title                                    : Greek-PGS
  339. Language                                 : Greek
  340. Default                                  : No
  341. Forced                                   : No

  342. Text #19
  343. ID                                       : 23
  344. Format                                   : PGS
  345. Muxing mode                              : zlib
  346. Codec ID                                 : S_HDMV/PGS
  347. Codec ID/Info                            : Picture based subtitle format used on BDs/HD-DVDs
  348. Duration                                 : 1 h 37 min
  349. Bit rate                                 : 18.0 kb/s
  350. Count of elements                        : 1815
  351. Stream size                              : 12.6 MiB (0%)
  352. Title                                    : Hindi-PGS
  353. Language                                 : Hindi
  354. Default                                  : No
  355. Forced                                   : No

  356. Text #20
  357. ID                                       : 24
  358. Format                                   : PGS
  359. Muxing mode                              : zlib
  360. Codec ID                                 : S_HDMV/PGS
  361. Codec ID/Info                            : Picture based subtitle format used on BDs/HD-DVDs
  362. Duration                                 : 1 h 37 min
  363. Bit rate                                 : 17.2 kb/s
  364. Count of elements                        : 1787
  365. Stream size                              : 12.0 MiB (0%)
  366. Title                                    : Hungarian-PGS
  367. Language                                 : Hungarian
  368. Default                                  : No
  369. Forced                                   : No

  370. Text #21
  371. ID                                       : 25
  372. Format                                   : PGS
  373. Muxing mode                              : zlib
  374. Codec ID                                 : S_HDMV/PGS
  375. Codec ID/Info                            : Picture based subtitle format used on BDs/HD-DVDs
  376. Duration                                 : 1 h 31 min
  377. Bit rate                                 : 22.4 kb/s
  378. Count of elements                        : 1783
  379. Stream size                              : 14.7 MiB (0%)
  380. Title                                    : Italian-PGS
  381. Language                                 : Italian
  382. Default                                  : No
  383. Forced                                   : No

  384. Text #22
  385. ID                                       : 26
  386. Format                                   : PGS
  387. Muxing mode                              : zlib
  388. Codec ID                                 : S_HDMV/PGS
  389. Codec ID/Info                            : Picture based subtitle format used on BDs/HD-DVDs
  390. Duration                                 : 1 h 31 min
  391. Bit rate                                 : 18.2 kb/s
  392. Count of elements                        : 1840
  393. Stream size                              : 12.0 MiB (0%)
  394. Title                                    : Japanese-PGS
  395. Language                                 : Japanese
  396. Default                                  : No
  397. Forced                                   : No

  398. Text #23
  399. ID                                       : 27
  400. Format                                   : PGS
  401. Muxing mode                              : zlib
  402. Codec ID                                 : S_HDMV/PGS
  403. Codec ID/Info                            : Picture based subtitle format used on BDs/HD-DVDs
  404. Duration                                 : 1 h 31 min
  405. Bit rate                                 : 17.0 kb/s
  406. Count of elements                        : 1849
  407. Stream size                              : 11.2 MiB (0%)
  408. Title                                    : Korean-PGS
  409. Language                                 : Korean
  410. Default                                  : No
  411. Forced                                   : No

  412. Text #24
  413. ID                                       : 28
  414. Format                                   : PGS
  415. Muxing mode                              : zlib
  416. Codec ID                                 : S_HDMV/PGS
  417. Codec ID/Info                            : Picture based subtitle format used on BDs/HD-DVDs
  418. Duration                                 : 1 h 31 min
  419. Bit rate                                 : 19.4 kb/s
  420. Count of elements                        : 1287
  421. Stream size                              : 12.7 MiB (0%)
  422. Title                                    : Norwegian-PGS
  423. Language                                 : Norwegian
  424. Default                                  : No
  425. Forced                                   : No

  426. Text #25
  427. ID                                       : 29
  428. Format                                   : PGS
  429. Muxing mode                              : zlib
  430. Codec ID                                 : S_HDMV/PGS
  431. Codec ID/Info                            : Picture based subtitle format used on BDs/HD-DVDs
  432. Duration                                 : 1 h 31 min
  433. Bit rate                                 : 17.3 kb/s
  434. Count of elements                        : 1777
  435. Stream size                              : 11.4 MiB (0%)
  436. Title                                    : Polish-PGS
  437. Language                                 : Polish
  438. Default                                  : No
  439. Forced                                   : No

  440. Text #26
  441. ID                                       : 30
  442. Format                                   : PGS
  443. Muxing mode                              : zlib
  444. Codec ID                                 : S_HDMV/PGS
  445. Codec ID/Info                            : Picture based subtitle format used on BDs/HD-DVDs
  446. Duration                                 : 1 h 31 min
  447. Bit rate                                 : 22.2 kb/s
  448. Count of elements                        : 1797
  449. Stream size                              : 14.6 MiB (0%)
  450. Title                                    : Portuguese-PGS
  451. Language                                 : Portuguese
  452. Default                                  : No
  453. Forced                                   : No

  454. Text #27
  455. ID                                       : 31
  456. Format                                   : PGS
  457. Muxing mode                              : zlib
  458. Codec ID                                 : S_HDMV/PGS
  459. Codec ID/Info                            : Picture based subtitle format used on BDs/HD-DVDs
  460. Duration                                 : 38 min 13 s
  461. Bit rate                                 : 340 b/s
  462. Count of elements                        : 10
  463. Stream size                              : 95.2 KiB (0%)
  464. Title                                    : Portuguese-PGS
  465. Language                                 : Portuguese
  466. Default                                  : No
  467. Forced                                   : No

  468. Text #28
  469. ID                                       : 32
  470. Format                                   : PGS
  471. Muxing mode                              : zlib
  472. Codec ID                                 : S_HDMV/PGS
  473. Codec ID/Info                            : Picture based subtitle format used on BDs/HD-DVDs
  474. Duration                                 : 1 h 31 min
  475. Bit rate                                 : 24.1 kb/s
  476. Count of elements                        : 1775
  477. Stream size                              : 15.8 MiB (0%)
  478. Title                                    : Romanian-PGS
  479. Language                                 : Romanian
  480. Default                                  : No
  481. Forced                                   : No

  482. Text #29
  483. ID                                       : 33
  484. Format                                   : PGS
  485. Muxing mode                              : zlib
  486. Codec ID                                 : S_HDMV/PGS
  487. Codec ID/Info                            : Picture based subtitle format used on BDs/HD-DVDs
  488. Duration                                 : 1 h 31 min
  489. Bit rate                                 : 25.4 kb/s
  490. Count of elements                        : 1891
  491. Stream size                              : 16.7 MiB (0%)
  492. Title                                    : Russian-PGS
  493. Language                                 : Russian
  494. Default                                  : No
  495. Forced                                   : No

  496. Text #30
  497. ID                                       : 34
  498. Format                                   : PGS
  499. Muxing mode                              : zlib
  500. Codec ID                                 : S_HDMV/PGS
  501. Codec ID/Info                            : Picture based subtitle format used on BDs/HD-DVDs
  502. Duration                                 : 1 h 31 min
  503. Bit rate                                 : 21.8 kb/s
  504. Count of elements                        : 1777
  505. Stream size                              : 14.3 MiB (0%)
  506. Title                                    : Slovak-PGS
  507. Language                                 : Slovak
  508. Default                                  : No
  509. Forced                                   : No

  510. Text #31
  511. ID                                       : 35
  512. Format                                   : PGS
  513. Muxing mode                              : zlib
  514. Codec ID                                 : S_HDMV/PGS
  515. Codec ID/Info                            : Picture based subtitle format used on BDs/HD-DVDs
  516. Duration                                 : 1 h 31 min
  517. Bit rate                                 : 21.5 kb/s
  518. Count of elements                        : 1777
  519. Stream size                              : 14.1 MiB (0%)
  520. Title                                    : Slovenian-PGS
  521. Language                                 : Slovenian
  522. Default                                  : No
  523. Forced                                   : No

  524. Text #32
  525. ID                                       : 36
  526. Format                                   : PGS
  527. Muxing mode                              : zlib
  528. Codec ID                                 : S_HDMV/PGS
  529. Codec ID/Info                            : Picture based subtitle format used on BDs/HD-DVDs
  530. Duration                                 : 1 h 31 min
  531. Bit rate                                 : 21.5 kb/s
  532. Count of elements                        : 1779
  533. Stream size                              : 14.1 MiB (0%)
  534. Title                                    : Spanish-PGS
  535. Language                                 : Spanish
  536. Default                                  : No
  537. Forced                                   : No

  538. Text #33
  539. ID                                       : 37
  540. Format                                   : PGS
  541. Muxing mode                              : zlib
  542. Codec ID                                 : S_HDMV/PGS
  543. Codec ID/Info                            : Picture based subtitle format used on BDs/HD-DVDs
  544. Duration                                 : 1 h 31 min
  545. Bit rate                                 : 21.2 kb/s
  546. Count of elements                        : 1777
  547. Stream size                              : 13.9 MiB (0%)
  548. Title                                    : Spanish-PGS
  549. Language                                 : Spanish
  550. Default                                  : No
  551. Forced                                   : No

  552. Text #34
  553. ID                                       : 38
  554. Format                                   : PGS
  555. Muxing mode                              : zlib
  556. Codec ID                                 : S_HDMV/PGS
  557. Codec ID/Info                            : Picture based subtitle format used on BDs/HD-DVDs
  558. Duration                                 : 1 h 31 min
  559. Bit rate                                 : 20.1 kb/s
  560. Count of elements                        : 1293
  561. Stream size                              : 13.2 MiB (0%)
  562. Title                                    : Swedish-PGS
  563. Language                                 : Swedish
  564. Default                                  : No
  565. Forced                                   : No

  566. Text #35
  567. ID                                       : 39
  568. Format                                   : PGS
  569. Muxing mode                              : zlib
  570. Codec ID                                 : S_HDMV/PGS
  571. Codec ID/Info                            : Picture based subtitle format used on BDs/HD-DVDs
  572. Duration                                 : 1 h 31 min
  573. Bit rate                                 : 21.5 kb/s
  574. Count of elements                        : 1790
  575. Stream size                              : 14.1 MiB (0%)
  576. Title                                    : Thai-PGS
  577. Language                                 : Thai
  578. Default                                  : No
  579. Forced                                   : No

  580. Text #36
  581. ID                                       : 40
  582. Format                                   : PGS
  583. Muxing mode                              : zlib
  584. Codec ID                                 : S_HDMV/PGS
  585. Codec ID/Info                            : Picture based subtitle format used on BDs/HD-DVDs
  586. Duration                                 : 1 h 31 min
  587. Bit rate                                 : 21.6 kb/s
  588. Count of elements                        : 1783
  589. Stream size                              : 14.2 MiB (0%)
  590. Title                                    : Turkish-PGS
  591. Language                                 : Turkish
  592. Default                                  : No
  593. Forced                                   : No

  594. Menu
  595. 00:00:00.000                             : en:Chapter 01
  596. 00:06:55.998                             : en:Chapter 02
  597. 00:08:17.205                             : en:Chapter 03
  598. 00:11:32.358                             : en:Chapter 04
  599. 00:15:05.571                             : en:Chapter 05
  600. 00:23:14.601                             : en:Chapter 06
  601. 00:31:17.208                             : en:Chapter 07
  602. 00:37:25.993                             : en:Chapter 08
  603. 00:48:38.457                             : en:Chapter 09
  604. 00:55:38.543                             : en:Chapter 10
  605. 01:00:44.641                             : en:Chapter 11
  606. 01:03:02.737                             : en:Chapter 12
  607. 01:09:22.700                             : en:Chapter 13
  608. 01:15:41.870                             : en:Chapter 14
  609. 01:23:08.233                             : en:Chapter 15
  610. 01:28:14.747                             : en:Chapter 16
复制代码

霹雳娇娃/查理的天使 Charlies.Angels.2000.2160p.BluRay.x264.8bit.SDR.DTS-HD.MA.TrueHD.7.1.Atmos-SWTYBLZ 42.16GB-2.png 霹雳娇娃/查理的天使 Charlies.Angels.2000.2160p.BluRay.x264.8bit.SDR.DTS-HD.MA.TrueHD.7.1.Atmos-SWTYBLZ 42.16GB-3.png 霹雳娇娃/查理的天使 Charlies.Angels.2000.2160p.BluRay.x264.8bit.SDR.DTS-HD.MA.TrueHD.7.1.Atmos-SWTYBLZ 42.16GB-4.png 霹雳娇娃/查理的天使 Charlies.Angels.2000.2160p.BluRay.x264.8bit.SDR.DTS-HD.MA.TrueHD.7.1.Atmos-SWTYBLZ 42.16GB-5.png 霹雳娇娃/查理的天使 Charlies.Angels.2000.2160p.BluRay.x264.8bit.SDR.DTS-HD.MA.TrueHD.7.1.Atmos-SWTYBLZ 42.16GB-6.png 霹雳娇娃/查理的天使 Charlies.Angels.2000.2160p.BluRay.x264.8bit.SDR.DTS-HD.MA.TrueHD.7.1.Atmos-SWTYBLZ 42.16GB-7.png 霹雳娇娃/查理的天使 Charlies.Angels.2000.2160p.BluRay.x264.8bit.SDR.DTS-HD.MA.TrueHD.7.1.Atmos-SWTYBLZ 42.16GB-8.png







回复

使用道具 举报

已抛锚 成长值: 5530

发表于 5 天前 | 显示全部楼层
██████在-线-看-片bxxp7.c o m 】██████

██████在-线-看-片
bxxp7.c o m 】██████

██████在-线-看-片
bxxp7.c o m 】██████

██████在-线-看-片
bxxp7.c o m 】██████

██████在-线-看-片
bxxp7.c o m 】██████

██████在-线-看-片
bxxp7.c o m 】██████

██████在-线-看-片
bxxp7.c o m 】██████
回复 支持 反对

使用道具 举报

发表于 4 天前 | 显示全部楼层
这片没有2好看
回复 支持 反对

使用道具 举报

已抛锚 成长值: 5530

发表于 昨天 13:59 | 显示全部楼层
██████在-线-看-片bxxp7.c o m 】██████

██████在-线-看-片
bxxp7.c o m 】██████

██████在-线-看-片
bxxp7.c o m 】██████

██████在-线-看-片
bxxp7.c o m 】██████

██████在-线-看-片
bxxp7.c o m 】██████

██████在-线-看-片
bxxp7.c o m 】██████

██████在-线-看-片
bxxp7.c o m 】██████
回复 支持 反对

使用道具 举报

懒得打字嘛,点击右侧快捷回复 【右侧内容,后台自定义】
您需要登录后才可以回帖 登录 | 立即加入

本版积分规则

现在加入蓝光电影网,注册一个账号

QQ| 手机版|小黑屋| 蓝光电影网 |网站地图

Copyright © 2015-2019 Comsenz Inc.  Template by 蓝光电影论坛 All Rights Reserved.

Powered by 蓝光电影网 X3.4

特别声明:本站所有资源均由网上收集而来,版权归原影音公司所有,如果侵犯了你的权益,请通知我们,我们会及时删除侵权内容.

快速回复 返回顶部 返回列表