找回密码

蓝光电影网

查看: 248|回复: 10

[REMUX.HEVC] 霹雳娇娃/查理的天使 Charlies.Angels.2000.2160p.BluRay.REMUX.HEVC.DTS-HD.MA.TrueHD.7.1.Atmos-FGT 52.72GB

[复制链接]

 成长值: 23155

发表于 2019-10-24 13:19:15 | 显示全部楼层 |阅读模式
霹雳娇娃/查理的天使 Charlies.Angels.2000.2160p.BluRay.REMUX.HEVC.DTS-HD.MA.TrueHD.7.1.Atmos-FGT 52.72GB-1.png

译  名 霹雳娇娃 / 查理的天使 / 神探俏娇娃 / 霹雳天使
片  名 Charlie's Angels
年  代 2000
产  地 美国 / 德国
类  别 喜剧 / 动作 / 惊悚 / 犯罪 / 冒险
语  言 英语
上映日期 2000-11-03(美国) / 2001-02-13(中国大陆)
IMDb评分  5.5/10 from 165924 users
IMDb链接  https://www.imdb.com/title/tt0160127
豆瓣评分 6.8/10 from 63491 users
豆瓣链接 https://movie.douban.com/subject/1293258/
片  长 98 分钟
导  演 McG
编  剧 Ryan Rowe / Ed Solomon / John August
主  演 卡梅隆·迪亚兹 Cameron Diaz
       德鲁·巴里摩尔 Drew Barrymore
       刘玉玲 Lucy Liu
       比尔·默瑞 Bill Murray
       山姆·洛克威尔 Sam Rockwell
       凯莉·林奇 Kelly Lynch
       蒂姆·克里 Tim Curry
       克里斯平·格洛弗 Crispin Glover
       马特·勒布朗 Matt LeBlanc
       LL Cool J
       汤姆·格林 Tom Green
       卢克·威尔逊 Luke Wilson
       西恩·瓦兰 Sean Whalen
       亚历克斯·崔贝克 Alex Trebek
       Raliegh Wilson
       马克·瑞安 Mark Ryan
       Bobby Ore
       乔·杜尔 Joe Duer
       Reginald C. Hayes
       梅丽莎·麦卡西 Melissa McCarthy
       鲍勃·斯蒂芬森 Bob Stephenson
       耐德·巴拉米 Ned Bellamy
       Raymond Patterson
       Michael Barryte
       安德鲁·威尔逊 Andrew Wilson
       Branden Williams
       Diesel Pfingsten
       凯文·格雷维奥斯 Kevin Grevioux
       迈克尔·帕帕约翰 Michael Papajohn
       吉姆·帕尔默 Jim Palmer
       Shawn Woods
       小伊萨克·C.辛格尔顿 Isaac C. Singleton Jr.
       Paul Eliopoulos
       Tim Gilbert
       Al Goto
       Steven Ito
       费利佩·萨瓦赫奇 Felipe Savahge
       迈克·史密斯 Mike Smith
       杰瑞·特林伯 Jerry Trimble
       约翰·福赛思 John Forsythe
       Ivana Bozilovic
       佩姬·布鲁克斯 Paige Brooks
       Jennifer Cole
       艾菲恩·克洛科特 Affion Crockett
       凯伦·麦克道戈 Karen McDougal
       Paul Oliver
       Heather Elizabeth Parkhurst
       凯文·亚历山大·斯蒂亚 Kevin Alexander Stea
       苏西·斯蒂恩 Suzie Steen
       托尼·斯蒂夫阿诺 Tony Stef'Ano
       袁祥仁 Cheung-Yan Yuen


标  签 动作 | 美国 | 喜剧 | 美国电影 | 霹雳娇娃 | 2000 | 电影 | CameronDiaz

简  介  

  查理先生手下有三名女打手,她们才貌双全拥有一身好功夫,专门接受查理先生的命令为他人伸张正义。她们分别是:娜塔莉(卡梅伦?迪亚兹 饰)、戴兰(茱莉?巴里摩尔 饰)与艾利克斯(刘玉玲 饰)。
  她们最近接受了一个任务:艾瑞克?克诺斯(萨姆?罗克韦尔 饰)先生设计了一款高科技的声音辨别系统。艾瑞克却不幸被绑架了,这三名“天使”需要从不法分子手中拯救艾瑞克。因为这套由艾瑞克设计的高科技系统,一旦被不法分子利用的话后果堪虞。
  三位“天使”得知情况后,很快联想到了艾瑞克公司的对手,该负责人罗格成为了最大的嫌疑。三人于是日夜调查罗格的行踪,也掌握了重要的线索。正在她们有把握拯救艾瑞克的时候,一通电话打破了她们三人的全盘计划。
  1. Video
  2. ID                                       : 1
  3. Format                                   : HEVC
  4. Format/Info                              : High Efficiency Video Coding
  5. Format profile                           : Main High@L4@High
  6. HDR format                               : SMPTE ST 2086, HDR10 compatible
  7. Codec ID                                 : V_MPEGH/ISO/HEVC
  8. Duration                                 : 1 h 38 min
  9. Bit rate                                 : 53.9 Mb/s
  10. Width                                    : 3 840 pixels
  11. Height                                   : 2 160 pixels
  12. Display aspect ratio                     : 16:9
  13. Frame rate mode                          : Constant
  14. Frame rate                               : 23.976 (24000/1001) FPS
  15. Color space                              : YUV
  16. Chroma subsampling                       : 4:2:0 (Type 2)
  17. Bit depth                                : 10 bits
  18. Bits/(Pixel*Frame)                       : 0.271
  19. Stream size                              : 37.0 GiB (70%)
  20. Title                                    : Charlies.Angels.2000.2160p.BluRay.REMUX.HEVC.DTS-HD.MA.TrueHD.7.1.Atmos-FGT
  21. Language                                 : English
  22. Default                                  : No
  23. Forced                                   : No
  24. Color range                              : Limited
  25. Color primaries                          : BT.2020
  26. Transfer characteristics                 : PQ
  27. Matrix coefficients                      : BT.2020 non-constant
  28. Mastering display color primaries        : Display P3
  29. Mastering display luminance              : min: 0.0050 cd/m2, max: 4000 cd/m2
  30. Maximum Content Light Level              : 3991 cd/m2
  31. Maximum Frame-Average Light Level        : 1021 cd/m2

  32. Audio #1
  33. ID                                       : 2
  34. Format                                   : MLP FBA 16-ch
  35. Format/Info                              : Meridian Lossless Packing FBA with 16-channel presentation
  36. Commercial name                          : Dolby TrueHD with Dolby Atmos
  37. Codec ID                                 : A_TRUEHD
  38. Duration                                 : 1 h 38 min
  39. Bit rate mode                            : Variable
  40. Bit rate                                 : 3 655 kb/s
  41. Maximum bit rate                         : 6 054 kb/s
  42. Channel(s)                               : 8 channels
  43. Channel layout                           : L R C LFE Ls Rs Lb Rb
  44. Sampling rate                            : 48.0 kHz
  45. Frame rate                               : 1 200.000 FPS (40 SPF)
  46. Compression mode                         : Lossless
  47. Stream size                              : 2.51 GiB (5%)
  48. Title                                    : Charlies.Angels.2000.2160p.BluRay.REMUX.HEVC.DTS-HD.MA.TrueHD.7.1.Atmos-FGT
  49. Language                                 : English
  50. Default                                  : Yes
  51. Forced                                   : No
  52. Number of dynamic objects                : 11
  53. Bed channel count                        : 1 channel
  54. Bed channel configuration                : LFE

  55. Audio #2
  56. ID                                       : 3
  57. Format                                   : DTS XLL
  58. Format/Info                              : Digital Theater Systems
  59. Commercial name                          : DTS-HD Master Audio
  60. Codec ID                                 : A_DTS
  61. Duration                                 : 1 h 38 min
  62. Bit rate mode                            : Variable
  63. Bit rate                                 : 4 385 kb/s
  64. Channel(s)                               : 8 channels
  65. Channel layout                           : C L R LFE Lb Rb Lss Rss
  66. Sampling rate                            : 48.0 kHz
  67. Frame rate                               : 93.750 FPS (512 SPF)
  68. Bit depth                                : 24 bits
  69. Compression mode                         : Lossless
  70. Stream size                              : 3.01 GiB (6%)
  71. Title                                    : Charlies.Angels.2000.2160p.BluRay.REMUX.HEVC.DTS-HD.MA.TrueHD.7.1.Atmos-FGT
  72. Language                                 : English
  73. Default                                  : No
  74. Forced                                   : No

  75. Audio #3
  76. ID                                       : 4
  77. Format                                   : AC-3
  78. Format/Info                              : Audio Coding 3
  79. Commercial name                          : Dolby Digital
  80. Codec ID                                 : A_AC3
  81. Duration                                 : 1 h 38 min
  82. Bit rate mode                            : Constant
  83. Bit rate                                 : 640 kb/s
  84. Channel(s)                               : 6 channels
  85. Channel layout                           : L R C LFE Ls Rs
  86. Sampling rate                            : 48.0 kHz
  87. Frame rate                               : 31.250 FPS (1536 SPF)
  88. Bit depth                                : 16 bits
  89. Compression mode                         : Lossy
  90. Stream size                              : 450 MiB (1%)
  91. Title                                    : Charlies.Angels.2000.2160p.BluRay.REMUX.HEVC.DTS-HD.MA.TrueHD.7.1.Atmos-FGT
  92. Language                                 : English
  93. Service kind                             : Complete Main
  94. Default                                  : No
  95. Forced                                   : No

  96. Audio #4
  97. ID                                       : 5
  98. Format                                   : AC-3
  99. Format/Info                              : Audio Coding 3
  100. Commercial name                          : Dolby Digital
  101. Codec ID                                 : A_AC3
  102. Duration                                 : 1 h 38 min
  103. Bit rate mode                            : Constant
  104. Bit rate                                 : 640 kb/s
  105. Channel(s)                               : 6 channels
  106. Channel layout                           : L R C LFE Ls Rs
  107. Sampling rate                            : 48.0 kHz
  108. Frame rate                               : 31.250 FPS (1536 SPF)
  109. Bit depth                                : 16 bits
  110. Compression mode                         : Lossy
  111. Stream size                              : 450 MiB (1%)
  112. Title                                    : Charlies.Angels.2000.2160p.BluRay.REMUX.HEVC.DTS-HD.MA.TrueHD.7.1.Atmos-FGT
  113. Language                                 : Czech
  114. Service kind                             : Complete Main
  115. Default                                  : No
  116. Forced                                   : No

  117. Audio #5
  118. ID                                       : 6
  119. Format                                   : DTS XLL
  120. Format/Info                              : Digital Theater Systems
  121. Commercial name                          : DTS-HD Master Audio
  122. Codec ID                                 : A_DTS
  123. Duration                                 : 1 h 38 min
  124. Bit rate mode                            : Variable
  125. Bit rate                                 : 2 353 kb/s
  126. Channel(s)                               : 6 channels
  127. Channel layout                           : C L R Ls Rs LFE
  128. Sampling rate                            : 48.0 kHz
  129. Frame rate                               : 93.750 FPS (512 SPF)
  130. Bit depth                                : 16 bits
  131. Compression mode                         : Lossless
  132. Stream size                              : 1.62 GiB (3%)
  133. Title                                    : Charlies.Angels.2000.2160p.BluRay.REMUX.HEVC.DTS-HD.MA.TrueHD.7.1.Atmos-FGT
  134. Language                                 : French
  135. Default                                  : No
  136. Forced                                   : No

  137. Audio #6
  138. ID                                       : 7
  139. Format                                   : DTS XLL
  140. Format/Info                              : Digital Theater Systems
  141. Commercial name                          : DTS-HD Master Audio
  142. Codec ID                                 : A_DTS
  143. Duration                                 : 1 h 38 min
  144. Bit rate mode                            : Variable
  145. Bit rate                                 : 2 306 kb/s
  146. Channel(s)                               : 6 channels
  147. Channel layout                           : C L R Ls Rs LFE
  148. Sampling rate                            : 48.0 kHz
  149. Frame rate                               : 93.750 FPS (512 SPF)
  150. Bit depth                                : 16 bits
  151. Compression mode                         : Lossless
  152. Stream size                              : 1.59 GiB (3%)
  153. Title                                    : Charlies.Angels.2000.2160p.BluRay.REMUX.HEVC.DTS-HD.MA.TrueHD.7.1.Atmos-FGT
  154. Language                                 : German
  155. Default                                  : No
  156. Forced                                   : No

  157. Audio #7
  158. ID                                       : 8
  159. Format                                   : AC-3
  160. Format/Info                              : Audio Coding 3
  161. Commercial name                          : Dolby Digital
  162. Codec ID                                 : A_AC3
  163. Duration                                 : 1 h 38 min
  164. Bit rate mode                            : Constant
  165. Bit rate                                 : 192 kb/s
  166. Channel(s)                               : 2 channels
  167. Channel layout                           : L R
  168. Sampling rate                            : 48.0 kHz
  169. Frame rate                               : 31.250 FPS (1536 SPF)
  170. Bit depth                                : 16 bits
  171. Compression mode                         : Lossy
  172. Stream size                              : 135 MiB (0%)
  173. Title                                    : Charlies.Angels.2000.2160p.BluRay.REMUX.HEVC.DTS-HD.MA.TrueHD.7.1.Atmos-FGT
  174. Language                                 : Hindi
  175. Service kind                             : Complete Main
  176. Default                                  : No
  177. Forced                                   : No

  178. Audio #8
  179. ID                                       : 9
  180. Format                                   : AC-3
  181. Format/Info                              : Audio Coding 3
  182. Commercial name                          : Dolby Digital
  183. Codec ID                                 : A_AC3
  184. Duration                                 : 1 h 38 min
  185. Bit rate mode                            : Constant
  186. Bit rate                                 : 640 kb/s
  187. Channel(s)                               : 6 channels
  188. Channel layout                           : L R C LFE Ls Rs
  189. Sampling rate                            : 48.0 kHz
  190. Frame rate                               : 31.250 FPS (1536 SPF)
  191. Bit depth                                : 16 bits
  192. Compression mode                         : Lossy
  193. Stream size                              : 450 MiB (1%)
  194. Title                                    : Charlies.Angels.2000.2160p.BluRay.REMUX.HEVC.DTS-HD.MA.TrueHD.7.1.Atmos-FGT
  195. Language                                 : Hungarian
  196. Service kind                             : Complete Main
  197. Default                                  : No
  198. Forced                                   : No

  199. Audio #9
  200. ID                                       : 10
  201. Format                                   : AC-3
  202. Format/Info                              : Audio Coding 3
  203. Commercial name                          : Dolby Digital
  204. Codec ID                                 : A_AC3
  205. Duration                                 : 1 h 38 min
  206. Bit rate mode                            : Constant
  207. Bit rate                                 : 640 kb/s
  208. Channel(s)                               : 6 channels
  209. Channel layout                           : L R C LFE Ls Rs
  210. Sampling rate                            : 48.0 kHz
  211. Frame rate                               : 31.250 FPS (1536 SPF)
  212. Bit depth                                : 16 bits
  213. Compression mode                         : Lossy
  214. Stream size                              : 450 MiB (1%)
  215. Title                                    : Charlies.Angels.2000.2160p.BluRay.REMUX.HEVC.DTS-HD.MA.TrueHD.7.1.Atmos-FGT
  216. Language                                 : Italian
  217. Service kind                             : Complete Main
  218. Default                                  : No
  219. Forced                                   : No

  220. Audio #10
  221. ID                                       : 11
  222. Format                                   : AC-3
  223. Format/Info                              : Audio Coding 3
  224. Commercial name                          : Dolby Digital
  225. Codec ID                                 : A_AC3
  226. Duration                                 : 1 h 38 min
  227. Bit rate mode                            : Constant
  228. Bit rate                                 : 640 kb/s
  229. Channel(s)                               : 6 channels
  230. Channel layout                           : L R C LFE Ls Rs
  231. Sampling rate                            : 48.0 kHz
  232. Frame rate                               : 31.250 FPS (1536 SPF)
  233. Bit depth                                : 16 bits
  234. Compression mode                         : Lossy
  235. Stream size                              : 450 MiB (1%)
  236. Title                                    : Charlies.Angels.2000.2160p.BluRay.REMUX.HEVC.DTS-HD.MA.TrueHD.7.1.Atmos-FGT
  237. Language                                 : Japanese
  238. Service kind                             : Complete Main
  239. Default                                  : No
  240. Forced                                   : No

  241. Audio #11
  242. ID                                       : 12
  243. Format                                   : AC-3
  244. Format/Info                              : Audio Coding 3
  245. Commercial name                          : Dolby Digital
  246. Codec ID                                 : A_AC3
  247. Duration                                 : 1 h 38 min
  248. Bit rate mode                            : Constant
  249. Bit rate                                 : 640 kb/s
  250. Channel(s)                               : 6 channels
  251. Channel layout                           : L R C LFE Ls Rs
  252. Sampling rate                            : 48.0 kHz
  253. Frame rate                               : 31.250 FPS (1536 SPF)
  254. Bit depth                                : 16 bits
  255. Compression mode                         : Lossy
  256. Stream size                              : 450 MiB (1%)
  257. Title                                    : Charlies.Angels.2000.2160p.BluRay.REMUX.HEVC.DTS-HD.MA.TrueHD.7.1.Atmos-FGT
  258. Language                                 : Polish
  259. Service kind                             : Complete Main
  260. Default                                  : No
  261. Forced                                   : No

  262. Audio #12
  263. ID                                       : 13
  264. Format                                   : AC-3
  265. Format/Info                              : Audio Coding 3
  266. Commercial name                          : Dolby Digital
  267. Codec ID                                 : A_AC3
  268. Duration                                 : 1 h 38 min
  269. Bit rate mode                            : Constant
  270. Bit rate                                 : 640 kb/s
  271. Channel(s)                               : 6 channels
  272. Channel layout                           : L R C LFE Ls Rs
  273. Sampling rate                            : 48.0 kHz
  274. Frame rate                               : 31.250 FPS (1536 SPF)
  275. Bit depth                                : 16 bits
  276. Compression mode                         : Lossy
  277. Stream size                              : 450 MiB (1%)
  278. Title                                    : Charlies.Angels.2000.2160p.BluRay.REMUX.HEVC.DTS-HD.MA.TrueHD.7.1.Atmos-FGT
  279. Language                                 : Portuguese
  280. Service kind                             : Complete Main
  281. Default                                  : No
  282. Forced                                   : No

  283. Audio #13
  284. ID                                       : 14
  285. Format                                   : AC-3
  286. Format/Info                              : Audio Coding 3
  287. Commercial name                          : Dolby Digital
  288. Codec ID                                 : A_AC3
  289. Duration                                 : 1 h 38 min
  290. Bit rate mode                            : Constant
  291. Bit rate                                 : 640 kb/s
  292. Channel(s)                               : 6 channels
  293. Channel layout                           : L R C LFE Ls Rs
  294. Sampling rate                            : 48.0 kHz
  295. Frame rate                               : 31.250 FPS (1536 SPF)
  296. Bit depth                                : 16 bits
  297. Compression mode                         : Lossy
  298. Stream size                              : 450 MiB (1%)
  299. Title                                    : Charlies.Angels.2000.2160p.BluRay.REMUX.HEVC.DTS-HD.MA.TrueHD.7.1.Atmos-FGT
  300. Language                                 : Russian
  301. Service kind                             : Complete Main
  302. Default                                  : No
  303. Forced                                   : No

  304. Audio #14
  305. ID                                       : 15
  306. Format                                   : DTS XLL
  307. Format/Info                              : Digital Theater Systems
  308. Commercial name                          : DTS-HD Master Audio
  309. Codec ID                                 : A_DTS
  310. Duration                                 : 1 h 38 min
  311. Bit rate mode                            : Variable
  312. Bit rate                                 : 2 312 kb/s
  313. Channel(s)                               : 6 channels
  314. Channel layout                           : C L R Ls Rs LFE
  315. Sampling rate                            : 48.0 kHz
  316. Frame rate                               : 93.750 FPS (512 SPF)
  317. Bit depth                                : 16 bits
  318. Compression mode                         : Lossless
  319. Stream size                              : 1.59 GiB (3%)
  320. Title                                    : Charlies.Angels.2000.2160p.BluRay.REMUX.HEVC.DTS-HD.MA.TrueHD.7.1.Atmos-FGT
  321. Language                                 : Spanish
  322. Default                                  : No
  323. Forced                                   : No

  324. Audio #15
  325. ID                                       : 16
  326. Format                                   : AC-3
  327. Format/Info                              : Audio Coding 3
  328. Commercial name                          : Dolby Digital
  329. Codec ID                                 : A_AC3
  330. Duration                                 : 1 h 38 min
  331. Bit rate mode                            : Constant
  332. Bit rate                                 : 640 kb/s
  333. Channel(s)                               : 6 channels
  334. Channel layout                           : L R C LFE Ls Rs
  335. Sampling rate                            : 48.0 kHz
  336. Frame rate                               : 31.250 FPS (1536 SPF)
  337. Bit depth                                : 16 bits
  338. Compression mode                         : Lossy
  339. Stream size                              : 450 MiB (1%)
  340. Title                                    : Charlies.Angels.2000.2160p.BluRay.REMUX.HEVC.DTS-HD.MA.TrueHD.7.1.Atmos-FGT
  341. Language                                 : Spanish
  342. Service kind                             : Complete Main
  343. Default                                  : No
  344. Forced                                   : No

  345. Audio #16
  346. ID                                       : 17
  347. Format                                   : AC-3
  348. Format/Info                              : Audio Coding 3
  349. Commercial name                          : Dolby Digital
  350. Codec ID                                 : A_AC3
  351. Duration                                 : 1 h 38 min
  352. Bit rate mode                            : Constant
  353. Bit rate                                 : 192 kb/s
  354. Channel(s)                               : 2 channels
  355. Channel layout                           : L R
  356. Sampling rate                            : 48.0 kHz
  357. Frame rate                               : 31.250 FPS (1536 SPF)
  358. Bit depth                                : 16 bits
  359. Compression mode                         : Lossy
  360. Stream size                              : 135 MiB (0%)
  361. Title                                    : Charlies.Angels.2000.2160p.BluRay.REMUX.HEVC.DTS-HD.MA.TrueHD.7.1.Atmos-FGT
  362. Language                                 : Tamil
  363. Service kind                             : Complete Main
  364. Default                                  : No
  365. Forced                                   : No

  366. Audio #17
  367. ID                                       : 18
  368. Format                                   : AC-3
  369. Format/Info                              : Audio Coding 3
  370. Commercial name                          : Dolby Digital
  371. Codec ID                                 : A_AC3
  372. Duration                                 : 1 h 38 min
  373. Bit rate mode                            : Constant
  374. Bit rate                                 : 640 kb/s
  375. Channel(s)                               : 6 channels
  376. Channel layout                           : L R C LFE Ls Rs
  377. Sampling rate                            : 48.0 kHz
  378. Frame rate                               : 31.250 FPS (1536 SPF)
  379. Bit depth                                : 16 bits
  380. Compression mode                         : Lossy
  381. Stream size                              : 450 MiB (1%)
  382. Title                                    : Charlies.Angels.2000.2160p.BluRay.REMUX.HEVC.DTS-HD.MA.TrueHD.7.1.Atmos-FGT
  383. Language                                 : Telugu
  384. Service kind                             : Complete Main
  385. Default                                  : No
  386. Forced                                   : No

  387. Audio #18
  388. ID                                       : 19
  389. Format                                   : AC-3
  390. Format/Info                              : Audio Coding 3
  391. Commercial name                          : Dolby Digital
  392. Codec ID                                 : A_AC3
  393. Duration                                 : 1 h 38 min
  394. Bit rate mode                            : Constant
  395. Bit rate                                 : 640 kb/s
  396. Channel(s)                               : 6 channels
  397. Channel layout                           : L R C LFE Ls Rs
  398. Sampling rate                            : 48.0 kHz
  399. Frame rate                               : 31.250 FPS (1536 SPF)
  400. Bit depth                                : 16 bits
  401. Compression mode                         : Lossy
  402. Stream size                              : 450 MiB (1%)
  403. Title                                    : Charlies.Angels.2000.2160p.BluRay.REMUX.HEVC.DTS-HD.MA.TrueHD.7.1.Atmos-FGT
  404. Language                                 : Thai
  405. Service kind                             : Complete Main
  406. Default                                  : No
  407. Forced                                   : No

  408. Text #1
  409. ID                                       : 20
  410. Format                                   : UTF-8
  411. Codec ID                                 : S_TEXT/UTF8
  412. Codec ID/Info                            : UTF-8 Plain Text
  413. Duration                                 : 11 s 508 ms
  414. Bit rate                                 : 98 b/s
  415. Count of elements                        : 4
  416. Stream size                              : 141 Bytes (0%)
  417. Title                                    : English-FORCED-SRT
  418. Language                                 : English
  419. Default                                  : Yes
  420. Forced                                   : No

  421. Text #2
  422. ID                                       : 21
  423. Format                                   : UTF-8
  424. Codec ID                                 : S_TEXT/UTF8
  425. Codec ID/Info                            : UTF-8 Plain Text
  426. Duration                                 : 1 h 31 min
  427. Bit rate                                 : 40 b/s
  428. Count of elements                        : 913
  429. Stream size                              : 27.5 KiB (0%)
  430. Title                                    : English-SRT
  431. Language                                 : English
  432. Default                                  : No
  433. Forced                                   : No

  434. Text #3
  435. ID                                       : 22
  436. Format                                   : PGS
  437. Muxing mode                              : zlib
  438. Codec ID                                 : S_HDMV/PGS
  439. Codec ID/Info                            : Picture based subtitle format used on BDs/HD-DVDs
  440. Duration                                 : 1 h 37 min
  441. Bit rate                                 : 33.7 kb/s
  442. Count of elements                        : 2732
  443. Stream size                              : 23.6 MiB (0%)
  444. Title                                    : English-SDH-PGS
  445. Language                                 : English
  446. Default                                  : No
  447. Forced                                   : No

  448. Text #4
  449. ID                                       : 23
  450. Format                                   : PGS
  451. Muxing mode                              : zlib
  452. Codec ID                                 : S_HDMV/PGS
  453. Codec ID/Info                            : Picture based subtitle format used on BDs/HD-DVDs
  454. Duration                                 : 1 h 31 min
  455. Bit rate                                 : 24.3 kb/s
  456. Count of elements                        : 1835
  457. Stream size                              : 16.0 MiB (0%)
  458. Title                                    : English-PGS
  459. Language                                 : English
  460. Default                                  : No
  461. Forced                                   : No

  462. Text #5
  463. ID                                       : 24
  464. Format                                   : PGS
  465. Muxing mode                              : zlib
  466. Codec ID                                 : S_HDMV/PGS
  467. Codec ID/Info                            : Picture based subtitle format used on BDs/HD-DVDs
  468. Duration                                 : 11 s 533 ms
  469. Bit rate                                 : 57.0 kb/s
  470. Count of elements                        : 8
  471. Stream size                              : 80.2 KiB (0%)
  472. Title                                    : English-FORCED-PGS
  473. Language                                 : English
  474. Default                                  : No
  475. Forced                                   : No

  476. Text #6
  477. ID                                       : 25
  478. Format                                   : PGS
  479. Muxing mode                              : zlib
  480. Codec ID                                 : S_HDMV/PGS
  481. Codec ID/Info                            : Picture based subtitle format used on BDs/HD-DVDs
  482. Duration                                 : 1 h 37 min
  483. Bit rate                                 : 33.7 kb/s
  484. Count of elements                        : 2732
  485. Stream size                              : 23.6 MiB (0%)
  486. Title                                    : English-SDH-PGS
  487. Language                                 : English
  488. Default                                  : No
  489. Forced                                   : No

  490. Text #7
  491. ID                                       : 26
  492. Format                                   : PGS
  493. Muxing mode                              : zlib
  494. Codec ID                                 : S_HDMV/PGS
  495. Codec ID/Info                            : Picture based subtitle format used on BDs/HD-DVDs
  496. Duration                                 : 1 h 31 min
  497. Bit rate                                 : 24.3 kb/s
  498. Count of elements                        : 1839
  499. Stream size                              : 16.0 MiB (0%)
  500. Title                                    : English-PGS
  501. Language                                 : English
  502. Default                                  : No
  503. Forced                                   : No

  504. Text #8
  505. ID                                       : 27
  506. Format                                   : PGS
  507. Muxing mode                              : zlib
  508. Codec ID                                 : S_HDMV/PGS
  509. Codec ID/Info                            : Picture based subtitle format used on BDs/HD-DVDs
  510. Duration                                 : 11 s 533 ms
  511. Bit rate                                 : 57.0 kb/s
  512. Count of elements                        : 8
  513. Stream size                              : 80.2 KiB (0%)
  514. Title                                    : Egnlish-FORCED-PGS
  515. Language                                 : English
  516. Default                                  : No
  517. Forced                                   : No

  518. Text #9
  519. ID                                       : 28
  520. Format                                   : PGS
  521. Muxing mode                              : zlib
  522. Codec ID                                 : S_HDMV/PGS
  523. Codec ID/Info                            : Picture based subtitle format used on BDs/HD-DVDs
  524. Duration                                 : 1 h 31 min
  525. Bit rate                                 : 13.6 kb/s
  526. Count of elements                        : 1795
  527. Stream size                              : 8.94 MiB (0%)
  528. Title                                    : Arabic-PGS
  529. Language                                 : Arabic
  530. Default                                  : No
  531. Forced                                   : No

  532. Text #10
  533. ID                                       : 29
  534. Format                                   : PGS
  535. Muxing mode                              : zlib
  536. Codec ID                                 : S_HDMV/PGS
  537. Codec ID/Info                            : Picture based subtitle format used on BDs/HD-DVDs
  538. Duration                                 : 1 h 31 min
  539. Bit rate                                 : 19.2 kb/s
  540. Count of elements                        : 1813
  541. Stream size                              : 12.6 MiB (0%)
  542. Title                                    : Chinese-PGS
  543. Language                                 : Chinese
  544. Default                                  : No
  545. Forced                                   : No

  546. Text #11
  547. ID                                       : 30
  548. Format                                   : PGS
  549. Muxing mode                              : zlib
  550. Codec ID                                 : S_HDMV/PGS
  551. Codec ID/Info                            : Picture based subtitle format used on BDs/HD-DVDs
  552. Duration                                 : 1 h 31 min
  553. Bit rate                                 : 20.9 kb/s
  554. Count of elements                        : 1784
  555. Stream size                              : 13.7 MiB (0%)
  556. Title                                    : Czech-PGS
  557. Language                                 : Czech
  558. Default                                  : No
  559. Forced                                   : No

  560. Text #12
  561. ID                                       : 31
  562. Format                                   : PGS
  563. Muxing mode                              : zlib
  564. Codec ID                                 : S_HDMV/PGS
  565. Codec ID/Info                            : Picture based subtitle format used on BDs/HD-DVDs
  566. Duration                                 : 1 h 19 min
  567. Bit rate                                 : 582 b/s
  568. Count of elements                        : 42
  569. Stream size                              : 341 KiB (0%)
  570. Title                                    : Czech-FORCED-PGS
  571. Language                                 : Czech
  572. Default                                  : No
  573. Forced                                   : No

  574. Text #13
  575. ID                                       : 32
  576. Format                                   : PGS
  577. Muxing mode                              : zlib
  578. Codec ID                                 : S_HDMV/PGS
  579. Codec ID/Info                            : Picture based subtitle format used on BDs/HD-DVDs
  580. Duration                                 : 1 h 31 min
  581. Bit rate                                 : 20.4 kb/s
  582. Count of elements                        : 1284
  583. Stream size                              : 13.4 MiB (0%)
  584. Title                                    : Danish-PGS
  585. Language                                 : Danish
  586. Default                                  : No
  587. Forced                                   : No

  588. Text #14
  589. ID                                       : 33
  590. Format                                   : PGS
  591. Muxing mode                              : zlib
  592. Codec ID                                 : S_HDMV/PGS
  593. Codec ID/Info                            : Picture based subtitle format used on BDs/HD-DVDs
  594. Duration                                 : 1 h 31 min
  595. Bit rate                                 : 21.0 kb/s
  596. Count of elements                        : 1343
  597. Stream size                              : 13.8 MiB (0%)
  598. Title                                    : Dutch-PGS
  599. Language                                 : Dutch
  600. Default                                  : No
  601. Forced                                   : No

  602. Text #15
  603. ID                                       : 34
  604. Format                                   : PGS
  605. Muxing mode                              : zlib
  606. Codec ID                                 : S_HDMV/PGS
  607. Codec ID/Info                            : Picture based subtitle format used on BDs/HD-DVDs
  608. Duration                                 : 1 h 31 min
  609. Bit rate                                 : 22.1 kb/s
  610. Count of elements                        : 1296
  611. Stream size                              : 14.5 MiB (0%)
  612. Title                                    : Finnish-PGS
  613. Language                                 : Finnish
  614. Default                                  : No
  615. Forced                                   : No

  616. Text #16
  617. ID                                       : 35
  618. Format                                   : PGS
  619. Muxing mode                              : zlib
  620. Codec ID                                 : S_HDMV/PGS
  621. Codec ID/Info                            : Picture based subtitle format used on BDs/HD-DVDs
  622. Duration                                 : 1 h 37 min
  623. Bit rate                                 : 22.0 kb/s
  624. Count of elements                        : 1787
  625. Stream size                              : 15.3 MiB (0%)
  626. Title                                    : French-PGS
  627. Language                                 : French
  628. Default                                  : No
  629. Forced                                   : No

  630. Text #17
  631. ID                                       : 36
  632. Format                                   : PGS
  633. Muxing mode                              : zlib
  634. Codec ID                                 : S_HDMV/PGS
  635. Codec ID/Info                            : Picture based subtitle format used on BDs/HD-DVDs
  636. Duration                                 : 1 h 32 min
  637. Bit rate                                 : 466 b/s
  638. Count of elements                        : 42
  639. Stream size                              : 317 KiB (0%)
  640. Title                                    : French-FORCED-PGS
  641. Language                                 : French
  642. Default                                  : No
  643. Forced                                   : No

  644. Text #18
  645. ID                                       : 37
  646. Format                                   : PGS
  647. Muxing mode                              : zlib
  648. Codec ID                                 : S_HDMV/PGS
  649. Codec ID/Info                            : Picture based subtitle format used on BDs/HD-DVDs
  650. Duration                                 : 1 h 31 min
  651. Bit rate                                 : 21.9 kb/s
  652. Count of elements                        : 1308
  653. Stream size                              : 14.4 MiB (0%)
  654. Title                                    : German-PGS
  655. Language                                 : German
  656. Default                                  : No
  657. Forced                                   : No

  658. Text #19
  659. ID                                       : 38
  660. Format                                   : PGS
  661. Muxing mode                              : zlib
  662. Codec ID                                 : S_HDMV/PGS
  663. Codec ID/Info                            : Picture based subtitle format used on BDs/HD-DVDs
  664. Duration                                 : 1 h 22 min
  665. Bit rate                                 : 475 b/s
  666. Count of elements                        : 40
  667. Stream size                              : 287 KiB (0%)
  668. Title                                    : German-FORCED-PGS
  669. Language                                 : German
  670. Default                                  : No
  671. Forced                                   : No

  672. Text #20
  673. ID                                       : 39
  674. Format                                   : PGS
  675. Muxing mode                              : zlib
  676. Codec ID                                 : S_HDMV/PGS
  677. Codec ID/Info                            : Picture based subtitle format used on BDs/HD-DVDs
  678. Duration                                 : 1 h 31 min
  679. Bit rate                                 : 19.3 kb/s
  680. Count of elements                        : 1781
  681. Stream size                              : 12.7 MiB (0%)
  682. Title                                    : Greek-PGS
  683. Language                                 : Greek
  684. Default                                  : No
  685. Forced                                   : No

  686. Text #21
  687. ID                                       : 40
  688. Format                                   : PGS
  689. Muxing mode                              : zlib
  690. Codec ID                                 : S_HDMV/PGS
  691. Codec ID/Info                            : Picture based subtitle format used on BDs/HD-DVDs
  692. Duration                                 : 1 h 37 min
  693. Bit rate                                 : 18.0 kb/s
  694. Count of elements                        : 1815
  695. Stream size                              : 12.6 MiB (0%)
  696. Title                                    : Hindi-PGS
  697. Language                                 : Hindi
  698. Default                                  : No
  699. Forced                                   : No

  700. Text #22
  701. ID                                       : 41
  702. Format                                   : PGS
  703. Muxing mode                              : zlib
  704. Codec ID                                 : S_HDMV/PGS
  705. Codec ID/Info                            : Picture based subtitle format used on BDs/HD-DVDs
  706. Duration                                 : 1 h 32 min
  707. Bit rate                                 : 424 b/s
  708. Count of elements                        : 56
  709. Stream size                              : 288 KiB (0%)
  710. Title                                    : Hindi-FORCED-PGS
  711. Language                                 : Hindi
  712. Default                                  : No
  713. Forced                                   : No

  714. Text #23
  715. ID                                       : 42
  716. Format                                   : PGS
  717. Muxing mode                              : zlib
  718. Codec ID                                 : S_HDMV/PGS
  719. Codec ID/Info                            : Picture based subtitle format used on BDs/HD-DVDs
  720. Duration                                 : 1 h 37 min
  721. Bit rate                                 : 17.2 kb/s
  722. Count of elements                        : 1787
  723. Stream size                              : 12.0 MiB (0%)
  724. Title                                    : Hungarian-PGS
  725. Language                                 : Hungarian
  726. Default                                  : No
  727. Forced                                   : No

  728. Text #24
  729. ID                                       : 43
  730. Format                                   : PGS
  731. Muxing mode                              : zlib
  732. Codec ID                                 : S_HDMV/PGS
  733. Codec ID/Info                            : Picture based subtitle format used on BDs/HD-DVDs
  734. Duration                                 : 1 h 21 min
  735. Bit rate                                 : 260 b/s
  736. Count of elements                        : 28
  737. Stream size                              : 156 KiB (0%)
  738. Title                                    : Hungarian-FORCED-PGS
  739. Language                                 : Hungarian
  740. Default                                  : No
  741. Forced                                   : No

  742. Text #25
  743. ID                                       : 44
  744. Format                                   : PGS
  745. Muxing mode                              : zlib
  746. Codec ID                                 : S_HDMV/PGS
  747. Codec ID/Info                            : Picture based subtitle format used on BDs/HD-DVDs
  748. Duration                                 : 1 h 31 min
  749. Bit rate                                 : 22.4 kb/s
  750. Count of elements                        : 1783
  751. Stream size                              : 14.7 MiB (0%)
  752. Title                                    : Italian-PGS
  753. Language                                 : Italian
  754. Default                                  : No
  755. Forced                                   : No

  756. Text #26
  757. ID                                       : 45
  758. Format                                   : PGS
  759. Muxing mode                              : zlib
  760. Codec ID                                 : S_HDMV/PGS
  761. Codec ID/Info                            : Picture based subtitle format used on BDs/HD-DVDs
  762. Duration                                 : 1 h 19 min
  763. Bit rate                                 : 543 b/s
  764. Count of elements                        : 44
  765. Stream size                              : 318 KiB (0%)
  766. Title                                    : Italian-FORCED-PGS
  767. Language                                 : Italian
  768. Default                                  : No
  769. Forced                                   : No

  770. Text #27
  771. ID                                       : 46
  772. Format                                   : PGS
  773. Muxing mode                              : zlib
  774. Codec ID                                 : S_HDMV/PGS
  775. Codec ID/Info                            : Picture based subtitle format used on BDs/HD-DVDs
  776. Duration                                 : 1 h 31 min
  777. Bit rate                                 : 18.2 kb/s
  778. Count of elements                        : 1840
  779. Stream size                              : 12.0 MiB (0%)
  780. Title                                    : Japanese-PGS
  781. Language                                 : Japanese
  782. Default                                  : No
  783. Forced                                   : No

  784. Text #28
  785. ID                                       : 47
  786. Format                                   : PGS
  787. Muxing mode                              : zlib
  788. Codec ID                                 : S_HDMV/PGS
  789. Codec ID/Info                            : Picture based subtitle format used on BDs/HD-DVDs
  790. Duration                                 : 1 h 31 min
  791. Bit rate                                 : 17.0 kb/s
  792. Count of elements                        : 1849
  793. Stream size                              : 11.2 MiB (0%)
  794. Title                                    : Korean-PGS
  795. Language                                 : Korean
  796. Default                                  : No
  797. Forced                                   : No

  798. Text #29
  799. ID                                       : 48
  800. Format                                   : PGS
  801. Muxing mode                              : zlib
  802. Codec ID                                 : S_HDMV/PGS
  803. Codec ID/Info                            : Picture based subtitle format used on BDs/HD-DVDs
  804. Duration                                 : 11 s 533 ms
  805. Bit rate                                 : 39.5 kb/s
  806. Count of elements                        : 8
  807. Stream size                              : 55.6 KiB (0%)
  808. Title                                    : Korean-FORCED-PGS
  809. Language                                 : Korean
  810. Default                                  : No
  811. Forced                                   : No

  812. Text #30
  813. ID                                       : 49
  814. Format                                   : PGS
  815. Muxing mode                              : zlib
  816. Codec ID                                 : S_HDMV/PGS
  817. Codec ID/Info                            : Picture based subtitle format used on BDs/HD-DVDs
  818. Duration                                 : 1 h 31 min
  819. Bit rate                                 : 19.4 kb/s
  820. Count of elements                        : 1287
  821. Stream size                              : 12.7 MiB (0%)
  822. Title                                    : Norwegian-PGS
  823. Language                                 : Norwegian
  824. Default                                  : No
  825. Forced                                   : No

  826. Text #31
  827. ID                                       : 50
  828. Format                                   : PGS
  829. Muxing mode                              : zlib
  830. Codec ID                                 : S_HDMV/PGS
  831. Codec ID/Info                            : Picture based subtitle format used on BDs/HD-DVDs
  832. Duration                                 : 1 h 31 min
  833. Bit rate                                 : 17.3 kb/s
  834. Count of elements                        : 1777
  835. Stream size                              : 11.4 MiB (0%)
  836. Title                                    : Polish-PGS
  837. Language                                 : Polish
  838. Default                                  : No
  839. Forced                                   : No

  840. Text #32
  841. ID                                       : 51
  842. Format                                   : PGS
  843. Muxing mode                              : zlib
  844. Codec ID                                 : S_HDMV/PGS
  845. Codec ID/Info                            : Picture based subtitle format used on BDs/HD-DVDs
  846. Duration                                 : 1 h 31 min
  847. Bit rate                                 : 22.2 kb/s
  848. Count of elements                        : 1797
  849. Stream size                              : 14.6 MiB (0%)
  850. Title                                    : Portuguese-PGS
  851. Language                                 : Portuguese
  852. Default                                  : No
  853. Forced                                   : No

  854. Text #33
  855. ID                                       : 52
  856. Format                                   : PGS
  857. Muxing mode                              : zlib
  858. Codec ID                                 : S_HDMV/PGS
  859. Codec ID/Info                            : Picture based subtitle format used on BDs/HD-DVDs
  860. Duration                                 : 38 min 13 s
  861. Bit rate                                 : 340 b/s
  862. Count of elements                        : 10
  863. Stream size                              : 95.2 KiB (0%)
  864. Title                                    : Portuguese-PGS
  865. Language                                 : Portuguese
  866. Default                                  : No
  867. Forced                                   : No

  868. Text #34
  869. ID                                       : 53
  870. Format                                   : PGS
  871. Muxing mode                              : zlib
  872. Codec ID                                 : S_HDMV/PGS
  873. Codec ID/Info                            : Picture based subtitle format used on BDs/HD-DVDs
  874. Duration                                 : 1 h 31 min
  875. Bit rate                                 : 23.9 kb/s
  876. Count of elements                        : 1790
  877. Stream size                              : 15.7 MiB (0%)
  878. Title                                    : Portuguese-FORCED-PGS
  879. Language                                 : Portuguese
  880. Default                                  : No
  881. Forced                                   : No

  882. Text #35
  883. ID                                       : 54
  884. Format                                   : PGS
  885. Muxing mode                              : zlib
  886. Codec ID                                 : S_HDMV/PGS
  887. Codec ID/Info                            : Picture based subtitle format used on BDs/HD-DVDs
  888. Duration                                 : 1 h 31 min
  889. Bit rate                                 : 24.1 kb/s
  890. Count of elements                        : 1775
  891. Stream size                              : 15.8 MiB (0%)
  892. Title                                    : Romanian-PGS
  893. Language                                 : Romanian
  894. Default                                  : No
  895. Forced                                   : No

  896. Text #36
  897. ID                                       : 55
  898. Format                                   : PGS
  899. Muxing mode                              : zlib
  900. Codec ID                                 : S_HDMV/PGS
  901. Codec ID/Info                            : Picture based subtitle format used on BDs/HD-DVDs
  902. Duration                                 : 1 h 31 min
  903. Bit rate                                 : 25.4 kb/s
  904. Count of elements                        : 1891
  905. Stream size                              : 16.7 MiB (0%)
  906. Title                                    : Russian-PGS
  907. Language                                 : Russian
  908. Default                                  : No
  909. Forced                                   : No

  910. Text #37
  911. ID                                       : 56
  912. Format                                   : PGS
  913. Muxing mode                              : zlib
  914. Codec ID                                 : S_HDMV/PGS
  915. Codec ID/Info                            : Picture based subtitle format used on BDs/HD-DVDs
  916. Duration                                 : 1 h 8 min
  917. Bit rate                                 : 94 b/s
  918. Count of elements                        : 12
  919. Stream size                              : 47.3 KiB (0%)
  920. Title                                    : Russian-FORCED-PGS
  921. Language                                 : Russian
  922. Default                                  : No
  923. Forced                                   : No

  924. Text #38
  925. ID                                       : 57
  926. Format                                   : PGS
  927. Muxing mode                              : zlib
  928. Codec ID                                 : S_HDMV/PGS
  929. Codec ID/Info                            : Picture based subtitle format used on BDs/HD-DVDs
  930. Duration                                 : 1 h 31 min
  931. Bit rate                                 : 21.8 kb/s
  932. Count of elements                        : 1777
  933. Stream size                              : 14.3 MiB (0%)
  934. Title                                    : Slovak-PGS
  935. Language                                 : Slovak
  936. Default                                  : No
  937. Forced                                   : No

  938. Text #39
  939. ID                                       : 58
  940. Format                                   : PGS
  941. Muxing mode                              : zlib
  942. Codec ID                                 : S_HDMV/PGS
  943. Codec ID/Info                            : Picture based subtitle format used on BDs/HD-DVDs
  944. Duration                                 : 1 h 31 min
  945. Bit rate                                 : 21.5 kb/s
  946. Count of elements                        : 1777
  947. Stream size                              : 14.1 MiB (0%)
  948. Title                                    : Slovenian-PGS
  949. Language                                 : Slovenian
  950. Default                                  : No
  951. Forced                                   : No

  952. Text #40
  953. ID                                       : 59
  954. Format                                   : PGS
  955. Muxing mode                              : zlib
  956. Codec ID                                 : S_HDMV/PGS
  957. Codec ID/Info                            : Picture based subtitle format used on BDs/HD-DVDs
  958. Duration                                 : 1 h 31 min
  959. Bit rate                                 : 21.5 kb/s
  960. Count of elements                        : 1779
  961. Stream size                              : 14.1 MiB (0%)
  962. Title                                    : Spanish-PGS
  963. Language                                 : Spanish
  964. Default                                  : No
  965. Forced                                   : No

  966. Text #41
  967. ID                                       : 60
  968. Format                                   : PGS
  969. Muxing mode                              : zlib
  970. Codec ID                                 : S_HDMV/PGS
  971. Codec ID/Info                            : Picture based subtitle format used on BDs/HD-DVDs
  972. Duration                                 : 1 h 19 min
  973. Bit rate                                 : 566 b/s
  974. Count of elements                        : 44
  975. Stream size                              : 332 KiB (0%)
  976. Title                                    : Spanish-FORCED-PGS
  977. Language                                 : Spanish
  978. Default                                  : No
  979. Forced                                   : No

  980. Text #42
  981. ID                                       : 61
  982. Format                                   : PGS
  983. Muxing mode                              : zlib
  984. Codec ID                                 : S_HDMV/PGS
  985. Codec ID/Info                            : Picture based subtitle format used on BDs/HD-DVDs
  986. Duration                                 : 1 h 31 min
  987. Bit rate                                 : 21.2 kb/s
  988. Count of elements                        : 1777
  989. Stream size                              : 13.9 MiB (0%)
  990. Title                                    : Spanish-PGS
  991. Language                                 : Spanish
  992. Default                                  : No
  993. Forced                                   : No

  994. Text #43
  995. ID                                       : 62
  996. Format                                   : PGS
  997. Muxing mode                              : zlib
  998. Codec ID                                 : S_HDMV/PGS
  999. Codec ID/Info                            : Picture based subtitle format used on BDs/HD-DVDs
  1000. Duration                                 : 11 s 533 ms
  1001. Bit rate                                 : 55.7 kb/s
  1002. Count of elements                        : 8
  1003. Stream size                              : 78.4 KiB (0%)
  1004. Title                                    : Spanish-FORCED-PGS
  1005. Language                                 : Spanish
  1006. Default                                  : No
  1007. Forced                                   : No

  1008. Text #44
  1009. ID                                       : 63
  1010. Format                                   : PGS
  1011. Muxing mode                              : zlib
  1012. Codec ID                                 : S_HDMV/PGS
  1013. Codec ID/Info                            : Picture based subtitle format used on BDs/HD-DVDs
  1014. Duration                                 : 1 h 31 min
  1015. Bit rate                                 : 20.1 kb/s
  1016. Count of elements                        : 1293
  1017. Stream size                              : 13.2 MiB (0%)
  1018. Title                                    : Swedish-PGS
  1019. Language                                 : Swedish
  1020. Default                                  : No
  1021. Forced                                   : No

  1022. Text #45
  1023. ID                                       : 64
  1024. Format                                   : PGS
  1025. Muxing mode                              : zlib
  1026. Codec ID                                 : S_HDMV/PGS
  1027. Codec ID/Info                            : Picture based subtitle format used on BDs/HD-DVDs
  1028. Duration                                 : 1 h 31 min
  1029. Bit rate                                 : 21.5 kb/s
  1030. Count of elements                        : 1790
  1031. Stream size                              : 14.1 MiB (0%)
  1032. Title                                    : Thai-PGS
  1033. Language                                 : Thai
  1034. Default                                  : No
  1035. Forced                                   : No

  1036. Text #46
  1037. ID                                       : 65
  1038. Format                                   : PGS
  1039. Muxing mode                              : zlib
  1040. Codec ID                                 : S_HDMV/PGS
  1041. Codec ID/Info                            : Picture based subtitle format used on BDs/HD-DVDs
  1042. Duration                                 : 1 h 22 min
  1043. Bit rate                                 : 645 b/s
  1044. Count of elements                        : 58
  1045. Stream size                              : 390 KiB (0%)
  1046. Title                                    : Thai-FORCED-PGS
  1047. Language                                 : Thai
  1048. Default                                  : No
  1049. Forced                                   : No

  1050. Text #47
  1051. ID                                       : 66
  1052. Format                                   : PGS
  1053. Muxing mode                              : zlib
  1054. Codec ID                                 : S_HDMV/PGS
  1055. Codec ID/Info                            : Picture based subtitle format used on BDs/HD-DVDs
  1056. Duration                                 : 1 h 31 min
  1057. Bit rate                                 : 21.6 kb/s
  1058. Count of elements                        : 1783
  1059. Stream size                              : 14.2 MiB (0%)
  1060. Title                                    : Turkish-PGS
  1061. Language                                 : Turkish
  1062. Default                                  : No
  1063. Forced                                   : No

  1064. Text #48
  1065. ID                                       : 67
  1066. Format                                   : PGS
  1067. Muxing mode                              : zlib
  1068. Codec ID                                 : S_HDMV/PGS
  1069. Codec ID/Info                            : Picture based subtitle format used on BDs/HD-DVDs
  1070. Duration                                 : 1 h 22 min
  1071. Bit rate                                 : 588 b/s
  1072. Count of elements                        : 58
  1073. Stream size                              : 356 KiB (0%)
  1074. Title                                    : Japanese-FORCED-PGS
  1075. Language                                 : Japanese
  1076. Default                                  : No
  1077. Forced                                   : No

  1078. Menu
  1079. 00:00:00.000                             : en:Chapter 01
  1080. 00:06:55.998                             : en:Chapter 02
  1081. 00:08:17.205                             : en:Chapter 03
  1082. 00:11:32.358                             : en:Chapter 04
  1083. 00:15:05.571                             : en:Chapter 05
  1084. 00:23:14.601                             : en:Chapter 06
  1085. 00:31:17.208                             : en:Chapter 07
  1086. 00:37:25.993                             : en:Chapter 08
  1087. 00:48:38.457                             : en:Chapter 09
  1088. 00:55:38.543                             : en:Chapter 10
  1089. 01:00:44.641                             : en:Chapter 11
  1090. 01:03:02.737                             : en:Chapter 12
  1091. 01:09:22.700                             : en:Chapter 13
  1092. 01:15:41.870                             : en:Chapter 14
  1093. 01:23:08.233                             : en:Chapter 15
  1094. 01:28:14.747                             : en:Chapter 16
复制代码

霹雳娇娃/查理的天使 Charlies.Angels.2000.2160p.BluRay.REMUX.HEVC.DTS-HD.MA.TrueHD.7.1.Atmos-FGT 52.72GB-2.png 霹雳娇娃/查理的天使 Charlies.Angels.2000.2160p.BluRay.REMUX.HEVC.DTS-HD.MA.TrueHD.7.1.Atmos-FGT 52.72GB-3.png 霹雳娇娃/查理的天使 Charlies.Angels.2000.2160p.BluRay.REMUX.HEVC.DTS-HD.MA.TrueHD.7.1.Atmos-FGT 52.72GB-4.png







回复

使用道具 举报

发表于 2019-10-24 14:12:29 | 显示全部楼层

我看不错噢 谢谢楼主!蓝光电影网越来越好!
回复 支持 反对

使用道具 举报

发表于 2019-10-24 15:33:43 | 显示全部楼层
谢谢楼主分享
回复 支持 反对

使用道具 举报

 成长值: 970

发表于 2019-10-24 17:39:23 | 显示全部楼层
谢谢楼主无私分享。
回复 支持 反对

使用道具 举报

发表于 2019-10-24 23:34:00 | 显示全部楼层
感谢楼主分享,辛苦了!
回复 支持 反对

使用道具 举报

发表于 2019-10-24 23:54:59 | 显示全部楼层
谢谢楼主
回复

使用道具 举报

发表于 2019-10-25 02:13:59 | 显示全部楼层
非常感谢分享
回复 支持 反对

使用道具 举报

发表于 2019-10-25 08:23:06 | 显示全部楼层
感谢楼主精彩分享,辛苦了。
回复 支持 反对

使用道具 举报

发表于 2019-10-25 09:19:24 | 显示全部楼层
谢谢发片。
回复

使用道具 举报

发表于 2019-10-25 11:37:04 | 显示全部楼层

这东西我收了!谢谢楼主!蓝光电影网真好!
回复 支持 反对

使用道具 举报

懒得打字嘛,点击右侧快捷回复 【右侧内容,后台自定义】
您需要登录后才可以回帖 登录 | 立即加入

本版积分规则

现在加入蓝光电影网,注册一个账号

QQ| 手机版|小黑屋| 蓝光电影网 |网站地图

Copyright © 2015-2019 Comsenz Inc.  Template by 蓝光电影论坛 All Rights Reserved.

Powered by 蓝光电影网 X3.4

特别声明:本站所有资源均由网上收集而来,版权归原影音公司所有,如果侵犯了你的权益,请通知我们,我们会及时删除侵权内容.

快速回复 返回顶部 返回列表