找回密码

蓝光电影网

查看: 183|回复: 2

[10bit.SDR] 红色警探/冲出生死线 Red.Heat.1988.2160p.BluRay.x265.10bit.SDR.DTS-HD.MA.5.1-SWTYBLZ 43.32GB

[复制链接]

 成长值: 23245

发表于 2019-10-23 22:07:04 | 显示全部楼层 |阅读模式
红色警探/冲出生死线 Red.Heat.1988.2160p.BluRay.x265.10bit.SDR.DTS-HD.MA.5.1-SWTYBLZ 43.32GB-1.png

译  名 红色警探 / 冲出生死线 / 红场特警 / 魔鬼红星
片  名 Red Heat
年  代 1988
产  地 美国
类  别 喜剧 / 动作 / 惊悚 / 犯罪
语  言 英语 / 俄语
上映日期 1988-06-17
IMDb评分  6.1/10 from 58995 users
IMDb链接  http://www.imdb.com/title/tt0095963
豆瓣评分 6.4/10 from 1910 users
豆瓣链接 https://movie.douban.com/subject/1296875/
片  长 104 分钟
导  演 沃尔特·希尔 Walter Hill
编  剧 Harry Kleiner / 沃尔特·希尔 Walter Hill
主  演 阿诺·施瓦辛格 Arnold Schwarzenegger
      詹姆斯·贝鲁什 James Belushi
      彼得·博伊尔 Peter Boyle
      吉娜·格申 Gina Gershon
      劳伦斯·菲什伯恩 Laurence Fishburne


标  签 动作 | 美国 | 施瓦辛格 | 美国电影 | 1988 | 阿诺德·施瓦辛格 | 红场特警 | 警匪

简  介  

  八十年代,苏联国内的毒枭从美国大量进口毒品,上尉德戈(阿诺·施瓦辛格 Arnold Schwarzenegger 饰)奉命捉拿乔治亚毒贩集团,然而在围捕行动中,德戈战友身亡,毒贩头目逃脱出国。不久,在美国芝加哥,苏联毒贩维特落网,美苏两国达成协议,德戈由莫斯科赴美押送维特回国,美国方面派出警探雷塞克(詹姆斯·贝鲁什 James Belushi 饰)担任其助手和翻译。不料维特再次在同伙的配合下成功逃脱,德戈至此不得不向美国方面吐露了维特的真实身份,并与雷塞克合力追踪维特。苏美两国的差异在德戈和雷塞克身上不时体现,然而两员悍将很快弥合差异,精诚合作追索毒枭……

  1. Video
  2. ID                                       : 1
  3. Format                                   : HEVC
  4. Format/Info                              : High Efficiency Video Coding
  5. Format profile                           : Main High@L4@High
  6. Codec ID                                 : V_MPEGH/ISO/HEVC
  7. Duration                                 : 1 h 44 min
  8. Bit rate                                 : 54.2 Mb/s
  9. Width                                    : 3 840 pixels
  10. Height                                   : 2 076 pixels
  11. Display aspect ratio                     : 1.85:1
  12. Frame rate mode                          : Constant
  13. Frame rate                               : 24.000 FPS
  14. Color space                              : YUV
  15. Chroma subsampling                       : 4:2:0
  16. Bit depth                                : 10 bits
  17. Bits/(Pixel*Frame)                       : 0.283
  18. Stream size                              : 39.4 GiB (92%)
  19. Title                                    : Red.Heat.1988.2160p.BluRay.x265.10bit.SDR.DTS-HD.MA.5.1-SWTYBLZ
  20. Writing library                          : x265 3.0ed72af837053:[Windows][GCC 8.2.0][64 bit] 10bit
  21. Encoding settings                        : cpuid=1111039 / frame-threads=16 / numa-pools=44,44 / wpp / no-pmode / no-pme / no-psnr / no-ssim / log-level=2 / input-csp=1 / input-res=3840x2076 / interlace=0 / total-frames=149803 / level-idc=51 / high-tier=1 / uhd-bd=0 / ref=3 / no-allow-non-conformance / repeat-headers / annexb / aud / hrd / info / hash=0 / no-temporal-layers / no-open-gop / min-keyint=1 / keyint=24 / gop-lookahead=0 / bframes=4 / b-adapt=2 / b-pyramid / bframe-bias=0 / rc-lookahead=25 / lookahead-slices=4 / scenecut=40 / radl=0 / no-splice / no-intra-refresh / ctu=64 / min-cu-size=8 / no-rect / no-amp / max-tu-size=32 / tu-inter-depth=1 / tu-intra-depth=1 / limit-tu=0 / rdoq-level=0 / dynamic-rd=0.00 / no-ssim-rd / signhide / no-tskip / nr-intra=0 / nr-inter=0 / no-constrained-intra / strong-intra-smoothing / max-merge=2 / limit-refs=3 / no-limit-modes / me=1 / subme=2 / merange=57 / temporal-mvp / weightp / no-weightb / no-analyze-src-pics / deblock=0:0 / no-sao / no-sao-non-deblock / rd=3 / no-early-skip / rskip / no-fast-intra / no-tskip-fast / no-cu-lossless / no-b-intra / no-splitrd-skip / rdpenalty=0 / psy-rd=2.00 / psy-rdoq=0.00 / no-rd-refine / no-lossless / cbqpoffs=0 / crqpoffs=0 / rc=crf / crf=20.0 / qcomp=0.60 / qpstep=4 / stats-write=0 / stats-read=0 / vbv-maxrate=160000 / vbv-bufsize=160000 / vbv-init=0.9 / crf-max=0.0 / crf-min=0.0 / ipratio=1.40 / pbratio=1.30 / aq-mode=1 / aq-strength=1.00 / cutree / zone-count=0 / no-strict-cbr / qg-size=32 / no-rc-grain / qpmax=69 / qpmin=0 / no-const-vbv / sar=1 / overscan=0 / videoformat=5 / range=0 / colorprim=2 / transfer=2 / colormatrix=2 / chromaloc=0 / display-window=0 / max-cll=0,0 / min-luma=0 / max-luma=1023 / log2-max-poc-lsb=8 / vui-timing-info / vui-hrd-info / slices=1 / opt-qp-pps / opt-ref-list-length-pps / no-multi-pass-opt-rps / scenecut-bias=0.05 / no-opt-cu-delta-qp / no-aq-motion / no-hdr / no-hdr-opt / no-dhdr10-opt / no-idr-recovery-sei / analysis-reuse-level=5 / scale-factor=0 / refine-intra=0 / refine-inter=0 / refine-mv=0 / refine-ctu-distortion=0 / no-limit-sao / ctu-info=0 / no-lowpass-dct / refine-analysis-type=0 / copy-pic=1 / max-ausize-factor=1.0 / no-dynamic-refine / no-single-sei / no-hevc-aq / qp-adaptation-range=1.00
  22. Language                                 : English
  23. Default                                  : Yes
  24. Forced                                   : No

  25. Audio #1
  26. ID                                       : 2
  27. Format                                   : DTS XLL
  28. Format/Info                              : Digital Theater Systems
  29. Commercial name                          : DTS-HD Master Audio
  30. Codec ID                                 : A_DTS
  31. Duration                                 : 1 h 44 min
  32. Bit rate mode                            : Variable
  33. Bit rate                                 : 4 275 kb/s
  34. Channel(s)                               : 6 channels
  35. Channel layout                           : C L R Ls Rs LFE
  36. Sampling rate                            : 48.0 kHz
  37. Frame rate                               : 93.750 FPS (512 SPF)
  38. Bit depth                                : 24 bits
  39. Compression mode                         : Lossless
  40. Stream size                              : 3.11 GiB (7%)
  41. Title                                    : Red.Heat.1988.2160p.BluRay.x265.10bit.SDR.DTS-HD.MA.5.1-SWTYBLZ
  42. Language                                 : English
  43. Default                                  : Yes
  44. Forced                                   : No

  45. Audio #2
  46. ID                                       : 3
  47. Format                                   : AC-3
  48. Format/Info                              : Audio Coding 3
  49. Commercial name                          : Dolby Digital
  50. Codec ID                                 : A_AC3
  51. Duration                                 : 1 h 44 min
  52. Bit rate mode                            : Constant
  53. Bit rate                                 : 640 kb/s
  54. Channel(s)                               : 6 channels
  55. Channel layout                           : L R C LFE Ls Rs
  56. Sampling rate                            : 48.0 kHz
  57. Frame rate                               : 31.250 FPS (1536 SPF)
  58. Bit depth                                : 16 bits
  59. Compression mode                         : Lossy
  60. Stream size                              : 476 MiB (1%)
  61. Title                                    : Red.Heat.1988.2160p.BluRay.x265.10bit.SDR.DTS-HD.MA.5.1-SWTYBLZ
  62. Language                                 : English
  63. Service kind                             : Complete Main
  64. Default                                  : No
  65. Forced                                   : No

  66. Text #1
  67. ID                                       : 4
  68. Format                                   : UTF-8
  69. Codec ID                                 : S_TEXT/UTF8
  70. Codec ID/Info                            : UTF-8 Plain Text
  71. Duration                                 : 56 min 36 s
  72. Bit rate                                 : 6 b/s
  73. Count of elements                        : 90
  74. Stream size                              : 2.90 KiB (0%)
  75. Title                                    : English-FORCED-SRT
  76. Language                                 : English
  77. Default                                  : Yes
  78. Forced                                   : No

  79. Text #2
  80. ID                                       : 5
  81. Format                                   : UTF-8
  82. Codec ID                                 : S_TEXT/UTF8
  83. Codec ID/Info                            : UTF-8 Plain Text
  84. Duration                                 : 1 h 36 min
  85. Bit rate                                 : 59 b/s
  86. Count of elements                        : 1129
  87. Stream size                              : 42.2 KiB (0%)
  88. Title                                    : English-SRT
  89. Language                                 : English
  90. Default                                  : No
  91. Forced                                   : No

  92. Text #3
  93. ID                                       : 6
  94. Format                                   : UTF-8
  95. Codec ID                                 : S_TEXT/UTF8
  96. Codec ID/Info                            : UTF-8 Plain Text
  97. Duration                                 : 1 h 39 min
  98. Bit rate                                 : 64 b/s
  99. Count of elements                        : 1279
  100. Stream size                              : 46.7 KiB (0%)
  101. Title                                    : English-SDH-SRT
  102. Language                                 : English
  103. Default                                  : No
  104. Forced                                   : No

  105. Text #4
  106. ID                                       : 7
  107. Format                                   : PGS
  108. Muxing mode                              : zlib
  109. Codec ID                                 : S_HDMV/PGS
  110. Codec ID/Info                            : Picture based subtitle format used on BDs/HD-DVDs
  111. Duration                                 : 1 h 39 min
  112. Bit rate                                 : 32.9 kb/s
  113. Count of elements                        : 2558
  114. Stream size                              : 23.4 MiB (0%)
  115. Title                                    : English-PGS
  116. Language                                 : English
  117. Default                                  : No
  118. Forced                                   : No

  119. Text #5
  120. ID                                       : 8
  121. Format                                   : PGS
  122. Muxing mode                              : zlib
  123. Codec ID                                 : S_HDMV/PGS
  124. Codec ID/Info                            : Picture based subtitle format used on BDs/HD-DVDs
  125. Duration                                 : 1 h 40 min
  126. Bit rate                                 : 21.3 kb/s
  127. Count of elements                        : 2158
  128. Stream size                              : 15.3 MiB (0%)
  129. Title                                    : French-PGS
  130. Language                                 : French
  131. Default                                  : No
  132. Forced                                   : No

  133. Text #6
  134. ID                                       : 9
  135. Format                                   : PGS
  136. Muxing mode                              : zlib
  137. Codec ID                                 : S_HDMV/PGS
  138. Codec ID/Info                            : Picture based subtitle format used on BDs/HD-DVDs
  139. Duration                                 : 1 h 40 min
  140. Bit rate                                 : 26.3 kb/s
  141. Count of elements                        : 1680
  142. Stream size                              : 18.9 MiB (0%)
  143. Title                                    : German-PGS
  144. Language                                 : German
  145. Default                                  : No
  146. Forced                                   : No

  147. Menu
  148. 00:00:00.000                             : en:Chapter 01
  149. 00:07:50.458                             : en:Chapter 02
  150. 00:19:23.000                             : en:Chapter 03
  151. 00:26:07.583                             : en:Chapter 04
  152. 00:35:07.500                             : en:Chapter 05
  153. 00:45:06.000                             : en:Chapter 06
  154. 00:54:04.000                             : en:Chapter 07
  155. 01:02:52.500                             : en:Chapter 08
  156. 01:12:15.416                             : en:Chapter 09
  157. 01:21:59.458                             : en:Chapter 10
  158. 01:28:36.833                             : en:Chapter 11
  159. 01:37:27.000                             : en:Chapter 12
复制代码

红色警探/冲出生死线 Red.Heat.1988.2160p.BluRay.x265.10bit.SDR.DTS-HD.MA.5.1-SWTYBLZ 43.32GB-2.png 红色警探/冲出生死线 Red.Heat.1988.2160p.BluRay.x265.10bit.SDR.DTS-HD.MA.5.1-SWTYBLZ 43.32GB-3.png 红色警探/冲出生死线 Red.Heat.1988.2160p.BluRay.x265.10bit.SDR.DTS-HD.MA.5.1-SWTYBLZ 43.32GB-4.png 红色警探/冲出生死线 Red.Heat.1988.2160p.BluRay.x265.10bit.SDR.DTS-HD.MA.5.1-SWTYBLZ 43.32GB-5.png 红色警探/冲出生死线 Red.Heat.1988.2160p.BluRay.x265.10bit.SDR.DTS-HD.MA.5.1-SWTYBLZ 43.32GB-6.png 红色警探/冲出生死线 Red.Heat.1988.2160p.BluRay.x265.10bit.SDR.DTS-HD.MA.5.1-SWTYBLZ 43.32GB-7.png 红色警探/冲出生死线 Red.Heat.1988.2160p.BluRay.x265.10bit.SDR.DTS-HD.MA.5.1-SWTYBLZ 43.32GB-8.png







回复

使用道具 举报

发表于 2019-10-27 15:48:25 | 显示全部楼层

这东西我收了!谢谢楼主!蓝光电影网真好!
回复 支持 反对

使用道具 举报

发表于 2019-11-4 00:03:16 | 显示全部楼层
楼主发贴辛苦了,谢谢楼主分享!我觉得蓝光电影网是注册对了!
回复 支持 反对

使用道具 举报

懒得打字嘛,点击右侧快捷回复 【右侧内容,后台自定义】
您需要登录后才可以回帖 登录 | 立即加入

本版积分规则

现在加入蓝光电影网,注册一个账号

QQ| 手机版|小黑屋| 蓝光电影网 |网站地图 

Copyright © 2015-2019 Comsenz Inc.  Template by 蓝光电影论坛 All Rights Reserved.

Powered by 蓝光电影网 X3.4

特别声明:本站所有资源均由网上收集而来,版权归原影音公司所有,如果侵犯了你的权益,请通知我们,我们会及时删除侵权内容.

快速回复 返回顶部 返回列表