找回密码

蓝光电影网

查看: 528|回复: 10

[8bit.SDR] 007:幽灵党/007系列24:大破幽灵危机 Spectre.2015.2160p.BluRay.x264.8bit.SDR.DTS-HD.MA.7.1-SWTYBLZ 60.69GB

[复制链接]

 成长值: 23245

发表于 2019-10-22 21:02:19 | 显示全部楼层 |阅读模式
007:幽灵党/007系列24:大破幽灵危机 Spectre.2015.2160p.BluRay.x264.8bit.SDR.DTS-HD.MA.7.1-SWTYBLZ 60.69GB-1.png

译  名 007:幽灵党 / 007系列24:大破幽灵危机 / 007:大破幽灵危机 / 007:恶魔四伏(台) / 007:鬼影帝国(港) / 邦德24
片  名 Spectre
年  代 2015
产  地 英国 / 美国
类  别 动作 / 惊悚 / 冒险
语  言 英语 / 西班牙语 / 意大利语 / 德语 / 法语
上映日期 2015-10-26(英国) / 2015-11-06(美国) / 2015-11-13(中国大陆)
IMDb评分  6.8/10 from 356469 users
IMDb链接  http://www.imdb.com/title/tt2379713
豆瓣评分 6.3/10 from 137440 users
豆瓣链接 https://movie.douban.com/subject/11620560/
片  长 148分钟
导  演 萨姆·门德斯 Sam Mendes
编  剧 约翰·洛根 John Logan / 尼尔·珀维斯 Neal Purvis / 罗伯特·韦德 Robert Wade / 杰斯·巴特沃斯 Jez Butterworth / 伊恩·弗莱明 Ian Fleming
主  演 丹尼尔·克雷格 Daniel Craig
       克里斯托弗·沃尔兹 Christoph Waltz
       蕾雅·赛杜 Léa Seydoux
       本·卫肖 Ben Whishaw
       娜奥米·哈里斯 Naomie Harris
       戴夫·巴蒂斯塔 Dave Batista
       莫妮卡·贝鲁奇 Monica Bellucci
       拉尔夫·费因斯 Ralph Fiennes
       斯黛芬妮·西格曼 Stephanie Sigman
       安德鲁·斯科特 Andrew Scott
       罗里·金奈尔 Rory Kinnear
       内芙·加切夫 Neve Gachev
       加斯帕·克里斯滕森 Jesper Christensen
       Daniel Stisen
       Daniel Westwood
       拉斯科·阿特金斯 Lasco Atkins


标  签 007 | 动作 | 特工 | 英国 | 2015 | 美国 | 犯罪 | 冒险

简  介  

  一个来自过去的加密信息让詹姆斯·邦德开始了一个神秘任务,从墨西哥城到最终的罗马,在那儿他邂逅了美艳的露琪亚·斯琪拉(莫妮卡·贝鲁奇 Monica Bellucci 饰),而她则是一名臭名昭著的意大利黑手党寡妇。邦德潜入到了一个密会中,揭开了一个名叫“幽灵党”的邪恶组织背后的秘密。
  然而,远在伦敦的国家安全中心的新任负责人马克思·登彼(安德鲁·斯考特 Andrew Scott 饰)怀疑邦德这次行动的目的,并挑战M(拉尔夫·费恩斯 Ralph Fiennes 饰)掌权的军情六处的地位。邦德暗中召集了钱班霓(奈奥米·哈莉斯 Naomi Harries 饰)和Q博士(本·威肖 Ben Whishaw 饰),协助他寻找他宿敌的女儿——玛德琳·斯旺(蕾雅·赛杜 Léa Seydoux 饰)的下落,玛德琳·斯旺手里握有解开幽灵党秘密的线索。作为一名杀手的女儿,斯旺比绝大多数人更了解邦德。
  正当邦德冒险潜入“幽灵党”中心时,他得知自己与他寻找的敌人(克里斯托弗·沃尔兹 Christoph Waltz 饰)之间有着骇人的联系……

获奖情况  

  第88届奥斯卡金像奖(2016)
  最佳原创歌曲 詹姆斯·纳皮尔 / 萨姆·史密斯

  第73届金球奖(2016)
  电影类 最佳原创歌曲

  第39届日本电影学院奖(2016)
  最佳外语片(提名)

  第21届美国评论家选择电影奖(2016)
  动作片最佳男主角(提名) 丹尼尔·克雷格
  最佳歌曲(提名)

  第2届豆瓣电影年度榜单(2015)
  11月最受关注电影(提名)

  第6届豆瓣电影鑫像奖(2016)
  豆渣单元 最渣影片(外语)(提名)
  豆渣单元 最渣导演(外语)(提名) 萨姆·门德斯
  豆渣单元 最渣男演员(外语)(提名) 丹尼尔·克雷格
  鑫豆单元 最佳歌曲(提名)
  1. Video
  2. ID                                       : 1
  3. Format                                   : AVC
  4. Format/Info                              : Advanced Video Codec
  5. Format profile                           : High@L4
  6. Format settings                          : CABAC / 5 Ref Frames
  7. Format settings, CABAC                   : Yes
  8. Format settings, Reference frames        : 5 frames
  9. Codec ID                                 : V_MPEG4/ISO/AVC
  10. Duration                                 : 2 h 28 min
  11. Bit rate                                 : 52.9 Mb/s
  12. Width                                    : 3 840 pixels
  13. Height                                   : 1 606 pixels
  14. Display aspect ratio                     : 2.40:1
  15. Frame rate mode                          : Constant
  16. Frame rate                               : 23.976 (24000/1001) FPS
  17. Color space                              : YUV
  18. Chroma subsampling                       : 4:2:0
  19. Bit depth                                : 8 bits
  20. Scan type                                : Progressive
  21. Bits/(Pixel*Frame)                       : 0.358
  22. Stream size                              : 54.7 GiB (91%)
  23. Title                                    : Spectre.2015.2160p.BluRay.x264.8bit.SDR.DTS-HD.MA.7.1-SWTYBLZ
  24. Writing library                          : x264 core 157 r2935 545de2f
  25. Encoding settings                        : cabac=1 / ref=5 / deblock=1:-1:-1 / analyse=0x3:0x113 / me=umh / subme=10 / psy=1 / psy_rd=1.00:0.15 / mixed_ref=1 / me_range=48 / chroma_me=1 / trellis=2 / 8x8dct=1 / cqm=0 / deadzone=21,11 / fast_pskip=1 / chroma_qp_offset=-3 / threads=48 / lookahead_threads=4 / sliced_threads=0 / nr=0 / decimate=0 / interlaced=0 / bluray_compat=0 / constrained_intra=0 / bframes=3 / b_pyramid=2 / b_adapt=2 / b_bias=0 / direct=3 / weightb=1 / open_gop=0 / weightp=2 / keyint=250 / keyint_min=23 / scenecut=40 / intra_refresh=0 / rc_lookahead=50 / rc=crf / mbtree=1 / crf=18.0 / qcomp=0.60 / qpmin=0 / qpmax=69 / qpstep=4 / ip_ratio=1.40 / aq=1:1.00
  26. Language                                 : English
  27. Default                                  : Yes
  28. Forced                                   : No

  29. Audio #1
  30. ID                                       : 2
  31. Format                                   : DTS XLL
  32. Format/Info                              : Digital Theater Systems
  33. Commercial name                          : DTS-HD Master Audio
  34. Codec ID                                 : A_DTS
  35. Duration                                 : 2 h 28 min
  36. Bit rate mode                            : Variable
  37. Bit rate                                 : 4 744 kb/s
  38. Channel(s)                               : 8 channels
  39. Channel layout                           : C L R LFE Lb Rb Lss Rss
  40. Sampling rate                            : 48.0 kHz
  41. Frame rate                               : 93.750 FPS (512 SPF)
  42. Bit depth                                : 24 bits
  43. Compression mode                         : Lossless
  44. Stream size                              : 4.91 GiB (8%)
  45. Title                                    : Spectre.2015.2160p.BluRay.x264.8bit.SDR.DTS-HD.MA.7.1-SWTYBLZ
  46. Language                                 : English
  47. Default                                  : Yes
  48. Forced                                   : No

  49. Audio #2
  50. ID                                       : 3
  51. Format                                   : AC-3
  52. Format/Info                              : Audio Coding 3
  53. Commercial name                          : Dolby Digital
  54. Codec ID                                 : A_AC3
  55. Duration                                 : 2 h 28 min
  56. Bit rate mode                            : Constant
  57. Bit rate                                 : 640 kb/s
  58. Channel(s)                               : 6 channels
  59. Channel layout                           : L R C LFE Ls Rs
  60. Sampling rate                            : 48.0 kHz
  61. Frame rate                               : 31.250 FPS (1536 SPF)
  62. Bit depth                                : 16 bits
  63. Compression mode                         : Lossy
  64. Stream size                              : 678 MiB (1%)
  65. Title                                    : Spectre.2015.2160p.BluRay.x264.8bit.SDR.DTS-HD.MA.7.1-SWTYBLZ
  66. Language                                 : English
  67. Service kind                             : Complete Main
  68. Default                                  : No
  69. Forced                                   : No

  70. Text #1
  71. ID                                       : 4
  72. Format                                   : UTF-8
  73. Codec ID                                 : S_TEXT/UTF8
  74. Codec ID/Info                            : UTF-8 Plain Text
  75. Duration                                 : 1 h 16 min
  76. Bit rate                                 : 1 b/s
  77. Count of elements                        : 39
  78. Stream size                              : 1.01 KiB (0%)
  79. Title                                    : English-FORCED-SRT
  80. Language                                 : English
  81. Default                                  : Yes
  82. Forced                                   : Yes

  83. Text #2
  84. ID                                       : 5
  85. Format                                   : UTF-8
  86. Codec ID                                 : S_TEXT/UTF8
  87. Codec ID/Info                            : UTF-8 Plain Text
  88. Duration                                 : 2 h 16 min
  89. Bit rate                                 : 35 b/s
  90. Count of elements                        : 1203
  91. Stream size                              : 35.6 KiB (0%)
  92. Title                                    : English-SRT
  93. Language                                 : English
  94. Default                                  : No
  95. Forced                                   : No

  96. Text #3
  97. ID                                       : 6
  98. Format                                   : UTF-8
  99. Codec ID                                 : S_TEXT/UTF8
  100. Codec ID/Info                            : UTF-8 Plain Text
  101. Duration                                 : 2 h 19 min
  102. Bit rate                                 : 37 b/s
  103. Count of elements                        : 1362
  104. Stream size                              : 38.6 KiB (0%)
  105. Title                                    : English-SDH-SRT
  106. Language                                 : English
  107. Default                                  : No
  108. Forced                                   : No

  109. Text #4
  110. ID                                       : 7
  111. Format                                   : PGS
  112. Muxing mode                              : zlib
  113. Codec ID                                 : S_HDMV/PGS
  114. Codec ID/Info                            : Picture based subtitle format used on BDs/HD-DVDs
  115. Duration                                 : 2 h 19 min
  116. Bit rate                                 : 25.0 kb/s
  117. Count of elements                        : 2724
  118. Stream size                              : 25.0 MiB (0%)
  119. Title                                    : English-PGS
  120. Language                                 : English
  121. Default                                  : No
  122. Forced                                   : No

  123. Text #5
  124. ID                                       : 8
  125. Format                                   : PGS
  126. Muxing mode                              : zlib
  127. Codec ID                                 : S_HDMV/PGS
  128. Codec ID/Info                            : Picture based subtitle format used on BDs/HD-DVDs
  129. Duration                                 : 2 h 27 min
  130. Bit rate                                 : 20.2 kb/s
  131. Count of elements                        : 2260
  132. Stream size                              : 21.2 MiB (0%)
  133. Title                                    : Spanish-PGS
  134. Language                                 : Spanish
  135. Default                                  : No
  136. Forced                                   : No

  137. Text #6
  138. ID                                       : 9
  139. Format                                   : PGS
  140. Muxing mode                              : zlib
  141. Codec ID                                 : S_HDMV/PGS
  142. Codec ID/Info                            : Picture based subtitle format used on BDs/HD-DVDs
  143. Duration                                 : 2 h 27 min
  144. Bit rate                                 : 17.7 kb/s
  145. Count of elements                        : 2308
  146. Stream size                              : 18.6 MiB (0%)
  147. Title                                    : French-PGS
  148. Language                                 : French
  149. Default                                  : No
  150. Forced                                   : No

  151. Text #7
  152. ID                                       : 10
  153. Format                                   : PGS
  154. Muxing mode                              : zlib
  155. Codec ID                                 : S_HDMV/PGS
  156. Codec ID/Info                            : Picture based subtitle format used on BDs/HD-DVDs
  157. Duration                                 : 2 h 27 min
  158. Bit rate                                 : 18.4 kb/s
  159. Count of elements                        : 2149
  160. Stream size                              : 19.3 MiB (0%)
  161. Title                                    : Spanish-PGS
  162. Language                                 : Spanish
  163. Default                                  : No
  164. Forced                                   : No

  165. Text #8
  166. ID                                       : 11
  167. Format                                   : PGS
  168. Muxing mode                              : zlib
  169. Codec ID                                 : S_HDMV/PGS
  170. Codec ID/Info                            : Picture based subtitle format used on BDs/HD-DVDs
  171. Duration                                 : 2 h 27 min
  172. Bit rate                                 : 19.1 kb/s
  173. Count of elements                        : 1948
  174. Stream size                              : 20.1 MiB (0%)
  175. Title                                    : Danish-PGS
  176. Language                                 : Danish
  177. Default                                  : No
  178. Forced                                   : No

  179. Text #9
  180. ID                                       : 12
  181. Format                                   : PGS
  182. Muxing mode                              : zlib
  183. Codec ID                                 : S_HDMV/PGS
  184. Codec ID/Info                            : Picture based subtitle format used on BDs/HD-DVDs
  185. Duration                                 : 2 h 27 min
  186. Bit rate                                 : 18.1 kb/s
  187. Count of elements                        : 1937
  188. Stream size                              : 19.1 MiB (0%)
  189. Title                                    : Dutch-PGS
  190. Language                                 : Dutch
  191. Default                                  : No
  192. Forced                                   : No

  193. Text #10
  194. ID                                       : 13
  195. Format                                   : PGS
  196. Muxing mode                              : zlib
  197. Codec ID                                 : S_HDMV/PGS
  198. Codec ID/Info                            : Picture based subtitle format used on BDs/HD-DVDs
  199. Duration                                 : 2 h 27 min
  200. Bit rate                                 : 17.6 kb/s
  201. Count of elements                        : 2217
  202. Stream size                              : 18.5 MiB (0%)
  203. Title                                    : Finnish-PGS
  204. Language                                 : Finnish
  205. Default                                  : No
  206. Forced                                   : No

  207. Text #11
  208. ID                                       : 14
  209. Format                                   : PGS
  210. Muxing mode                              : zlib
  211. Codec ID                                 : S_HDMV/PGS
  212. Codec ID/Info                            : Picture based subtitle format used on BDs/HD-DVDs
  213. Duration                                 : 2 h 27 min
  214. Bit rate                                 : 20.7 kb/s
  215. Count of elements                        : 2168
  216. Stream size                              : 21.8 MiB (0%)
  217. Title                                    : German-PGS
  218. Language                                 : German
  219. Default                                  : No
  220. Forced                                   : No

  221. Text #12
  222. ID                                       : 15
  223. Format                                   : PGS
  224. Muxing mode                              : zlib
  225. Codec ID                                 : S_HDMV/PGS
  226. Codec ID/Info                            : Picture based subtitle format used on BDs/HD-DVDs
  227. Duration                                 : 2 h 27 min
  228. Bit rate                                 : 19.4 kb/s
  229. Count of elements                        : 2000
  230. Stream size                              : 20.4 MiB (0%)
  231. Title                                    : Italian-PGS
  232. Language                                 : Italian
  233. Default                                  : No
  234. Forced                                   : No

  235. Text #13
  236. ID                                       : 16
  237. Format                                   : PGS
  238. Muxing mode                              : zlib
  239. Codec ID                                 : S_HDMV/PGS
  240. Codec ID/Info                            : Picture based subtitle format used on BDs/HD-DVDs
  241. Duration                                 : 2 h 27 min
  242. Bit rate                                 : 17.9 kb/s
  243. Count of elements                        : 1806
  244. Stream size                              : 18.8 MiB (0%)
  245. Title                                    : Norwegian-PGS
  246. Language                                 : Norwegian
  247. Default                                  : No
  248. Forced                                   : No

  249. Text #14
  250. ID                                       : 17
  251. Format                                   : PGS
  252. Muxing mode                              : zlib
  253. Codec ID                                 : S_HDMV/PGS
  254. Codec ID/Info                            : Picture based subtitle format used on BDs/HD-DVDs
  255. Duration                                 : 2 h 27 min
  256. Bit rate                                 : 18.0 kb/s
  257. Count of elements                        : 1822
  258. Stream size                              : 18.9 MiB (0%)
  259. Title                                    : Swedish-PGS
  260. Language                                 : Swedish
  261. Default                                  : No
  262. Forced                                   : No

  263. Text #15
  264. ID                                       : 18
  265. Format                                   : PGS
  266. Muxing mode                              : zlib
  267. Codec ID                                 : S_HDMV/PGS
  268. Codec ID/Info                            : Picture based subtitle format used on BDs/HD-DVDs
  269. Duration                                 : 2 h 27 min
  270. Bit rate                                 : 17.0 kb/s
  271. Count of elements                        : 2244
  272. Stream size                              : 17.9 MiB (0%)
  273. Title                                    : Chinese-PGS
  274. Language                                 : Chinese
  275. Default                                  : No
  276. Forced                                   : No

  277. Text #16
  278. ID                                       : 19
  279. Format                                   : PGS
  280. Muxing mode                              : zlib
  281. Codec ID                                 : S_HDMV/PGS
  282. Codec ID/Info                            : Picture based subtitle format used on BDs/HD-DVDs
  283. Duration                                 : 2 h 27 min
  284. Bit rate                                 : 19.6 kb/s
  285. Count of elements                        : 2226
  286. Stream size                              : 20.6 MiB (0%)
  287. Title                                    : Czech-PGS
  288. Language                                 : Czech
  289. Default                                  : No
  290. Forced                                   : No

  291. Text #17
  292. ID                                       : 20
  293. Format                                   : PGS
  294. Muxing mode                              : zlib
  295. Codec ID                                 : S_HDMV/PGS
  296. Codec ID/Info                            : Picture based subtitle format used on BDs/HD-DVDs
  297. Duration                                 : 2 h 27 min
  298. Bit rate                                 : 19.9 kb/s
  299. Count of elements                        : 1912
  300. Stream size                              : 20.9 MiB (0%)
  301. Title                                    : Hungarian-PGS
  302. Language                                 : Hungarian
  303. Default                                  : No
  304. Forced                                   : No

  305. Text #18
  306. ID                                       : 21
  307. Format                                   : PGS
  308. Muxing mode                              : zlib
  309. Codec ID                                 : S_HDMV/PGS
  310. Codec ID/Info                            : Picture based subtitle format used on BDs/HD-DVDs
  311. Duration                                 : 2 h 27 min
  312. Bit rate                                 : 12.0 kb/s
  313. Count of elements                        : 2242
  314. Stream size                              : 12.7 MiB (0%)
  315. Title                                    : Korean-PGS
  316. Language                                 : Korean
  317. Default                                  : No
  318. Forced                                   : No

  319. Text #19
  320. ID                                       : 22
  321. Format                                   : PGS
  322. Muxing mode                              : zlib
  323. Codec ID                                 : S_HDMV/PGS
  324. Codec ID/Info                            : Picture based subtitle format used on BDs/HD-DVDs
  325. Duration                                 : 2 h 27 min
  326. Bit rate                                 : 15.1 kb/s
  327. Count of elements                        : 2242
  328. Stream size                              : 15.9 MiB (0%)
  329. Title                                    : Chinese-PGS
  330. Language                                 : Chinese
  331. Default                                  : No
  332. Forced                                   : No

  333. Text #20
  334. ID                                       : 23
  335. Format                                   : PGS
  336. Muxing mode                              : zlib
  337. Codec ID                                 : S_HDMV/PGS
  338. Codec ID/Info                            : Picture based subtitle format used on BDs/HD-DVDs
  339. Duration                                 : 2 h 27 min
  340. Bit rate                                 : 18.5 kb/s
  341. Count of elements                        : 2192
  342. Stream size                              : 19.4 MiB (0%)
  343. Title                                    : Polish-PGS
  344. Language                                 : Polish
  345. Default                                  : No
  346. Forced                                   : No

  347. Text #21
  348. ID                                       : 24
  349. Format                                   : PGS
  350. Muxing mode                              : zlib
  351. Codec ID                                 : S_HDMV/PGS
  352. Codec ID/Info                            : Picture based subtitle format used on BDs/HD-DVDs
  353. Duration                                 : 2 h 27 min
  354. Bit rate                                 : 20.8 kb/s
  355. Count of elements                        : 2270
  356. Stream size                              : 21.9 MiB (0%)
  357. Title                                    : Portuguese-PGS
  358. Language                                 : Portuguese
  359. Default                                  : No
  360. Forced                                   : No

  361. Text #22
  362. ID                                       : 25
  363. Format                                   : PGS
  364. Muxing mode                              : zlib
  365. Codec ID                                 : S_HDMV/PGS
  366. Codec ID/Info                            : Picture based subtitle format used on BDs/HD-DVDs
  367. Duration                                 : 1 h 16 min
  368. Bit rate                                 : 435 b/s
  369. Count of elements                        : 78
  370. Stream size                              : 244 KiB (0%)
  371. Title                                    : English-FORCED-PGS
  372. Language                                 : English
  373. Default                                  : No
  374. Forced                                   : No

  375. Menu
  376. 00:00:00.000                             : en:Chapter 01
  377. 00:06:09.744                             : en:Chapter 02
  378. 00:13:05.409                             : en:Chapter 03
  379. 00:18:59.096                             : en:Chapter 04
  380. 00:24:47.402                             : en:Chapter 05
  381. 00:28:04.683                             : en:Chapter 06
  382. 00:32:15.892                             : en:Chapter 07
  383. 00:36:59.217                             : en:Chapter 08
  384. 00:41:57.264                             : en:Chapter 09
  385. 00:46:13.771                             : en:Chapter 10
  386. 00:50:52.507                             : en:Chapter 11
  387. 00:53:43.762                             : en:Chapter 12
  388. 01:00:21.993                             : en:Chapter 13
  389. 01:06:48.754                             : en:Chapter 14
  390. 01:10:59.588                             : en:Chapter 15
  391. 01:15:14.635                             : en:Chapter 16
  392. 01:18:56.273                             : en:Chapter 17
  393. 01:26:11.666                             : en:Chapter 18
  394. 01:29:40.541                             : en:Chapter 19
  395. 01:36:43.798                             : en:Chapter 20
  396. 01:41:45.015                             : en:Chapter 21
  397. 01:49:07.040                             : en:Chapter 22
  398. 01:55:53.404                             : en:Chapter 23
  399. 01:59:39.839                             : en:Chapter 24
  400. 02:04:20.369                             : en:Chapter 25
  401. 02:09:29.136                             : en:Chapter 26
  402. 02:14:06.288                             : en:Chapter 27
  403. 02:19:42.999                             : en:Chapter 28
复制代码

007:幽灵党/007系列24:大破幽灵危机 Spectre.2015.2160p.BluRay.x264.8bit.SDR.DTS-HD.MA.7.1-SWTYBLZ 60.69GB-2.png 007:幽灵党/007系列24:大破幽灵危机 Spectre.2015.2160p.BluRay.x264.8bit.SDR.DTS-HD.MA.7.1-SWTYBLZ 60.69GB-3.png 007:幽灵党/007系列24:大破幽灵危机 Spectre.2015.2160p.BluRay.x264.8bit.SDR.DTS-HD.MA.7.1-SWTYBLZ 60.69GB-4.png 007:幽灵党/007系列24:大破幽灵危机 Spectre.2015.2160p.BluRay.x264.8bit.SDR.DTS-HD.MA.7.1-SWTYBLZ 60.69GB-5.png 007:幽灵党/007系列24:大破幽灵危机 Spectre.2015.2160p.BluRay.x264.8bit.SDR.DTS-HD.MA.7.1-SWTYBLZ 60.69GB-6.png 210119lonkpkiyielmqlcd.png 007:幽灵党/007系列24:大破幽灵危机 Spectre.2015.2160p.BluRay.x264.8bit.SDR.DTS-HD.MA.7.1-SWTYBLZ 60.69GB-8.png







回复

使用道具 举报

发表于 2019-10-23 09:43:48 | 显示全部楼层

楼主太厉害了!楼主,电影应该很好看我觉得蓝光电影网真是个好地方!
回复 支持 反对

使用道具 举报

发表于 2019-10-23 17:32:23 | 显示全部楼层
非常经典的电影!!!
回复 支持 反对

使用道具 举报

发表于 2019-10-24 08:03:16 | 显示全部楼层
楼主发贴辛苦了,谢谢楼主分享!我觉得蓝光电影网是注册对了!
回复 支持 反对

使用道具 举报

发表于 2019-10-24 08:05:12 | 显示全部楼层
楼主发贴辛苦了,谢谢楼主分享!我觉得蓝光电影网是注册对了!
回复 支持 反对

使用道具 举报

发表于 2019-10-24 08:40:35 | 显示全部楼层

这东西我收了!谢谢楼主!蓝光电影网真好!
回复 支持 反对

使用道具 举报

发表于 2019-10-25 08:54:06 | 显示全部楼层
8bit SDR,应该不是原盘吧?
回复 支持 反对

使用道具 举报

发表于 2019-10-25 09:36:33 | 显示全部楼层


楼主太厉害了!楼主,电影应该很好看我觉得中国高清论坛真是个好地方
回复 支持 反对

使用道具 举报

发表于 2019-11-8 22:47:59 | 显示全部楼层
007系列都很经典,感谢楼主!
回复 支持 反对

使用道具 举报

发表于 2019-11-10 08:48:58 | 显示全部楼层
楼主发贴辛苦了,谢谢楼主分享!我觉得蓝光电影网是注册对了!
回复 支持 反对

使用道具 举报

懒得打字嘛,点击右侧快捷回复 【右侧内容,后台自定义】
您需要登录后才可以回帖 登录 | 立即加入

本版积分规则

现在加入蓝光电影网,注册一个账号

QQ| 手机版|小黑屋| 蓝光电影网 |网站地图 

Copyright © 2015-2019 Comsenz Inc.  Template by 蓝光电影论坛 All Rights Reserved.

Powered by 蓝光电影网 X3.4

特别声明:本站所有资源均由网上收集而来,版权归原影音公司所有,如果侵犯了你的权益,请通知我们,我们会及时删除侵权内容.

快速回复 返回顶部 返回列表