找回密码

蓝光电影网

查看: 271|回复: 6

[10bit.SDR] 007:幽灵党/007系列24:大破幽灵危机 Spectre.2015.2160p.BluRay.x265.10bit.SDR.DTS-HD.MA.7.1-SWTYBLZ 56.90GB

[复制链接]

 成长值: 23245

发表于 2019-10-22 20:59:08 | 显示全部楼层 |阅读模式
007:幽灵党/007系列24:大破幽灵危机 Spectre.2015.2160p.BluRay.x265.10bit.SDR.DTS-HD.MA.7.1-SWTYBLZ 56.90GB-1.png

译  名 007:幽灵党 / 007系列24:大破幽灵危机 / 007:大破幽灵危机 / 007:恶魔四伏(台) / 007:鬼影帝国(港) / 邦德24
片  名 Spectre
年  代 2015
产  地 英国 / 美国
类  别 动作 / 惊悚 / 冒险
语  言 英语 / 西班牙语 / 意大利语 / 德语 / 法语
上映日期 2015-10-26(英国) / 2015-11-06(美国) / 2015-11-13(中国大陆)
IMDb评分  6.8/10 from 356469 users
IMDb链接  http://www.imdb.com/title/tt2379713
豆瓣评分 6.3/10 from 137440 users
豆瓣链接 https://movie.douban.com/subject/11620560/
片  长 148分钟
导  演 萨姆·门德斯 Sam Mendes
编  剧 约翰·洛根 John Logan / 尼尔·珀维斯 Neal Purvis / 罗伯特·韦德 Robert Wade / 杰斯·巴特沃斯 Jez Butterworth / 伊恩·弗莱明 Ian Fleming
主  演 丹尼尔·克雷格 Daniel Craig
       克里斯托弗·沃尔兹 Christoph Waltz
       蕾雅·赛杜 Léa Seydoux
       本·卫肖 Ben Whishaw
       娜奥米·哈里斯 Naomie Harris
       戴夫·巴蒂斯塔 Dave Batista
       莫妮卡·贝鲁奇 Monica Bellucci
       拉尔夫·费因斯 Ralph Fiennes
       斯黛芬妮·西格曼 Stephanie Sigman
       安德鲁·斯科特 Andrew Scott
       罗里·金奈尔 Rory Kinnear
       内芙·加切夫 Neve Gachev
       加斯帕·克里斯滕森 Jesper Christensen
       Daniel Stisen
       Daniel Westwood
       拉斯科·阿特金斯 Lasco Atkins


标  签 007 | 动作 | 特工 | 英国 | 2015 | 美国 | 犯罪 | 冒险

简  介  

  一个来自过去的加密信息让詹姆斯·邦德开始了一个神秘任务,从墨西哥城到最终的罗马,在那儿他邂逅了美艳的露琪亚·斯琪拉(莫妮卡·贝鲁奇 Monica Bellucci 饰),而她则是一名臭名昭著的意大利黑手党寡妇。邦德潜入到了一个密会中,揭开了一个名叫“幽灵党”的邪恶组织背后的秘密。
  然而,远在伦敦的国家安全中心的新任负责人马克思·登彼(安德鲁·斯考特 Andrew Scott 饰)怀疑邦德这次行动的目的,并挑战M(拉尔夫·费恩斯 Ralph Fiennes 饰)掌权的军情六处的地位。邦德暗中召集了钱班霓(奈奥米·哈莉斯 Naomi Harries 饰)和Q博士(本·威肖 Ben Whishaw 饰),协助他寻找他宿敌的女儿——玛德琳·斯旺(蕾雅·赛杜 Léa Seydoux 饰)的下落,玛德琳·斯旺手里握有解开幽灵党秘密的线索。作为一名杀手的女儿,斯旺比绝大多数人更了解邦德。
  正当邦德冒险潜入“幽灵党”中心时,他得知自己与他寻找的敌人(克里斯托弗·沃尔兹 Christoph Waltz 饰)之间有着骇人的联系……

获奖情况  

  第88届奥斯卡金像奖(2016)
  最佳原创歌曲 詹姆斯·纳皮尔 / 萨姆·史密斯

  第73届金球奖(2016)
  电影类 最佳原创歌曲

  第39届日本电影学院奖(2016)
  最佳外语片(提名)

  第21届美国评论家选择电影奖(2016)
  动作片最佳男主角(提名) 丹尼尔·克雷格
  最佳歌曲(提名)

  第2届豆瓣电影年度榜单(2015)
  11月最受关注电影(提名)

  第6届豆瓣电影鑫像奖(2016)
  豆渣单元 最渣影片(外语)(提名)
  豆渣单元 最渣导演(外语)(提名) 萨姆·门德斯
  豆渣单元 最渣男演员(外语)(提名) 丹尼尔·克雷格
  鑫豆单元 最佳歌曲(提名)
  1. Video
  2. ID                                       : 1
  3. Format                                   : HEVC
  4. Format/Info                              : High Efficiency Video Coding
  5. Format profile                           : Main High@L4@High
  6. Codec ID                                 : V_MPEGH/ISO/HEVC
  7. Duration                                 : 2 h 28 min
  8. Bit rate                                 : 49.3 Mb/s
  9. Width                                    : 3 840 pixels
  10. Height                                   : 1 606 pixels
  11. Display aspect ratio                     : 2.40:1
  12. Frame rate mode                          : Constant
  13. Frame rate                               : 23.976 (24000/1001) FPS
  14. Color space                              : YUV
  15. Chroma subsampling                       : 4:2:0
  16. Bit depth                                : 10 bits
  17. Bits/(Pixel*Frame)                       : 0.333
  18. Stream size                              : 51.0 GiB (90%)
  19. Title                                    : Spectre.2015.2160p.BluRay.x265.10bit.SDR.DTS-HD.MA.7.1-SWTYBLZ
  20. Writing library                          : x265 3.0ed72af837053:[Windows][GCC 8.2.0][64 bit] 10bit
  21. Encoding settings                        : cpuid=1111039 / frame-threads=16 / numa-pools=44,44 / wpp / no-pmode / no-pme / no-psnr / no-ssim / log-level=2 / input-csp=1 / input-res=3840x1606 / interlace=0 / total-frames=213110 / level-idc=51 / high-tier=1 / uhd-bd=0 / ref=3 / no-allow-non-conformance / repeat-headers / annexb / aud / hrd / info / hash=0 / no-temporal-layers / no-open-gop / min-keyint=1 / keyint=24 / gop-lookahead=0 / bframes=4 / b-adapt=2 / b-pyramid / bframe-bias=0 / rc-lookahead=25 / lookahead-slices=4 / scenecut=40 / radl=0 / no-splice / no-intra-refresh / ctu=64 / min-cu-size=8 / no-rect / no-amp / max-tu-size=32 / tu-inter-depth=1 / tu-intra-depth=1 / limit-tu=0 / rdoq-level=0 / dynamic-rd=0.00 / no-ssim-rd / signhide / no-tskip / nr-intra=0 / nr-inter=0 / no-constrained-intra / strong-intra-smoothing / max-merge=2 / limit-refs=3 / no-limit-modes / me=1 / subme=2 / merange=57 / temporal-mvp / weightp / no-weightb / no-analyze-src-pics / deblock=0:0 / no-sao / no-sao-non-deblock / rd=3 / no-early-skip / rskip / no-fast-intra / no-tskip-fast / no-cu-lossless / no-b-intra / no-splitrd-skip / rdpenalty=0 / psy-rd=2.00 / psy-rdoq=0.00 / no-rd-refine / no-lossless / cbqpoffs=0 / crqpoffs=0 / rc=crf / crf=16.0 / qcomp=0.60 / qpstep=4 / stats-write=0 / stats-read=0 / vbv-maxrate=160000 / vbv-bufsize=160000 / vbv-init=0.9 / crf-max=0.0 / crf-min=0.0 / ipratio=1.40 / pbratio=1.30 / aq-mode=1 / aq-strength=1.00 / cutree / zone-count=0 / no-strict-cbr / qg-size=32 / no-rc-grain / qpmax=69 / qpmin=0 / no-const-vbv / sar=1 / overscan=0 / videoformat=5 / range=0 / colorprim=2 / transfer=2 / colormatrix=2 / chromaloc=0 / display-window=0 / max-cll=0,0 / min-luma=0 / max-luma=1023 / log2-max-poc-lsb=8 / vui-timing-info / vui-hrd-info / slices=1 / opt-qp-pps / opt-ref-list-length-pps / no-multi-pass-opt-rps / scenecut-bias=0.05 / no-opt-cu-delta-qp / no-aq-motion / no-hdr / no-hdr-opt / no-dhdr10-opt / no-idr-recovery-sei / analysis-reuse-level=5 / scale-factor=0 / refine-intra=0 / refine-inter=0 / refine-mv=0 / refine-ctu-distortion=0 / no-limit-sao / ctu-info=0 / no-lowpass-dct / refine-analysis-type=0 / copy-pic=1 / max-ausize-factor=1.0 / no-dynamic-refine / no-single-sei / no-hevc-aq / qp-adaptation-range=1.00
  22. Default                                  : Yes
  23. Forced                                   : No

  24. Audio #1
  25. ID                                       : 2
  26. Format                                   : DTS XLL
  27. Format/Info                              : Digital Theater Systems
  28. Commercial name                          : DTS-HD Master Audio
  29. Codec ID                                 : A_DTS
  30. Duration                                 : 2 h 28 min
  31. Bit rate mode                            : Variable
  32. Bit rate                                 : 4 744 kb/s
  33. Channel(s)                               : 8 channels
  34. Channel layout                           : C L R LFE Lb Rb Lss Rss
  35. Sampling rate                            : 48.0 kHz
  36. Frame rate                               : 93.750 FPS (512 SPF)
  37. Bit depth                                : 24 bits
  38. Compression mode                         : Lossless
  39. Stream size                              : 4.91 GiB (9%)
  40. Title                                    : Spectre.2015.2160p.BluRay.x265.10bit.SDR.DTS-HD.MA.7.1-SWTYBLZ
  41. Language                                 : English
  42. Default                                  : Yes
  43. Forced                                   : No

  44. Audio #2
  45. ID                                       : 3
  46. Format                                   : AC-3
  47. Format/Info                              : Audio Coding 3
  48. Commercial name                          : Dolby Digital
  49. Codec ID                                 : A_AC3
  50. Duration                                 : 2 h 28 min
  51. Bit rate mode                            : Constant
  52. Bit rate                                 : 640 kb/s
  53. Channel(s)                               : 6 channels
  54. Channel layout                           : L R C LFE Ls Rs
  55. Sampling rate                            : 48.0 kHz
  56. Frame rate                               : 31.250 FPS (1536 SPF)
  57. Bit depth                                : 16 bits
  58. Compression mode                         : Lossy
  59. Stream size                              : 678 MiB (1%)
  60. Title                                    : Spectre.2015.2160p.BluRay.x265.10bit.SDR.DTS-HD.MA.7.1-SWTYBLZ
  61. Language                                 : English
  62. Service kind                             : Complete Main
  63. Default                                  : No
  64. Forced                                   : No

  65. Text #1
  66. ID                                       : 4
  67. Format                                   : UTF-8
  68. Codec ID                                 : S_TEXT/UTF8
  69. Codec ID/Info                            : UTF-8 Plain Text
  70. Duration                                 : 1 h 16 min
  71. Bit rate                                 : 1 b/s
  72. Count of elements                        : 39
  73. Stream size                              : 1.01 KiB (0%)
  74. Title                                    : English-FORCED-SRT
  75. Language                                 : English
  76. Default                                  : Yes
  77. Forced                                   : Yes

  78. Text #2
  79. ID                                       : 5
  80. Format                                   : UTF-8
  81. Codec ID                                 : S_TEXT/UTF8
  82. Codec ID/Info                            : UTF-8 Plain Text
  83. Duration                                 : 2 h 16 min
  84. Bit rate                                 : 35 b/s
  85. Count of elements                        : 1203
  86. Stream size                              : 35.6 KiB (0%)
  87. Title                                    : English-SRT
  88. Language                                 : English
  89. Default                                  : No
  90. Forced                                   : No

  91. Text #3
  92. ID                                       : 6
  93. Format                                   : UTF-8
  94. Codec ID                                 : S_TEXT/UTF8
  95. Codec ID/Info                            : UTF-8 Plain Text
  96. Duration                                 : 2 h 19 min
  97. Bit rate                                 : 37 b/s
  98. Count of elements                        : 1362
  99. Stream size                              : 38.6 KiB (0%)
  100. Title                                    : English-SDH-SRT
  101. Language                                 : English
  102. Default                                  : No
  103. Forced                                   : No

  104. Text #4
  105. ID                                       : 7
  106. Format                                   : PGS
  107. Muxing mode                              : zlib
  108. Codec ID                                 : S_HDMV/PGS
  109. Codec ID/Info                            : Picture based subtitle format used on BDs/HD-DVDs
  110. Duration                                 : 2 h 19 min
  111. Bit rate                                 : 25.0 kb/s
  112. Count of elements                        : 2724
  113. Stream size                              : 25.0 MiB (0%)
  114. Title                                    : English-PGS
  115. Language                                 : English
  116. Default                                  : No
  117. Forced                                   : No

  118. Text #5
  119. ID                                       : 8
  120. Format                                   : PGS
  121. Muxing mode                              : zlib
  122. Codec ID                                 : S_HDMV/PGS
  123. Codec ID/Info                            : Picture based subtitle format used on BDs/HD-DVDs
  124. Duration                                 : 2 h 27 min
  125. Bit rate                                 : 20.2 kb/s
  126. Count of elements                        : 2260
  127. Stream size                              : 21.2 MiB (0%)
  128. Title                                    : Spanish-PGS
  129. Language                                 : Spanish
  130. Default                                  : No
  131. Forced                                   : No

  132. Text #6
  133. ID                                       : 9
  134. Format                                   : PGS
  135. Muxing mode                              : zlib
  136. Codec ID                                 : S_HDMV/PGS
  137. Codec ID/Info                            : Picture based subtitle format used on BDs/HD-DVDs
  138. Duration                                 : 2 h 27 min
  139. Bit rate                                 : 17.7 kb/s
  140. Count of elements                        : 2308
  141. Stream size                              : 18.6 MiB (0%)
  142. Title                                    : French-PGS
  143. Language                                 : French
  144. Default                                  : No
  145. Forced                                   : No

  146. Text #7
  147. ID                                       : 10
  148. Format                                   : PGS
  149. Muxing mode                              : zlib
  150. Codec ID                                 : S_HDMV/PGS
  151. Codec ID/Info                            : Picture based subtitle format used on BDs/HD-DVDs
  152. Duration                                 : 2 h 27 min
  153. Bit rate                                 : 18.4 kb/s
  154. Count of elements                        : 2149
  155. Stream size                              : 19.3 MiB (0%)
  156. Title                                    : Spanish-PGS
  157. Language                                 : Spanish
  158. Default                                  : No
  159. Forced                                   : No

  160. Text #8
  161. ID                                       : 11
  162. Format                                   : PGS
  163. Muxing mode                              : zlib
  164. Codec ID                                 : S_HDMV/PGS
  165. Codec ID/Info                            : Picture based subtitle format used on BDs/HD-DVDs
  166. Duration                                 : 2 h 27 min
  167. Bit rate                                 : 19.1 kb/s
  168. Count of elements                        : 1948
  169. Stream size                              : 20.1 MiB (0%)
  170. Title                                    : Danish-PGS
  171. Language                                 : Danish
  172. Default                                  : No
  173. Forced                                   : No

  174. Text #9
  175. ID                                       : 12
  176. Format                                   : PGS
  177. Muxing mode                              : zlib
  178. Codec ID                                 : S_HDMV/PGS
  179. Codec ID/Info                            : Picture based subtitle format used on BDs/HD-DVDs
  180. Duration                                 : 2 h 27 min
  181. Bit rate                                 : 18.1 kb/s
  182. Count of elements                        : 1937
  183. Stream size                              : 19.1 MiB (0%)
  184. Title                                    : Dutch-PGS
  185. Language                                 : Dutch
  186. Default                                  : No
  187. Forced                                   : No

  188. Text #10
  189. ID                                       : 13
  190. Format                                   : PGS
  191. Muxing mode                              : zlib
  192. Codec ID                                 : S_HDMV/PGS
  193. Codec ID/Info                            : Picture based subtitle format used on BDs/HD-DVDs
  194. Duration                                 : 2 h 27 min
  195. Bit rate                                 : 17.6 kb/s
  196. Count of elements                        : 2217
  197. Stream size                              : 18.5 MiB (0%)
  198. Title                                    : Finnish-PGS
  199. Language                                 : Finnish
  200. Default                                  : No
  201. Forced                                   : No

  202. Text #11
  203. ID                                       : 14
  204. Format                                   : PGS
  205. Muxing mode                              : zlib
  206. Codec ID                                 : S_HDMV/PGS
  207. Codec ID/Info                            : Picture based subtitle format used on BDs/HD-DVDs
  208. Duration                                 : 2 h 27 min
  209. Bit rate                                 : 20.7 kb/s
  210. Count of elements                        : 2168
  211. Stream size                              : 21.8 MiB (0%)
  212. Title                                    : German-PGS
  213. Language                                 : German
  214. Default                                  : No
  215. Forced                                   : No

  216. Text #12
  217. ID                                       : 15
  218. Format                                   : PGS
  219. Muxing mode                              : zlib
  220. Codec ID                                 : S_HDMV/PGS
  221. Codec ID/Info                            : Picture based subtitle format used on BDs/HD-DVDs
  222. Duration                                 : 2 h 27 min
  223. Bit rate                                 : 19.4 kb/s
  224. Count of elements                        : 2000
  225. Stream size                              : 20.4 MiB (0%)
  226. Title                                    : Italian-PGS
  227. Language                                 : Italian
  228. Default                                  : No
  229. Forced                                   : No

  230. Text #13
  231. ID                                       : 16
  232. Format                                   : PGS
  233. Muxing mode                              : zlib
  234. Codec ID                                 : S_HDMV/PGS
  235. Codec ID/Info                            : Picture based subtitle format used on BDs/HD-DVDs
  236. Duration                                 : 2 h 27 min
  237. Bit rate                                 : 17.9 kb/s
  238. Count of elements                        : 1806
  239. Stream size                              : 18.8 MiB (0%)
  240. Title                                    : Norwegian-PGS
  241. Language                                 : Norwegian
  242. Default                                  : No
  243. Forced                                   : No

  244. Text #14
  245. ID                                       : 17
  246. Format                                   : PGS
  247. Muxing mode                              : zlib
  248. Codec ID                                 : S_HDMV/PGS
  249. Codec ID/Info                            : Picture based subtitle format used on BDs/HD-DVDs
  250. Duration                                 : 2 h 27 min
  251. Bit rate                                 : 18.0 kb/s
  252. Count of elements                        : 1822
  253. Stream size                              : 18.9 MiB (0%)
  254. Title                                    : Swedish-PGS
  255. Language                                 : Swedish
  256. Default                                  : No
  257. Forced                                   : No

  258. Text #15
  259. ID                                       : 18
  260. Format                                   : PGS
  261. Muxing mode                              : zlib
  262. Codec ID                                 : S_HDMV/PGS
  263. Codec ID/Info                            : Picture based subtitle format used on BDs/HD-DVDs
  264. Duration                                 : 2 h 27 min
  265. Bit rate                                 : 17.0 kb/s
  266. Count of elements                        : 2244
  267. Stream size                              : 17.9 MiB (0%)
  268. Title                                    : Chinese-PGS
  269. Language                                 : Chinese
  270. Default                                  : No
  271. Forced                                   : No

  272. Text #16
  273. ID                                       : 19
  274. Format                                   : PGS
  275. Muxing mode                              : zlib
  276. Codec ID                                 : S_HDMV/PGS
  277. Codec ID/Info                            : Picture based subtitle format used on BDs/HD-DVDs
  278. Duration                                 : 2 h 27 min
  279. Bit rate                                 : 19.6 kb/s
  280. Count of elements                        : 2226
  281. Stream size                              : 20.6 MiB (0%)
  282. Title                                    : Czech-PGS
  283. Language                                 : Czech
  284. Default                                  : No
  285. Forced                                   : No

  286. Text #17
  287. ID                                       : 20
  288. Format                                   : PGS
  289. Muxing mode                              : zlib
  290. Codec ID                                 : S_HDMV/PGS
  291. Codec ID/Info                            : Picture based subtitle format used on BDs/HD-DVDs
  292. Duration                                 : 2 h 27 min
  293. Bit rate                                 : 19.9 kb/s
  294. Count of elements                        : 1912
  295. Stream size                              : 20.9 MiB (0%)
  296. Title                                    : Hungarian-PGS
  297. Language                                 : Hungarian
  298. Default                                  : No
  299. Forced                                   : No

  300. Text #18
  301. ID                                       : 21
  302. Format                                   : PGS
  303. Muxing mode                              : zlib
  304. Codec ID                                 : S_HDMV/PGS
  305. Codec ID/Info                            : Picture based subtitle format used on BDs/HD-DVDs
  306. Duration                                 : 2 h 27 min
  307. Bit rate                                 : 12.0 kb/s
  308. Count of elements                        : 2242
  309. Stream size                              : 12.7 MiB (0%)
  310. Title                                    : Korean-PGS
  311. Language                                 : Korean
  312. Default                                  : No
  313. Forced                                   : No

  314. Text #19
  315. ID                                       : 22
  316. Format                                   : PGS
  317. Muxing mode                              : zlib
  318. Codec ID                                 : S_HDMV/PGS
  319. Codec ID/Info                            : Picture based subtitle format used on BDs/HD-DVDs
  320. Duration                                 : 2 h 27 min
  321. Bit rate                                 : 15.1 kb/s
  322. Count of elements                        : 2242
  323. Stream size                              : 15.9 MiB (0%)
  324. Title                                    : Chinese-PGS
  325. Language                                 : Chinese
  326. Default                                  : No
  327. Forced                                   : No

  328. Text #20
  329. ID                                       : 23
  330. Format                                   : PGS
  331. Muxing mode                              : zlib
  332. Codec ID                                 : S_HDMV/PGS
  333. Codec ID/Info                            : Picture based subtitle format used on BDs/HD-DVDs
  334. Duration                                 : 2 h 27 min
  335. Bit rate                                 : 18.5 kb/s
  336. Count of elements                        : 2192
  337. Stream size                              : 19.4 MiB (0%)
  338. Title                                    : Polish-PGS
  339. Language                                 : Polish
  340. Default                                  : No
  341. Forced                                   : No

  342. Text #21
  343. ID                                       : 24
  344. Format                                   : PGS
  345. Muxing mode                              : zlib
  346. Codec ID                                 : S_HDMV/PGS
  347. Codec ID/Info                            : Picture based subtitle format used on BDs/HD-DVDs
  348. Duration                                 : 2 h 27 min
  349. Bit rate                                 : 20.8 kb/s
  350. Count of elements                        : 2270
  351. Stream size                              : 21.9 MiB (0%)
  352. Title                                    : Portuguese-PGS
  353. Language                                 : Portuguese
  354. Default                                  : No
  355. Forced                                   : No

  356. Text #22
  357. ID                                       : 25
  358. Format                                   : PGS
  359. Muxing mode                              : zlib
  360. Codec ID                                 : S_HDMV/PGS
  361. Codec ID/Info                            : Picture based subtitle format used on BDs/HD-DVDs
  362. Duration                                 : 1 h 16 min
  363. Bit rate                                 : 435 b/s
  364. Count of elements                        : 78
  365. Stream size                              : 244 KiB (0%)
  366. Title                                    : English-FORCED-PGS
  367. Language                                 : English
  368. Default                                  : No
  369. Forced                                   : No

  370. Menu
  371. 00:00:00.000                             : en:Chapter 01
  372. 00:06:09.744                             : en:Chapter 02
  373. 00:13:05.409                             : en:Chapter 03
  374. 00:18:59.096                             : en:Chapter 04
  375. 00:24:47.402                             : en:Chapter 05
  376. 00:28:04.683                             : en:Chapter 06
  377. 00:32:15.892                             : en:Chapter 07
  378. 00:36:59.217                             : en:Chapter 08
  379. 00:41:57.264                             : en:Chapter 09
  380. 00:46:13.771                             : en:Chapter 10
  381. 00:50:52.507                             : en:Chapter 11
  382. 00:53:43.762                             : en:Chapter 12
  383. 01:00:21.993                             : en:Chapter 13
  384. 01:06:48.754                             : en:Chapter 14
  385. 01:10:59.588                             : en:Chapter 15
  386. 01:15:14.635                             : en:Chapter 16
  387. 01:18:56.273                             : en:Chapter 17
  388. 01:26:11.666                             : en:Chapter 18
  389. 01:29:40.541                             : en:Chapter 19
  390. 01:36:43.798                             : en:Chapter 20
  391. 01:41:45.015                             : en:Chapter 21
  392. 01:49:07.040                             : en:Chapter 22
  393. 01:55:53.404                             : en:Chapter 23
  394. 01:59:39.839                             : en:Chapter 24
  395. 02:04:20.369                             : en:Chapter 25
  396. 02:09:29.136                             : en:Chapter 26
  397. 02:14:06.288                             : en:Chapter 27
  398. 02:19:42.999                             : en:Chapter 28
复制代码

007:幽灵党/007系列24:大破幽灵危机 Spectre.2015.2160p.BluRay.x265.10bit.SDR.DTS-HD.MA.7.1-SWTYBLZ 56.90GB-2.png 007:幽灵党/007系列24:大破幽灵危机 Spectre.2015.2160p.BluRay.x265.10bit.SDR.DTS-HD.MA.7.1-SWTYBLZ 56.90GB-3.png 007:幽灵党/007系列24:大破幽灵危机 Spectre.2015.2160p.BluRay.x265.10bit.SDR.DTS-HD.MA.7.1-SWTYBLZ 56.90GB-4.png 007:幽灵党/007系列24:大破幽灵危机 Spectre.2015.2160p.BluRay.x265.10bit.SDR.DTS-HD.MA.7.1-SWTYBLZ 56.90GB-5.png 007:幽灵党/007系列24:大破幽灵危机 Spectre.2015.2160p.BluRay.x265.10bit.SDR.DTS-HD.MA.7.1-SWTYBLZ 56.90GB-6.png 007:幽灵党/007系列24:大破幽灵危机 Spectre.2015.2160p.BluRay.x265.10bit.SDR.DTS-HD.MA.7.1-SWTYBLZ 56.90GB-7.png 007:幽灵党/007系列24:大破幽灵危机 Spectre.2015.2160p.BluRay.x265.10bit.SDR.DTS-HD.MA.7.1-SWTYBLZ 56.90GB-8.png







回复

使用道具 举报

发表于 2019-10-22 23:57:35 | 显示全部楼层

这个帖子不回对不起自己!我想我是一天也不能离开蓝光电影网
回复 支持 反对

使用道具 举报

发表于 2019-10-23 02:03:23 | 显示全部楼层

这东西我收了!谢谢楼主!蓝光电影网真好!
回复 支持 反对

使用道具 举报

发表于 2019-10-23 08:53:28 | 显示全部楼层

楼主太厉害了!楼主,电影应该很好看我觉得蓝光电影网真是个好地方!
回复 支持 反对

使用道具 举报

发表于 2019-10-23 16:46:47 | 显示全部楼层

这东西我收了!谢谢楼主!蓝光电影网真好!
回复 支持 反对

使用道具 举报

发表于 2019-10-23 23:57:35 | 显示全部楼层
楼主发贴辛苦了,谢谢楼主分享!我觉得蓝光电影网是注册对了!
回复 支持 反对

使用道具 举报

发表于 1 小时前 | 显示全部楼层
楼主发贴辛苦了,谢谢楼主分享!我觉得蓝光电影网是注册对了!
回复 支持 反对

使用道具 举报

懒得打字嘛,点击右侧快捷回复 【右侧内容,后台自定义】
您需要登录后才可以回帖 登录 | 立即加入

本版积分规则

现在加入蓝光电影网,注册一个账号

QQ| 手机版|小黑屋| 蓝光电影网 |网站地图 

Copyright © 2015-2019 Comsenz Inc.  Template by 蓝光电影论坛 All Rights Reserved.

Powered by 蓝光电影网 X3.4

特别声明:本站所有资源均由网上收集而来,版权归原影音公司所有,如果侵犯了你的权益,请通知我们,我们会及时删除侵权内容.

快速回复 返回顶部 返回列表