找回密码

蓝光电影网

查看: 552|回复: 17

[8bit.SDR] 007:大破天幕杀机/007之天降杀机 Skyfall.2012.2160p.BluRay.x264.8bit.SDR.DTS-HD.MA.5.1-SWTYBLZ 38.21GB

[复制链接]

 成长值: 23245

发表于 2019-10-21 23:19:07 | 显示全部楼层 |阅读模式
007:大破天幕杀机/007之天降杀机 Skyfall.2012.2160p.BluRay.x264.8bit.SDR.DTS-HD.MA.5.1-SWTYBLZ 38.21GB-1.png

译  名 007:大破天幕杀机 / 007之天降杀机 / 007系列23:大破天幕杀机 / 007:大破天幕危机 / 007:空降危机(台) / Bond 23 / 天幕坠落 / 新铁金刚智破天凶城(港) / 邦德23
片  名 Skyfall
年  代 2012
产  地 英国 / 美国
类  别 动作 / 惊悚 / 犯罪 / 冒险
语  言 英语 / 土耳其语
上映日期 2012-10-26(英国) / 2012-11-09(美国) / 2013-01-21(中国大陆)
IMDb评分  7.7/10 from 596847 users
IMDb链接  http://www.imdb.com/title/tt1074638
豆瓣评分 7.0/10 from 193099 users
豆瓣链接 https://movie.douban.com/subject/2363876/
片  长 143分钟
导  演 萨姆·门德斯 Sam Mendes
编  剧 尼尔·珀维斯 Neal Purvis / 罗伯特·韦德 Robert Wade / 约翰·洛根 John Logan
主  演 丹尼尔·克雷格 Daniel Craig
       朱迪·丹奇 Judi Dench
       哈维尔·巴登 Javier Bardem
       拉尔夫·费因斯 Ralph Fiennes
       娜奥米·哈里斯 Naomie Harris
       贝纳尼丝·玛尔洛 Bérénice Marlohe
       阿尔伯特·芬尼 Albert Finney
       本·卫肖 Ben Whishaw
       罗里·金奈尔 Rory Kinnear
       Ola Rapace
       海伦·麦克洛瑞 Helen McCrory
       尼古拉斯·伍德森 Nicholas Woodeson
       Bill Buckhurst
       Elize du Toit
       伊恩 博纳 Ian Bonar


标  签 007 | 动作 | 英国 | 特工 | 间谍 | 2012 | 美国 | 剧情

简  介  

  数月前军情六处一块记载了潜伏于全世界恐怖组织内部所有特工名单信息的硬盘丢失,而追索硬盘的行动也以失败告终。在此之后,行动主要负责人M(朱迪·丹奇 Judi Dench 饰)被高层解雇,而军情六处也遭到惨烈的袭击,伤亡惨重。为了查到幕后真凶,M召来佯死的传奇特工詹姆士·邦德(丹尼尔·克雷格 Daniel Craig 饰)。经过一轮严苛的特训和测试,邦德重新服役。在伊芙(娜奥米·哈里斯 Naomie Harris 饰)和新搭档Q(本·卫肖 Ben Whishaw 饰)的协助下,邦德追寻着某前CIA特工的踪迹来到繁华大都会上海。
  在这一过程中,特工的名单不断泄露,而邦德最新一次的生死冒险也拉开序幕……

获奖情况  

  第85届奥斯卡金像奖(2013)
  最佳摄影(提名) 罗杰·狄金斯
  最佳混音(提名)
  最佳音效剪辑
  最佳原创配乐(提名) 托马斯·纽曼
  最佳原创歌曲

  第70届金球奖(2013)
  电影类 最佳原创歌曲

  第36届日本电影学院奖(2013)
  最佳外语片(提名)

  第57届意大利大卫奖(2013)
  最佳欧洲电影(提名) 萨姆·门德斯

  第22届MTV电影奖(2013)
  MTV电影奖 最佳打斗(提名) 奥拉·拉佩斯 / 丹尼尔·克雷格
  MTV电影奖 最佳赤膊表演(提名) 丹尼尔·克雷格
  MTV电影奖 最目瞪口呆场面(提名) 哈维尔·巴登
  MTV电影奖 最佳反派(提名) 哈维尔·巴登
  MTV电影奖 最佳拉丁裔演员 哈维尔·巴登

  第19届美国演员工会奖(2013)
  电影奖 最佳男配角(提名) 哈维尔·巴登
  电影最佳特技群戏 Ben Cooke / Hussain Abdullah / 尼科拉·贝尔维克 / Rob Cooper / Dani Biernat

  第18届美国评论家选择电影奖(2013)
  最佳男配角(提名) 哈维尔·巴登
  最佳女配角(提名) 朱迪·丹奇
  最佳动作片
  动作片最佳男主角 丹尼尔·克雷格
  动作片最佳女主角(提名) 朱迪·丹奇
  最佳摄影(提名) 罗杰·狄金斯
  最佳歌曲 阿黛尔 / 保罗·埃普沃思

  第17届金卫星奖(2012)
  电影部门 最佳剧情片(提名)
  电影部门 最佳男配角 哈维尔·巴登
  电影部门 最佳女配角(提名) 朱迪·丹奇
  电影部门 最佳原创配乐(提名) 托马斯·纽曼
  电影部门 最佳原创歌曲(提名) 阿黛尔 / 保罗·埃普沃思
  电影部门 最佳摄影(提名) 罗杰·狄金斯
  电影部门 最佳视觉效果(提名) 史蒂文·贝格 / 安德鲁·怀特赫斯特 / Arundi Asregadoo

  第47届美国国家影评人协会奖(2013)
  最佳摄影(提名) 罗杰·狄金斯

  第11届华盛顿影评人协会奖(2012)
  最佳男配角(提名) 哈维尔·巴登
  最佳摄影(提名) 罗杰·狄金斯

  第38届洛杉矶影评人协会奖(2012)
  最佳摄影 罗杰·狄金斯

  第25届芝加哥影评人协会奖(2012)
  最佳女配角(提名) 朱迪·丹奇
  最佳摄影(提名) 罗杰·狄金斯
  最佳剪辑(提名) 斯图尔特·贝尔德

  第12届凤凰城影评人协会奖(2012)
  最佳男配角(提名) 哈维尔·巴登
  最佳女配角(提名) 朱迪·丹奇
  最佳原创配乐 托马斯·纽曼
  最佳原创歌曲 阿黛尔 / 保罗·埃普沃思
  最佳摄影(提名) 罗杰·狄金斯
  最佳剪辑(提名) 斯图尔特·贝尔德
  最佳特技表演
  十佳影片(提名)

  第21届东南影评人协会奖(2012)
  最佳摄影(提名) 罗杰·狄金斯

  第15届美国青少年选择奖(2013)
  最佳动作片(提名)
  最佳动作片男演员(提名) 丹尼尔·克雷格
  最佳电影反派(提名) 哈维尔·巴登

  第3届豆瓣电影鑫像奖(2013)
  鑫豆单元 最佳歌曲
  1. Video
  2. ID                                       : 1
  3. Format                                   : AVC
  4. Format/Info                              : Advanced Video Codec
  5. Format profile                           : High@L4
  6. Format settings                          : CABAC / 5 Ref Frames
  7. Format settings, CABAC                   : Yes
  8. Format settings, Reference frames        : 5 frames
  9. Codec ID                                 : V_MPEG4/ISO/AVC
  10. Duration                                 : 2 h 23 min
  11. Bit rate                                 : 33.5 Mb/s
  12. Width                                    : 3 840 pixels
  13. Height                                   : 1 606 pixels
  14. Display aspect ratio                     : 2.40:1
  15. Frame rate mode                          : Constant
  16. Frame rate                               : 23.976 (24000/1001) FPS
  17. Color space                              : YUV
  18. Chroma subsampling                       : 4:2:0
  19. Bit depth                                : 8 bits
  20. Scan type                                : Progressive
  21. Bits/(Pixel*Frame)                       : 0.227
  22. Stream size                              : 33.5 GiB (88%)
  23. Title                                    : Skyfall.2012.2160p.BluRay.x264.8bit.SDR.DTS-HD.MA.5.1-SWTYBLZ
  24. Writing library                          : x264 core 157 r2935 545de2f
  25. Encoding settings                        : cabac=1 / ref=5 / deblock=1:-1:-1 / analyse=0x3:0x113 / me=umh / subme=10 / psy=1 / psy_rd=1.00:0.15 / mixed_ref=1 / me_range=48 / chroma_me=1 / trellis=2 / 8x8dct=1 / cqm=0 / deadzone=21,11 / fast_pskip=1 / chroma_qp_offset=-3 / threads=50 / lookahead_threads=4 / sliced_threads=0 / nr=0 / decimate=0 / interlaced=0 / bluray_compat=0 / constrained_intra=0 / bframes=3 / b_pyramid=2 / b_adapt=2 / b_bias=0 / direct=3 / weightb=1 / open_gop=0 / weightp=2 / keyint=250 / keyint_min=23 / scenecut=40 / intra_refresh=0 / rc_lookahead=50 / rc=crf / mbtree=1 / crf=16.0 / qcomp=0.60 / qpmin=0 / qpmax=69 / qpstep=4 / ip_ratio=1.40 / aq=1:1.00
  26. Language                                 : English
  27. Default                                  : Yes
  28. Forced                                   : No

  29. Audio #1
  30. ID                                       : 2
  31. Format                                   : DTS XLL
  32. Format/Info                              : Digital Theater Systems
  33. Commercial name                          : DTS-HD Master Audio
  34. Codec ID                                 : A_DTS
  35. Duration                                 : 2 h 23 min
  36. Bit rate mode                            : Variable
  37. Bit rate                                 : 3 830 kb/s
  38. Channel(s)                               : 6 channels
  39. Channel layout                           : C L R Ls Rs LFE
  40. Sampling rate                            : 48.0 kHz
  41. Frame rate                               : 93.750 FPS (512 SPF)
  42. Bit depth                                : 24 bits
  43. Compression mode                         : Lossless
  44. Stream size                              : 3.83 GiB (10%)
  45. Title                                    : Skyfall.2012.2160p.BluRay.x264.8bit.SDR.DTS-HD.MA.5.1-SWTYBLZ
  46. Language                                 : English
  47. Default                                  : Yes
  48. Forced                                   : No

  49. Audio #2
  50. ID                                       : 3
  51. Format                                   : AC-3
  52. Format/Info                              : Audio Coding 3
  53. Commercial name                          : Dolby Digital
  54. Codec ID                                 : A_AC3
  55. Duration                                 : 2 h 23 min
  56. Bit rate mode                            : Constant
  57. Bit rate                                 : 640 kb/s
  58. Channel(s)                               : 6 channels
  59. Channel layout                           : L R C LFE Ls Rs
  60. Sampling rate                            : 48.0 kHz
  61. Frame rate                               : 31.250 FPS (1536 SPF)
  62. Bit depth                                : 16 bits
  63. Compression mode                         : Lossy
  64. Stream size                              : 655 MiB (2%)
  65. Title                                    : Skyfall.2012.2160p.BluRay.x264.8bit.SDR.DTS-HD.MA.5.1-SWTYBLZ
  66. Language                                 : English
  67. Service kind                             : Complete Main
  68. Default                                  : No
  69. Forced                                   : No

  70. Text #1
  71. ID                                       : 4
  72. Format                                   : UTF-8
  73. Codec ID                                 : S_TEXT/UTF8
  74. Codec ID/Info                            : UTF-8 Plain Text
  75. Duration                                 : 2 h 16 min
  76. Bit rate                                 : 35 b/s
  77. Count of elements                        : 1171
  78. Stream size                              : 35.4 KiB (0%)
  79. Title                                    : English-SRT
  80. Language                                 : English
  81. Default                                  : Yes
  82. Forced                                   : No

  83. Text #2
  84. ID                                       : 5
  85. Format                                   : UTF-8
  86. Codec ID                                 : S_TEXT/UTF8
  87. Codec ID/Info                            : UTF-8 Plain Text
  88. Duration                                 : 2 h 16 min
  89. Bit rate                                 : 38 b/s
  90. Count of elements                        : 1348
  91. Stream size                              : 38.2 KiB (0%)
  92. Title                                    : English-SDH-SRT
  93. Language                                 : English
  94. Default                                  : No
  95. Forced                                   : No

  96. Text #3
  97. ID                                       : 6
  98. Format                                   : PGS
  99. Muxing mode                              : zlib
  100. Codec ID                                 : S_HDMV/PGS
  101. Codec ID/Info                            : Picture based subtitle format used on BDs/HD-DVDs
  102. Duration                                 : 2 h 16 min
  103. Bit rate                                 : 25.4 kb/s
  104. Count of elements                        : 2696
  105. Stream size                              : 24.9 MiB (0%)
  106. Title                                    : English-PGS
  107. Language                                 : English
  108. Default                                  : No
  109. Forced                                   : No

  110. Text #4
  111. ID                                       : 7
  112. Format                                   : PGS
  113. Muxing mode                              : zlib
  114. Codec ID                                 : S_HDMV/PGS
  115. Codec ID/Info                            : Picture based subtitle format used on BDs/HD-DVDs
  116. Duration                                 : 2 h 21 min
  117. Bit rate                                 : 19.4 kb/s
  118. Count of elements                        : 2068
  119. Stream size                              : 19.6 MiB (0%)
  120. Title                                    : Spanish-PGS
  121. Language                                 : Spanish
  122. Default                                  : No
  123. Forced                                   : No

  124. Text #5
  125. ID                                       : 8
  126. Format                                   : PGS
  127. Muxing mode                              : zlib
  128. Codec ID                                 : S_HDMV/PGS
  129. Codec ID/Info                            : Picture based subtitle format used on BDs/HD-DVDs
  130. Duration                                 : 2 h 21 min
  131. Bit rate                                 : 17.9 kb/s
  132. Count of elements                        : 2200
  133. Stream size                              : 18.1 MiB (0%)
  134. Title                                    : French-PGS
  135. Language                                 : French
  136. Default                                  : No
  137. Forced                                   : No

  138. Text #6
  139. ID                                       : 9
  140. Format                                   : PGS
  141. Muxing mode                              : zlib
  142. Codec ID                                 : S_HDMV/PGS
  143. Codec ID/Info                            : Picture based subtitle format used on BDs/HD-DVDs
  144. Duration                                 : 2 h 21 min
  145. Bit rate                                 : 19.0 kb/s
  146. Count of elements                        : 2166
  147. Stream size                              : 19.2 MiB (0%)
  148. Title                                    : Spanish-PGS
  149. Language                                 : Spanish
  150. Default                                  : No
  151. Forced                                   : No

  152. Text #7
  153. ID                                       : 10
  154. Format                                   : PGS
  155. Muxing mode                              : zlib
  156. Codec ID                                 : S_HDMV/PGS
  157. Codec ID/Info                            : Picture based subtitle format used on BDs/HD-DVDs
  158. Duration                                 : 2 h 21 min
  159. Bit rate                                 : 20.1 kb/s
  160. Count of elements                        : 1990
  161. Stream size                              : 20.3 MiB (0%)
  162. Title                                    : Danish-PGS
  163. Language                                 : Danish
  164. Default                                  : No
  165. Forced                                   : No

  166. Text #8
  167. ID                                       : 11
  168. Format                                   : PGS
  169. Muxing mode                              : zlib
  170. Codec ID                                 : S_HDMV/PGS
  171. Codec ID/Info                            : Picture based subtitle format used on BDs/HD-DVDs
  172. Duration                                 : 2 h 21 min
  173. Bit rate                                 : 17.9 kb/s
  174. Count of elements                        : 1768
  175. Stream size                              : 18.1 MiB (0%)
  176. Title                                    : Dutch-PGS
  177. Language                                 : Dutch
  178. Default                                  : No
  179. Forced                                   : No

  180. Text #9
  181. ID                                       : 12
  182. Format                                   : PGS
  183. Muxing mode                              : zlib
  184. Codec ID                                 : S_HDMV/PGS
  185. Codec ID/Info                            : Picture based subtitle format used on BDs/HD-DVDs
  186. Duration                                 : 2 h 21 min
  187. Bit rate                                 : 16.8 kb/s
  188. Count of elements                        : 2034
  189. Stream size                              : 17.0 MiB (0%)
  190. Title                                    : Finnish-PGS
  191. Language                                 : Finnish
  192. Default                                  : No
  193. Forced                                   : No

  194. Text #10
  195. ID                                       : 13
  196. Format                                   : PGS
  197. Muxing mode                              : zlib
  198. Codec ID                                 : S_HDMV/PGS
  199. Codec ID/Info                            : Picture based subtitle format used on BDs/HD-DVDs
  200. Duration                                 : 2 h 21 min
  201. Bit rate                                 : 21.0 kb/s
  202. Count of elements                        : 2596
  203. Stream size                              : 21.3 MiB (0%)
  204. Title                                    : German-PGS
  205. Language                                 : German
  206. Default                                  : No
  207. Forced                                   : No

  208. Text #11
  209. ID                                       : 14
  210. Format                                   : PGS
  211. Muxing mode                              : zlib
  212. Codec ID                                 : S_HDMV/PGS
  213. Codec ID/Info                            : Picture based subtitle format used on BDs/HD-DVDs
  214. Duration                                 : 2 h 21 min
  215. Bit rate                                 : 18.9 kb/s
  216. Count of elements                        : 2032
  217. Stream size                              : 19.2 MiB (0%)
  218. Title                                    : Italian-PGS
  219. Language                                 : Italian
  220. Default                                  : No
  221. Forced                                   : No

  222. Text #12
  223. ID                                       : 15
  224. Format                                   : PGS
  225. Muxing mode                              : zlib
  226. Codec ID                                 : S_HDMV/PGS
  227. Codec ID/Info                            : Picture based subtitle format used on BDs/HD-DVDs
  228. Duration                                 : 2 h 21 min
  229. Bit rate                                 : 18.3 kb/s
  230. Count of elements                        : 1872
  231. Stream size                              : 18.6 MiB (0%)
  232. Title                                    : Norwegian-PGS
  233. Language                                 : Norwegian
  234. Default                                  : No
  235. Forced                                   : No

  236. Text #13
  237. ID                                       : 16
  238. Format                                   : PGS
  239. Muxing mode                              : zlib
  240. Codec ID                                 : S_HDMV/PGS
  241. Codec ID/Info                            : Picture based subtitle format used on BDs/HD-DVDs
  242. Duration                                 : 2 h 21 min
  243. Bit rate                                 : 17.3 kb/s
  244. Count of elements                        : 1580
  245. Stream size                              : 17.6 MiB (0%)
  246. Title                                    : Swedish-PGS
  247. Language                                 : Swedish
  248. Default                                  : No
  249. Forced                                   : No

  250. Text #14
  251. ID                                       : 17
  252. Format                                   : PGS
  253. Muxing mode                              : zlib
  254. Codec ID                                 : S_HDMV/PGS
  255. Codec ID/Info                            : Picture based subtitle format used on BDs/HD-DVDs
  256. Duration                                 : 2 h 21 min
  257. Bit rate                                 : 18.4 kb/s
  258. Count of elements                        : 2106
  259. Stream size                              : 18.6 MiB (0%)
  260. Title                                    : Chinese-PGS
  261. Language                                 : Chinese
  262. Default                                  : No
  263. Forced                                   : No

  264. Text #15
  265. ID                                       : 18
  266. Format                                   : PGS
  267. Muxing mode                              : zlib
  268. Codec ID                                 : S_HDMV/PGS
  269. Codec ID/Info                            : Picture based subtitle format used on BDs/HD-DVDs
  270. Duration                                 : 2 h 21 min
  271. Bit rate                                 : 19.4 kb/s
  272. Count of elements                        : 2094
  273. Stream size                              : 19.7 MiB (0%)
  274. Title                                    : Czech-PGS
  275. Language                                 : Czech
  276. Default                                  : No
  277. Forced                                   : No

  278. Text #16
  279. ID                                       : 19
  280. Format                                   : PGS
  281. Muxing mode                              : zlib
  282. Codec ID                                 : S_HDMV/PGS
  283. Codec ID/Info                            : Picture based subtitle format used on BDs/HD-DVDs
  284. Duration                                 : 2 h 21 min
  285. Bit rate                                 : 19.7 kb/s
  286. Count of elements                        : 1818
  287. Stream size                              : 19.9 MiB (0%)
  288. Title                                    : Hungarian-PGS
  289. Language                                 : Hungarian
  290. Default                                  : No
  291. Forced                                   : No

  292. Text #17
  293. ID                                       : 20
  294. Format                                   : PGS
  295. Muxing mode                              : zlib
  296. Codec ID                                 : S_HDMV/PGS
  297. Codec ID/Info                            : Picture based subtitle format used on BDs/HD-DVDs
  298. Duration                                 : 2 h 21 min
  299. Bit rate                                 : 11.6 kb/s
  300. Count of elements                        : 2188
  301. Stream size                              : 11.8 MiB (0%)
  302. Title                                    : Korean-PGS
  303. Language                                 : Korean
  304. Default                                  : No
  305. Forced                                   : No

  306. Text #18
  307. ID                                       : 21
  308. Format                                   : PGS
  309. Muxing mode                              : zlib
  310. Codec ID                                 : S_HDMV/PGS
  311. Codec ID/Info                            : Picture based subtitle format used on BDs/HD-DVDs
  312. Duration                                 : 2 h 21 min
  313. Bit rate                                 : 15.0 kb/s
  314. Count of elements                        : 2116
  315. Stream size                              : 15.2 MiB (0%)
  316. Title                                    : Chinese-PGS
  317. Language                                 : Chinese
  318. Default                                  : No
  319. Forced                                   : No

  320. Text #19
  321. ID                                       : 22
  322. Format                                   : PGS
  323. Muxing mode                              : zlib
  324. Codec ID                                 : S_HDMV/PGS
  325. Codec ID/Info                            : Picture based subtitle format used on BDs/HD-DVDs
  326. Duration                                 : 2 h 21 min
  327. Bit rate                                 : 18.3 kb/s
  328. Count of elements                        : 2088
  329. Stream size                              : 18.6 MiB (0%)
  330. Title                                    : Polish-PGS
  331. Language                                 : Polish
  332. Default                                  : No
  333. Forced                                   : No

  334. Text #20
  335. ID                                       : 23
  336. Format                                   : PGS
  337. Muxing mode                              : zlib
  338. Codec ID                                 : S_HDMV/PGS
  339. Codec ID/Info                            : Picture based subtitle format used on BDs/HD-DVDs
  340. Duration                                 : 2 h 22 min
  341. Bit rate                                 : 20.9 kb/s
  342. Count of elements                        : 2206
  343. Stream size                              : 21.4 MiB (0%)
  344. Title                                    : Portuguese-PGS
  345. Language                                 : Portuguese
  346. Default                                  : No
  347. Forced                                   : No

  348. Menu
  349. 00:00:00.000                             : en:Chapter 01
  350. 00:04:28.977                             : en:Chapter 02
  351. 00:07:33.119                             : en:Chapter 03
  352. 00:12:48.058                             : en:Chapter 04
  353. 00:16:48.173                             : en:Chapter 05
  354. 00:21:38.005                             : en:Chapter 06
  355. 00:25:00.957                             : en:Chapter 07
  356. 00:29:25.513                             : en:Chapter 08
  357. 00:35:06.813                             : en:Chapter 09
  358. 00:38:28.431                             : en:Chapter 10
  359. 00:41:25.107                             : en:Chapter 11
  360. 00:46:23.572                             : en:Chapter 12
  361. 00:50:48.962                             : en:Chapter 13
  362. 00:54:53.957                             : en:Chapter 14
  363. 00:59:39.409                             : en:Chapter 15
  364. 01:05:14.827                             : en:Chapter 16
  365. 01:10:16.962                             : en:Chapter 17
  366. 01:17:10.125                             : en:Chapter 18
  367. 01:20:55.725                             : en:Chapter 19
  368. 01:26:11.040                             : en:Chapter 20
  369. 01:31:50.421                             : en:Chapter 21
  370. 01:37:05.194                             : en:Chapter 22
  371. 01:40:49.418                             : en:Chapter 23
  372. 01:43:46.637                             : en:Chapter 24
  373. 01:45:55.015                             : en:Chapter 25
  374. 01:52:10.974                             : en:Chapter 26
  375. 01:54:46.462                             : en:Chapter 27
  376. 01:58:13.711                             : en:Chapter 28
  377. 02:02:49.779                             : en:Chapter 29
  378. 02:09:39.021                             : en:Chapter 30
  379. 02:14:49.956                             : en:Chapter 31
  380. 02:17:46.967                             : en:Chapter 32
复制代码

007:大破天幕杀机/007之天降杀机 Skyfall.2012.2160p.BluRay.x264.8bit.SDR.DTS-HD.MA.5.1-SWTYBLZ 38.21GB-2.png 007:大破天幕杀机/007之天降杀机 Skyfall.2012.2160p.BluRay.x264.8bit.SDR.DTS-HD.MA.5.1-SWTYBLZ 38.21GB-3.png 007:大破天幕杀机/007之天降杀机 Skyfall.2012.2160p.BluRay.x264.8bit.SDR.DTS-HD.MA.5.1-SWTYBLZ 38.21GB-4.png 007:大破天幕杀机/007之天降杀机 Skyfall.2012.2160p.BluRay.x264.8bit.SDR.DTS-HD.MA.5.1-SWTYBLZ 38.21GB-5.png 007:大破天幕杀机/007之天降杀机 Skyfall.2012.2160p.BluRay.x264.8bit.SDR.DTS-HD.MA.5.1-SWTYBLZ 38.21GB-6.png 007:大破天幕杀机/007之天降杀机 Skyfall.2012.2160p.BluRay.x264.8bit.SDR.DTS-HD.MA.5.1-SWTYBLZ 38.21GB-7.png 007:大破天幕杀机/007之天降杀机 Skyfall.2012.2160p.BluRay.x264.8bit.SDR.DTS-HD.MA.5.1-SWTYBLZ 38.21GB-8.png







回复

使用道具 举报

发表于 2019-10-22 01:05:47 | 显示全部楼层
我的电脑放起好卡
回复 支持 反对

使用道具 举报

发表于 2019-10-22 01:26:59 | 显示全部楼层

楼主太厉害了!楼主,电影应该很好看我觉得蓝光电影网真是个好地方!
回复 支持 反对

使用道具 举报

发表于 2019-10-22 01:41:29 | 显示全部楼层

楼主太厉害了!楼主,电影应该很好看我觉得蓝光电影网真是个好地方!
回复 支持 反对

使用道具 举报

 成长值: 1570

发表于 2019-10-22 07:02:08 | 显示全部楼层
楼主发贴辛苦了,谢谢楼主分享!我觉得蓝光电影网是注册对了!
回复 支持 反对

使用道具 举报

发表于 2019-10-22 08:25:32 | 显示全部楼层
楼主发贴辛苦了,谢谢楼主分享!我觉得蓝光电影网是注册对了!
回复 支持 反对

使用道具 举报

发表于 2019-10-22 08:31:58 | 显示全部楼层
楼主发贴辛苦了,谢谢楼主分享!我觉得蓝光电影网是注册对了!
回复 支持 反对

使用道具 举报

发表于 2019-10-22 11:26:27 | 显示全部楼层

我看不错噢 谢谢楼主!蓝光电影网越来越好!
回复 支持 反对

使用道具 举报

发表于 2019-10-22 11:50:34 | 显示全部楼层
我的电脑放起好卡
回复 支持 反对

使用道具 举报

发表于 2019-10-22 12:02:05 | 显示全部楼层

我看不错噢 谢谢楼主!蓝光电影网越来越好!
回复 支持 反对

使用道具 举报

懒得打字嘛,点击右侧快捷回复 【右侧内容,后台自定义】
您需要登录后才可以回帖 登录 | 立即加入

本版积分规则

现在加入蓝光电影网,注册一个账号

QQ| 手机版|小黑屋| 蓝光电影网 |网站地图 

Copyright © 2015-2019 Comsenz Inc.  Template by 蓝光电影论坛 All Rights Reserved.

Powered by 蓝光电影网 X3.4

特别声明:本站所有资源均由网上收集而来,版权归原影音公司所有,如果侵犯了你的权益,请通知我们,我们会及时删除侵权内容.

快速回复 返回顶部 返回列表