找回密码

蓝光电影网

查看: 278|回复: 9

[10bit.SDR] 007:大破天幕杀机/007之天降杀机 Skyfall.2012.2160p.BluRay.x265.10bit.SDR.DTS-HD.MA.5.1-SWTYBLZ 35.22GB

[复制链接]

 成长值: 23155

发表于 2019-10-21 23:17:30 | 显示全部楼层 |阅读模式
007:大破天幕杀机/007之天降杀机 Skyfall.2012.2160p.BluRay.x265.10bit.SDR.DTS-HD.MA.5.1-SWTYBLZ 35.22GB-1.png

译  名 007:大破天幕杀机 / 007之天降杀机 / 007系列23:大破天幕杀机 / 007:大破天幕危机 / 007:空降危机(台) / Bond 23 / 天幕坠落 / 新铁金刚智破天凶城(港) / 邦德23
片  名 Skyfall
年  代 2012
产  地 英国 / 美国
类  别 动作 / 惊悚 / 犯罪 / 冒险
语  言 英语 / 土耳其语
上映日期 2012-10-26(英国) / 2012-11-09(美国) / 2013-01-21(中国大陆)
IMDb评分  7.7/10 from 596847 users
IMDb链接  http://www.imdb.com/title/tt1074638
豆瓣评分 7.0/10 from 193099 users
豆瓣链接 https://movie.douban.com/subject/2363876/
片  长 143分钟
导  演 萨姆·门德斯 Sam Mendes
编  剧 尼尔·珀维斯 Neal Purvis / 罗伯特·韦德 Robert Wade / 约翰·洛根 John Logan
主  演 丹尼尔·克雷格 Daniel Craig
       朱迪·丹奇 Judi Dench
       哈维尔·巴登 Javier Bardem
       拉尔夫·费因斯 Ralph Fiennes
       娜奥米·哈里斯 Naomie Harris
       贝纳尼丝·玛尔洛 Bérénice Marlohe
       阿尔伯特·芬尼 Albert Finney
       本·卫肖 Ben Whishaw
       罗里·金奈尔 Rory Kinnear
       Ola Rapace
       海伦·麦克洛瑞 Helen McCrory
       尼古拉斯·伍德森 Nicholas Woodeson
       Bill Buckhurst
       Elize du Toit
       伊恩 博纳 Ian Bonar


标  签 007 | 动作 | 英国 | 特工 | 间谍 | 2012 | 美国 | 剧情

简  介  

  数月前军情六处一块记载了潜伏于全世界恐怖组织内部所有特工名单信息的硬盘丢失,而追索硬盘的行动也以失败告终。在此之后,行动主要负责人M(朱迪·丹奇 Judi Dench 饰)被高层解雇,而军情六处也遭到惨烈的袭击,伤亡惨重。为了查到幕后真凶,M召来佯死的传奇特工詹姆士·邦德(丹尼尔·克雷格 Daniel Craig 饰)。经过一轮严苛的特训和测试,邦德重新服役。在伊芙(娜奥米·哈里斯 Naomie Harris 饰)和新搭档Q(本·卫肖 Ben Whishaw 饰)的协助下,邦德追寻着某前CIA特工的踪迹来到繁华大都会上海。
  在这一过程中,特工的名单不断泄露,而邦德最新一次的生死冒险也拉开序幕……

获奖情况  

  第85届奥斯卡金像奖(2013)
  最佳摄影(提名) 罗杰·狄金斯
  最佳混音(提名)
  最佳音效剪辑
  最佳原创配乐(提名) 托马斯·纽曼
  最佳原创歌曲

  第70届金球奖(2013)
  电影类 最佳原创歌曲

  第36届日本电影学院奖(2013)
  最佳外语片(提名)

  第57届意大利大卫奖(2013)
  最佳欧洲电影(提名) 萨姆·门德斯

  第22届MTV电影奖(2013)
  MTV电影奖 最佳打斗(提名) 奥拉·拉佩斯 / 丹尼尔·克雷格
  MTV电影奖 最佳赤膊表演(提名) 丹尼尔·克雷格
  MTV电影奖 最目瞪口呆场面(提名) 哈维尔·巴登
  MTV电影奖 最佳反派(提名) 哈维尔·巴登
  MTV电影奖 最佳拉丁裔演员 哈维尔·巴登

  第19届美国演员工会奖(2013)
  电影奖 最佳男配角(提名) 哈维尔·巴登
  电影最佳特技群戏 Ben Cooke / Hussain Abdullah / 尼科拉·贝尔维克 / Rob Cooper / Dani Biernat

  第18届美国评论家选择电影奖(2013)
  最佳男配角(提名) 哈维尔·巴登
  最佳女配角(提名) 朱迪·丹奇
  最佳动作片
  动作片最佳男主角 丹尼尔·克雷格
  动作片最佳女主角(提名) 朱迪·丹奇
  最佳摄影(提名) 罗杰·狄金斯
  最佳歌曲 阿黛尔 / 保罗·埃普沃思

  第17届金卫星奖(2012)
  电影部门 最佳剧情片(提名)
  电影部门 最佳男配角 哈维尔·巴登
  电影部门 最佳女配角(提名) 朱迪·丹奇
  电影部门 最佳原创配乐(提名) 托马斯·纽曼
  电影部门 最佳原创歌曲(提名) 阿黛尔 / 保罗·埃普沃思
  电影部门 最佳摄影(提名) 罗杰·狄金斯
  电影部门 最佳视觉效果(提名) 史蒂文·贝格 / 安德鲁·怀特赫斯特 / Arundi Asregadoo

  第47届美国国家影评人协会奖(2013)
  最佳摄影(提名) 罗杰·狄金斯

  第11届华盛顿影评人协会奖(2012)
  最佳男配角(提名) 哈维尔·巴登
  最佳摄影(提名) 罗杰·狄金斯

  第38届洛杉矶影评人协会奖(2012)
  最佳摄影 罗杰·狄金斯

  第25届芝加哥影评人协会奖(2012)
  最佳女配角(提名) 朱迪·丹奇
  最佳摄影(提名) 罗杰·狄金斯
  最佳剪辑(提名) 斯图尔特·贝尔德

  第12届凤凰城影评人协会奖(2012)
  最佳男配角(提名) 哈维尔·巴登
  最佳女配角(提名) 朱迪·丹奇
  最佳原创配乐 托马斯·纽曼
  最佳原创歌曲 阿黛尔 / 保罗·埃普沃思
  最佳摄影(提名) 罗杰·狄金斯
  最佳剪辑(提名) 斯图尔特·贝尔德
  最佳特技表演
  十佳影片(提名)

  第21届东南影评人协会奖(2012)
  最佳摄影(提名) 罗杰·狄金斯

  第15届美国青少年选择奖(2013)
  最佳动作片(提名)
  最佳动作片男演员(提名) 丹尼尔·克雷格
  最佳电影反派(提名) 哈维尔·巴登

  第3届豆瓣电影鑫像奖(2013)
  鑫豆单元 最佳歌曲
  1. Video
  2. ID                                       : 1
  3. Format                                   : HEVC
  4. Format/Info                              : High Efficiency Video Coding
  5. Format profile                           : Main High@L4@High
  6. Codec ID                                 : V_MPEGH/ISO/HEVC
  7. Duration                                 : 2 h 23 min
  8. Bit rate                                 : 30.5 Mb/s
  9. Width                                    : 3 840 pixels
  10. Height                                   : 1 606 pixels
  11. Display aspect ratio                     : 2.40:1
  12. Frame rate mode                          : Constant
  13. Frame rate                               : 23.976 (24000/1001) FPS
  14. Color space                              : YUV
  15. Chroma subsampling                       : 4:2:0
  16. Bit depth                                : 10 bits
  17. Bits/(Pixel*Frame)                       : 0.207
  18. Stream size                              : 30.5 GiB (87%)
  19. Title                                    : Skyfall.2012.2160p.BluRay.x265.10bit.SDR.DTS-HD.MA.5.1-SWTYBLZ
  20. Writing library                          : x265 3.0_RC0614145ecaf2:[Windows][GCC 8.2.1][64 bit] 10bit
  21. Encoding settings                        : cpuid=1111039 / frame-threads=16 / numa-pools=24,24,24,24 / wpp / no-pmode / no-pme / no-psnr / no-ssim / log-level=2 / input-csp=1 / input-res=3840x1606 / interlace=0 / total-frames=205960 / level-idc=51 / high-tier=1 / uhd-bd=0 / ref=3 / no-allow-non-conformance / repeat-headers / annexb / aud / hrd / info / hash=0 / no-temporal-layers / no-open-gop / min-keyint=1 / keyint=24 / gop-lookahead=0 / bframes=4 / b-adapt=2 / b-pyramid / bframe-bias=0 / rc-lookahead=25 / lookahead-slices=4 / scenecut=40 / radl=0 / no-splice / no-intra-refresh / ctu=64 / min-cu-size=8 / no-rect / no-amp / max-tu-size=32 / tu-inter-depth=1 / tu-intra-depth=1 / limit-tu=0 / rdoq-level=0 / dynamic-rd=0.00 / no-ssim-rd / signhide / no-tskip / nr-intra=0 / nr-inter=0 / no-constrained-intra / strong-intra-smoothing / max-merge=2 / limit-refs=3 / no-limit-modes / me=1 / subme=2 / merange=57 / temporal-mvp / weightp / no-weightb / no-analyze-src-pics / deblock=0:0 / no-sao / no-sao-non-deblock / rd=3 / no-early-skip / rskip / no-fast-intra / no-tskip-fast / no-cu-lossless / no-b-intra / no-splitrd-skip / rdpenalty=0 / psy-rd=2.00 / psy-rdoq=0.00 / no-rd-refine / no-lossless / cbqpoffs=0 / crqpoffs=0 / rc=crf / crf=14.0 / qcomp=0.60 / qpstep=4 / stats-write=0 / stats-read=0 / vbv-maxrate=160000 / vbv-bufsize=160000 / vbv-init=0.9 / crf-max=0.0 / crf-min=0.0 / ipratio=1.40 / pbratio=1.30 / aq-mode=1 / aq-strength=1.00 / cutree / zone-count=0 / no-strict-cbr / qg-size=32 / no-rc-grain / qpmax=69 / qpmin=0 / no-const-vbv / sar=1 / overscan=0 / videoformat=5 / range=0 / colorprim=2 / transfer=2 / colormatrix=2 / chromaloc=0 / display-window=0 / max-cll=0,0 / min-luma=0 / max-luma=1023 / log2-max-poc-lsb=8 / vui-timing-info / vui-hrd-info / slices=1 / opt-qp-pps / opt-ref-list-length-pps / no-multi-pass-opt-rps / scenecut-bias=0.05 / no-opt-cu-delta-qp / no-aq-motion / no-hdr / no-hdr-opt / no-dhdr10-opt / no-idr-recovery-sei / analysis-reuse-level=5 / scale-factor=0 / refine-intra=0 / refine-inter=0 / refine-mv=0 / refine-ctu-distortion=0 / no-limit-sao / ctu-info=0 / no-lowpass-dct / refine-analysis-type=0 / copy-pic=1 / max-ausize-factor=1.0 / no-dynamic-refine / no-single-sei / no-hevc-aq / qp-adaptation-range=1.00
  22. Default                                  : Yes
  23. Forced                                   : No

  24. Audio #1
  25. ID                                       : 2
  26. Format                                   : DTS XLL
  27. Format/Info                              : Digital Theater Systems
  28. Commercial name                          : DTS-HD Master Audio
  29. Codec ID                                 : A_DTS
  30. Duration                                 : 2 h 23 min
  31. Bit rate mode                            : Variable
  32. Bit rate                                 : 3 830 kb/s
  33. Channel(s)                               : 6 channels
  34. Channel layout                           : C L R Ls Rs LFE
  35. Sampling rate                            : 48.0 kHz
  36. Frame rate                               : 93.750 FPS (512 SPF)
  37. Bit depth                                : 24 bits
  38. Compression mode                         : Lossless
  39. Stream size                              : 3.83 GiB (11%)
  40. Title                                    : Skyfall.2012.2160p.BluRay.x265.10bit.SDR.DTS-HD.MA.5.1-SWTYBLZ
  41. Language                                 : English
  42. Default                                  : Yes
  43. Forced                                   : No

  44. Audio #2
  45. ID                                       : 3
  46. Format                                   : AC-3
  47. Format/Info                              : Audio Coding 3
  48. Commercial name                          : Dolby Digital
  49. Codec ID                                 : A_AC3
  50. Duration                                 : 2 h 23 min
  51. Bit rate mode                            : Constant
  52. Bit rate                                 : 640 kb/s
  53. Channel(s)                               : 6 channels
  54. Channel layout                           : L R C LFE Ls Rs
  55. Sampling rate                            : 48.0 kHz
  56. Frame rate                               : 31.250 FPS (1536 SPF)
  57. Bit depth                                : 16 bits
  58. Compression mode                         : Lossy
  59. Stream size                              : 655 MiB (2%)
  60. Title                                    : Skyfall.2012.2160p.BluRay.x265.10bit.SDR.DTS-HD.MA.5.1-SWTYBLZ
  61. Language                                 : English
  62. Service kind                             : Complete Main
  63. Default                                  : No
  64. Forced                                   : No

  65. Text #1
  66. ID                                       : 4
  67. Format                                   : UTF-8
  68. Codec ID                                 : S_TEXT/UTF8
  69. Codec ID/Info                            : UTF-8 Plain Text
  70. Duration                                 : 2 h 16 min
  71. Bit rate                                 : 35 b/s
  72. Count of elements                        : 1171
  73. Stream size                              : 35.4 KiB (0%)
  74. Title                                    : English-SRT
  75. Language                                 : English
  76. Default                                  : Yes
  77. Forced                                   : No

  78. Text #2
  79. ID                                       : 5
  80. Format                                   : UTF-8
  81. Codec ID                                 : S_TEXT/UTF8
  82. Codec ID/Info                            : UTF-8 Plain Text
  83. Duration                                 : 2 h 16 min
  84. Bit rate                                 : 38 b/s
  85. Count of elements                        : 1348
  86. Stream size                              : 38.2 KiB (0%)
  87. Title                                    : English-SDH-SRT
  88. Language                                 : English
  89. Default                                  : No
  90. Forced                                   : No

  91. Text #3
  92. ID                                       : 6
  93. Format                                   : PGS
  94. Muxing mode                              : zlib
  95. Codec ID                                 : S_HDMV/PGS
  96. Codec ID/Info                            : Picture based subtitle format used on BDs/HD-DVDs
  97. Duration                                 : 2 h 16 min
  98. Bit rate                                 : 25.4 kb/s
  99. Count of elements                        : 2696
  100. Stream size                              : 24.9 MiB (0%)
  101. Title                                    : English-PGS
  102. Language                                 : English
  103. Default                                  : No
  104. Forced                                   : No

  105. Text #4
  106. ID                                       : 7
  107. Format                                   : PGS
  108. Muxing mode                              : zlib
  109. Codec ID                                 : S_HDMV/PGS
  110. Codec ID/Info                            : Picture based subtitle format used on BDs/HD-DVDs
  111. Duration                                 : 2 h 21 min
  112. Bit rate                                 : 19.4 kb/s
  113. Count of elements                        : 2068
  114. Stream size                              : 19.6 MiB (0%)
  115. Title                                    : Spanish-PGS
  116. Language                                 : Spanish
  117. Default                                  : No
  118. Forced                                   : No

  119. Text #5
  120. ID                                       : 8
  121. Format                                   : PGS
  122. Muxing mode                              : zlib
  123. Codec ID                                 : S_HDMV/PGS
  124. Codec ID/Info                            : Picture based subtitle format used on BDs/HD-DVDs
  125. Duration                                 : 2 h 21 min
  126. Bit rate                                 : 17.9 kb/s
  127. Count of elements                        : 2200
  128. Stream size                              : 18.1 MiB (0%)
  129. Title                                    : French-PGS
  130. Language                                 : French
  131. Default                                  : No
  132. Forced                                   : No

  133. Text #6
  134. ID                                       : 9
  135. Format                                   : PGS
  136. Muxing mode                              : zlib
  137. Codec ID                                 : S_HDMV/PGS
  138. Codec ID/Info                            : Picture based subtitle format used on BDs/HD-DVDs
  139. Duration                                 : 2 h 21 min
  140. Bit rate                                 : 19.0 kb/s
  141. Count of elements                        : 2166
  142. Stream size                              : 19.2 MiB (0%)
  143. Title                                    : Spanish-PGS
  144. Language                                 : Spanish
  145. Default                                  : No
  146. Forced                                   : No

  147. Text #7
  148. ID                                       : 10
  149. Format                                   : PGS
  150. Muxing mode                              : zlib
  151. Codec ID                                 : S_HDMV/PGS
  152. Codec ID/Info                            : Picture based subtitle format used on BDs/HD-DVDs
  153. Duration                                 : 2 h 21 min
  154. Bit rate                                 : 20.1 kb/s
  155. Count of elements                        : 1990
  156. Stream size                              : 20.3 MiB (0%)
  157. Title                                    : Danish-PGS
  158. Language                                 : Danish
  159. Default                                  : No
  160. Forced                                   : No

  161. Text #8
  162. ID                                       : 11
  163. Format                                   : PGS
  164. Muxing mode                              : zlib
  165. Codec ID                                 : S_HDMV/PGS
  166. Codec ID/Info                            : Picture based subtitle format used on BDs/HD-DVDs
  167. Duration                                 : 2 h 21 min
  168. Bit rate                                 : 17.9 kb/s
  169. Count of elements                        : 1768
  170. Stream size                              : 18.1 MiB (0%)
  171. Title                                    : Dutch-PGS
  172. Language                                 : Dutch
  173. Default                                  : No
  174. Forced                                   : No

  175. Text #9
  176. ID                                       : 12
  177. Format                                   : PGS
  178. Muxing mode                              : zlib
  179. Codec ID                                 : S_HDMV/PGS
  180. Codec ID/Info                            : Picture based subtitle format used on BDs/HD-DVDs
  181. Duration                                 : 2 h 21 min
  182. Bit rate                                 : 16.8 kb/s
  183. Count of elements                        : 2034
  184. Stream size                              : 17.0 MiB (0%)
  185. Title                                    : Finnish-PGS
  186. Language                                 : Finnish
  187. Default                                  : No
  188. Forced                                   : No

  189. Text #10
  190. ID                                       : 13
  191. Format                                   : PGS
  192. Muxing mode                              : zlib
  193. Codec ID                                 : S_HDMV/PGS
  194. Codec ID/Info                            : Picture based subtitle format used on BDs/HD-DVDs
  195. Duration                                 : 2 h 21 min
  196. Bit rate                                 : 21.0 kb/s
  197. Count of elements                        : 2596
  198. Stream size                              : 21.3 MiB (0%)
  199. Title                                    : German-PGS
  200. Language                                 : German
  201. Default                                  : No
  202. Forced                                   : No

  203. Text #11
  204. ID                                       : 14
  205. Format                                   : PGS
  206. Muxing mode                              : zlib
  207. Codec ID                                 : S_HDMV/PGS
  208. Codec ID/Info                            : Picture based subtitle format used on BDs/HD-DVDs
  209. Duration                                 : 2 h 21 min
  210. Bit rate                                 : 18.9 kb/s
  211. Count of elements                        : 2032
  212. Stream size                              : 19.2 MiB (0%)
  213. Title                                    : Italian-PGS
  214. Language                                 : Italian
  215. Default                                  : No
  216. Forced                                   : No

  217. Text #12
  218. ID                                       : 15
  219. Format                                   : PGS
  220. Muxing mode                              : zlib
  221. Codec ID                                 : S_HDMV/PGS
  222. Codec ID/Info                            : Picture based subtitle format used on BDs/HD-DVDs
  223. Duration                                 : 2 h 21 min
  224. Bit rate                                 : 18.3 kb/s
  225. Count of elements                        : 1872
  226. Stream size                              : 18.6 MiB (0%)
  227. Title                                    : Norwegian-PGS
  228. Language                                 : Norwegian
  229. Default                                  : No
  230. Forced                                   : No

  231. Text #13
  232. ID                                       : 16
  233. Format                                   : PGS
  234. Muxing mode                              : zlib
  235. Codec ID                                 : S_HDMV/PGS
  236. Codec ID/Info                            : Picture based subtitle format used on BDs/HD-DVDs
  237. Duration                                 : 2 h 21 min
  238. Bit rate                                 : 17.3 kb/s
  239. Count of elements                        : 1580
  240. Stream size                              : 17.6 MiB (0%)
  241. Title                                    : Swedish-PGS
  242. Language                                 : Swedish
  243. Default                                  : No
  244. Forced                                   : No

  245. Text #14
  246. ID                                       : 17
  247. Format                                   : PGS
  248. Muxing mode                              : zlib
  249. Codec ID                                 : S_HDMV/PGS
  250. Codec ID/Info                            : Picture based subtitle format used on BDs/HD-DVDs
  251. Duration                                 : 2 h 21 min
  252. Bit rate                                 : 18.4 kb/s
  253. Count of elements                        : 2106
  254. Stream size                              : 18.6 MiB (0%)
  255. Title                                    : Chinese-PGS
  256. Language                                 : Chinese
  257. Default                                  : No
  258. Forced                                   : No

  259. Text #15
  260. ID                                       : 18
  261. Format                                   : PGS
  262. Muxing mode                              : zlib
  263. Codec ID                                 : S_HDMV/PGS
  264. Codec ID/Info                            : Picture based subtitle format used on BDs/HD-DVDs
  265. Duration                                 : 2 h 21 min
  266. Bit rate                                 : 19.4 kb/s
  267. Count of elements                        : 2094
  268. Stream size                              : 19.7 MiB (0%)
  269. Title                                    : Czech-PGS
  270. Language                                 : Czech
  271. Default                                  : No
  272. Forced                                   : No

  273. Text #16
  274. ID                                       : 19
  275. Format                                   : PGS
  276. Muxing mode                              : zlib
  277. Codec ID                                 : S_HDMV/PGS
  278. Codec ID/Info                            : Picture based subtitle format used on BDs/HD-DVDs
  279. Duration                                 : 2 h 21 min
  280. Bit rate                                 : 19.7 kb/s
  281. Count of elements                        : 1818
  282. Stream size                              : 19.9 MiB (0%)
  283. Title                                    : Hungarian-PGS
  284. Language                                 : Hungarian
  285. Default                                  : No
  286. Forced                                   : No

  287. Text #17
  288. ID                                       : 20
  289. Format                                   : PGS
  290. Muxing mode                              : zlib
  291. Codec ID                                 : S_HDMV/PGS
  292. Codec ID/Info                            : Picture based subtitle format used on BDs/HD-DVDs
  293. Duration                                 : 2 h 21 min
  294. Bit rate                                 : 11.6 kb/s
  295. Count of elements                        : 2188
  296. Stream size                              : 11.8 MiB (0%)
  297. Title                                    : Korean-PGS
  298. Language                                 : Korean
  299. Default                                  : No
  300. Forced                                   : No

  301. Text #18
  302. ID                                       : 21
  303. Format                                   : PGS
  304. Muxing mode                              : zlib
  305. Codec ID                                 : S_HDMV/PGS
  306. Codec ID/Info                            : Picture based subtitle format used on BDs/HD-DVDs
  307. Duration                                 : 2 h 21 min
  308. Bit rate                                 : 15.0 kb/s
  309. Count of elements                        : 2116
  310. Stream size                              : 15.2 MiB (0%)
  311. Title                                    : Chinese-PGS
  312. Language                                 : Chinese
  313. Default                                  : No
  314. Forced                                   : No

  315. Text #19
  316. ID                                       : 22
  317. Format                                   : PGS
  318. Muxing mode                              : zlib
  319. Codec ID                                 : S_HDMV/PGS
  320. Codec ID/Info                            : Picture based subtitle format used on BDs/HD-DVDs
  321. Duration                                 : 2 h 21 min
  322. Bit rate                                 : 18.3 kb/s
  323. Count of elements                        : 2088
  324. Stream size                              : 18.6 MiB (0%)
  325. Title                                    : Polish-PGS
  326. Language                                 : Polish
  327. Default                                  : No
  328. Forced                                   : No

  329. Text #20
  330. ID                                       : 23
  331. Format                                   : PGS
  332. Muxing mode                              : zlib
  333. Codec ID                                 : S_HDMV/PGS
  334. Codec ID/Info                            : Picture based subtitle format used on BDs/HD-DVDs
  335. Duration                                 : 2 h 22 min
  336. Bit rate                                 : 20.9 kb/s
  337. Count of elements                        : 2206
  338. Stream size                              : 21.4 MiB (0%)
  339. Title                                    : Portuguese-PGS
  340. Language                                 : Portuguese
  341. Default                                  : No
  342. Forced                                   : No

  343. Menu
  344. 00:00:00.000                             : en:Chapter 01
  345. 00:04:28.977                             : en:Chapter 02
  346. 00:07:33.119                             : en:Chapter 03
  347. 00:12:48.058                             : en:Chapter 04
  348. 00:16:48.173                             : en:Chapter 05
  349. 00:21:38.005                             : en:Chapter 06
  350. 00:25:00.957                             : en:Chapter 07
  351. 00:29:25.513                             : en:Chapter 08
  352. 00:35:06.813                             : en:Chapter 09
  353. 00:38:28.431                             : en:Chapter 10
  354. 00:41:25.107                             : en:Chapter 11
  355. 00:46:23.572                             : en:Chapter 12
  356. 00:50:48.962                             : en:Chapter 13
  357. 00:54:53.957                             : en:Chapter 14
  358. 00:59:39.409                             : en:Chapter 15
  359. 01:05:14.827                             : en:Chapter 16
  360. 01:10:16.962                             : en:Chapter 17
  361. 01:17:10.125                             : en:Chapter 18
  362. 01:20:55.725                             : en:Chapter 19
  363. 01:26:11.040                             : en:Chapter 20
  364. 01:31:50.421                             : en:Chapter 21
  365. 01:37:05.194                             : en:Chapter 22
  366. 01:40:49.418                             : en:Chapter 23
  367. 01:43:46.637                             : en:Chapter 24
  368. 01:45:55.015                             : en:Chapter 25
  369. 01:52:10.974                             : en:Chapter 26
  370. 01:54:46.462                             : en:Chapter 27
  371. 01:58:13.711                             : en:Chapter 28
  372. 02:02:49.779                             : en:Chapter 29
  373. 02:09:39.021                             : en:Chapter 30
  374. 02:14:49.956                             : en:Chapter 31
  375. 02:17:46.967                             : en:Chapter 32
复制代码

231540wepeijet6b8poeos.png 007:大破天幕杀机/007之天降杀机 Skyfall.2012.2160p.BluRay.x265.10bit.SDR.DTS-HD.MA.5.1-SWTYBLZ 35.22GB-3.png 007:大破天幕杀机/007之天降杀机 Skyfall.2012.2160p.BluRay.x265.10bit.SDR.DTS-HD.MA.5.1-SWTYBLZ 35.22GB-4.png 007:大破天幕杀机/007之天降杀机 Skyfall.2012.2160p.BluRay.x265.10bit.SDR.DTS-HD.MA.5.1-SWTYBLZ 35.22GB-5.png 007:大破天幕杀机/007之天降杀机 Skyfall.2012.2160p.BluRay.x265.10bit.SDR.DTS-HD.MA.5.1-SWTYBLZ 35.22GB-6.png 007:大破天幕杀机/007之天降杀机 Skyfall.2012.2160p.BluRay.x265.10bit.SDR.DTS-HD.MA.5.1-SWTYBLZ 35.22GB-7.png 007:大破天幕杀机/007之天降杀机 Skyfall.2012.2160p.BluRay.x265.10bit.SDR.DTS-HD.MA.5.1-SWTYBLZ 35.22GB-8.png







回复

使用道具 举报

发表于 2019-10-22 09:20:23 | 显示全部楼层

楼主太厉害了!楼主,电影应该很好看我觉得蓝光电影网真是个好地方!
回复 支持 反对

使用道具 举报

发表于 2019-10-22 14:19:19 | 显示全部楼层
谢谢分享!!!!!!!
回复

使用道具 举报

发表于 2019-10-22 14:34:29 | 显示全部楼层
谢谢分享,007系列最爱
回复 支持 反对

使用道具 举报

发表于 2019-10-22 20:26:46 | 显示全部楼层

既然你诚信诚意的推荐了,那我就勉为其难的看看吧!蓝光电影网不走平凡路。
回复 支持 反对

使用道具 举报

已抛锚 成长值: 5530

发表于 2019-10-22 21:43:56 | 显示全部楼层
既然你诚信诚意的推荐了,那我就勉为其难的看看吧!蓝光电影网不走平凡路。
回复 支持 反对

使用道具 举报

发表于 2019-10-24 08:42:42 | 显示全部楼层

我看不错噢 谢谢楼主!蓝光电影网越来越好!
回复 支持 反对

使用道具 举报

发表于 2019-10-24 13:01:18 | 显示全部楼层

这个帖子不回对不起自己!我想我是一天也不能离开蓝光电影网
回复 支持 反对

使用道具 举报

 成长值: 180

发表于 2019-10-26 01:06:44 | 显示全部楼层
是内嵌字幕吗?
回复 支持 反对

使用道具 举报

发表于 2019-10-27 13:40:31 来自手机 | 显示全部楼层
看看,谢谢
回复

使用道具 举报

懒得打字嘛,点击右侧快捷回复 【右侧内容,后台自定义】
您需要登录后才可以回帖 登录 | 立即加入

本版积分规则

现在加入蓝光电影网,注册一个账号

QQ| 手机版|小黑屋| 蓝光电影网 |网站地图

Copyright © 2015-2019 Comsenz Inc.  Template by 蓝光电影论坛 All Rights Reserved.

Powered by 蓝光电影网 X3.4

特别声明:本站所有资源均由网上收集而来,版权归原影音公司所有,如果侵犯了你的权益,请通知我们,我们会及时删除侵权内容.

快速回复 返回顶部 返回列表