找回密码

蓝光电影网

查看: 335|回复: 11

[REMUX.HEVC] 007:幽灵党/007系列24:大破幽灵危机 Spectre.2015.2160p.BluRay.REMUX.HEVC.DTS-HD.MA.7.1-FGT 54.55GB

[复制链接]

 成长值: 23155

发表于 2019-10-21 23:07:01 | 显示全部楼层 |阅读模式
007:幽灵党/007系列24:大破幽灵危机 Spectre.2015.2160p.BluRay.REMUX.HEVC.DTS-HD.MA.7.1-FGT 54.55GB-1.png

译  名 007:幽灵党 / 007系列24:大破幽灵危机 / 007:大破幽灵危机 / 007:恶魔四伏(台) / 007:鬼影帝国(港) / 邦德24
片  名 Spectre
年  代 2015
产  地 英国 / 美国
类  别 动作 / 惊悚 / 冒险
语  言 英语 / 西班牙语 / 意大利语 / 德语 / 法语
上映日期 2015-10-26(英国) / 2015-11-06(美国) / 2015-11-13(中国大陆)
IMDb评分  6.8/10 from 356469 users
IMDb链接  http://www.imdb.com/title/tt2379713
豆瓣评分 6.3/10 from 137440 users
豆瓣链接 https://movie.douban.com/subject/11620560/
片  长 148分钟
导  演 萨姆·门德斯 Sam Mendes
编  剧 约翰·洛根 John Logan / 尼尔·珀维斯 Neal Purvis / 罗伯特·韦德 Robert Wade / 杰斯·巴特沃斯 Jez Butterworth / 伊恩·弗莱明 Ian Fleming
主  演 丹尼尔·克雷格 Daniel Craig
       克里斯托弗·沃尔兹 Christoph Waltz
       蕾雅·赛杜 Léa Seydoux
       本·卫肖 Ben Whishaw
       娜奥米·哈里斯 Naomie Harris
       戴夫·巴蒂斯塔 Dave Batista
       莫妮卡·贝鲁奇 Monica Bellucci
       拉尔夫·费因斯 Ralph Fiennes
       斯黛芬妮·西格曼 Stephanie Sigman
       安德鲁·斯科特 Andrew Scott
       罗里·金奈尔 Rory Kinnear
       内芙·加切夫 Neve Gachev
       加斯帕·克里斯滕森 Jesper Christensen
       Daniel Stisen
       Daniel Westwood
       拉斯科·阿特金斯 Lasco Atkins


标  签 007 | 动作 | 特工 | 英国 | 2015 | 美国 | 犯罪 | 冒险

简  介  

  一个来自过去的加密信息让詹姆斯·邦德开始了一个神秘任务,从墨西哥城到最终的罗马,在那儿他邂逅了美艳的露琪亚·斯琪拉(莫妮卡·贝鲁奇 Monica Bellucci 饰),而她则是一名臭名昭著的意大利黑手党寡妇。邦德潜入到了一个密会中,揭开了一个名叫“幽灵党”的邪恶组织背后的秘密。
  然而,远在伦敦的国家安全中心的新任负责人马克思·登彼(安德鲁·斯考特 Andrew Scott 饰)怀疑邦德这次行动的目的,并挑战M(拉尔夫·费恩斯 Ralph Fiennes 饰)掌权的军情六处的地位。邦德暗中召集了钱班霓(奈奥米·哈莉斯 Naomi Harries 饰)和Q博士(本·威肖 Ben Whishaw 饰),协助他寻找他宿敌的女儿——玛德琳·斯旺(蕾雅·赛杜 Léa Seydoux 饰)的下落,玛德琳·斯旺手里握有解开幽灵党秘密的线索。作为一名杀手的女儿,斯旺比绝大多数人更了解邦德。
  正当邦德冒险潜入“幽灵党”中心时,他得知自己与他寻找的敌人(克里斯托弗·沃尔兹 Christoph Waltz 饰)之间有着骇人的联系……

获奖情况  

  第88届奥斯卡金像奖(2016)
  最佳原创歌曲 詹姆斯·纳皮尔 / 萨姆·史密斯

  第73届金球奖(2016)
  电影类 最佳原创歌曲

  第39届日本电影学院奖(2016)
  最佳外语片(提名)

  第21届美国评论家选择电影奖(2016)
  动作片最佳男主角(提名) 丹尼尔·克雷格
  最佳歌曲(提名)

  第2届豆瓣电影年度榜单(2015)
  11月最受关注电影(提名)

  第6届豆瓣电影鑫像奖(2016)
  豆渣单元 最渣影片(外语)(提名)
  豆渣单元 最渣导演(外语)(提名) 萨姆·门德斯
  豆渣单元 最渣男演员(外语)(提名) 丹尼尔·克雷格
  鑫豆单元 最佳歌曲(提名)
  1. Video #1
  2. ID                                       : 1
  3. Format                                   : HEVC
  4. Format/Info                              : High Efficiency Video Coding
  5. Format profile                           : Main High@L4@High
  6. HDR format                               : SMPTE ST 2086, HDR10 compatible
  7. Codec ID                                 : V_MPEGH/ISO/HEVC
  8. Duration                                 : 2 h 28 min
  9. Bit rate                                 : 42.5 Mb/s
  10. Width                                    : 3 840 pixels
  11. Height                                   : 2 160 pixels
  12. Display aspect ratio                     : 16:9
  13. Frame rate mode                          : Constant
  14. Frame rate                               : 23.976 (24000/1001) FPS
  15. Color space                              : YUV
  16. Chroma subsampling                       : 4:2:0 (Type 2)
  17. Bit depth                                : 10 bits
  18. Bits/(Pixel*Frame)                       : 0.214
  19. Stream size                              : 43.9 GiB (81%)
  20. Title                                    : Spectre.2015.2160p.BluRay.REMUX.HEVC.DTS-HD.MA.7.1-FGT
  21. Language                                 : English
  22. Default                                  : Yes
  23. Forced                                   : No
  24. Color range                              : Limited
  25. Color primaries                          : BT.2020
  26. Transfer characteristics                 : PQ
  27. Matrix coefficients                      : BT.2020 non-constant
  28. Mastering display color primaries        : Display P3
  29. Mastering display luminance              : min: 0.0001 cd/m2, max: 1000 cd/m2

  30. Video #2
  31. ID                                       : 2
  32. Format                                   : HEVC
  33. Format/Info                              : High Efficiency Video Coding
  34. Format profile                           : Main High@L4@High
  35. HDR format                               : SMPTE ST 2086, HDR10 compatible
  36. Codec ID                                 : V_MPEGH/ISO/HEVC
  37. Duration                                 : 2 h 28 min
  38. Bit rate                                 : 66.0 kb/s
  39. Width                                    : 1 920 pixels
  40. Height                                   : 1 080 pixels
  41. Display aspect ratio                     : 16:9
  42. Frame rate mode                          : Constant
  43. Frame rate                               : 23.976 (24000/1001) FPS
  44. Color space                              : YUV
  45. Chroma subsampling                       : 4:2:0 (Type 2)
  46. Bit depth                                : 10 bits
  47. Bits/(Pixel*Frame)                       : 0.001
  48. Stream size                              : 69.9 MiB (0%)
  49. Title                                    : Spectre.2015.2160p.BluRay.REMUX.HEVC.DTS-HD.MA.7.1-FGT
  50. Language                                 : English
  51. Default                                  : No
  52. Forced                                   : No
  53. Color range                              : Limited
  54. Color primaries                          : BT.2020
  55. Transfer characteristics                 : PQ
  56. Matrix coefficients                      : BT.2020 non-constant
  57. Mastering display color primaries        : Display P3
  58. Mastering display luminance              : min: 0.0001 cd/m2, max: 1000 cd/m2

  59. Audio #1
  60. ID                                       : 3
  61. Format                                   : DTS XLL
  62. Format/Info                              : Digital Theater Systems
  63. Commercial name                          : DTS-HD Master Audio
  64. Codec ID                                 : A_DTS
  65. Duration                                 : 2 h 28 min
  66. Bit rate mode                            : Variable
  67. Bit rate                                 : 4 744 kb/s
  68. Channel(s)                               : 8 channels
  69. Channel layout                           : C L R LFE Lb Rb Lss Rss
  70. Sampling rate                            : 48.0 kHz
  71. Frame rate                               : 93.750 FPS (512 SPF)
  72. Bit depth                                : 24 bits
  73. Compression mode                         : Lossless
  74. Stream size                              : 4.91 GiB (9%)
  75. Title                                    : Spectre.2015.2160p.BluRay.REMUX.HEVC.DTS-HD.MA.7.1-FGT
  76. Language                                 : English
  77. Default                                  : Yes
  78. Forced                                   : No

  79. Audio #2
  80. ID                                       : 4
  81. Format                                   : AC-3
  82. Format/Info                              : Audio Coding 3
  83. Commercial name                          : Dolby Digital
  84. Codec ID                                 : A_AC3
  85. Duration                                 : 2 h 28 min
  86. Bit rate mode                            : Constant
  87. Bit rate                                 : 448 kb/s
  88. Channel(s)                               : 6 channels
  89. Channel layout                           : L R C LFE Ls Rs
  90. Sampling rate                            : 48.0 kHz
  91. Frame rate                               : 31.250 FPS (1536 SPF)
  92. Bit depth                                : 16 bits
  93. Compression mode                         : Lossy
  94. Stream size                              : 475 MiB (1%)
  95. Title                                    : Spectre.2015.2160p.BluRay.REMUX.HEVC.DTS-HD.MA.7.1-FGT
  96. Language                                 : English
  97. Service kind                             : Complete Main
  98. Default                                  : No
  99. Forced                                   : No

  100. Audio #3
  101. ID                                       : 5
  102. Format                                   : AC-3
  103. Format/Info                              : Audio Coding 3
  104. Commercial name                          : Dolby Digital
  105. Codec ID                                 : A_AC3
  106. Duration                                 : 2 h 28 min
  107. Bit rate mode                            : Constant
  108. Bit rate                                 : 448 kb/s
  109. Channel(s)                               : 6 channels
  110. Channel layout                           : L R C LFE Ls Rs
  111. Sampling rate                            : 48.0 kHz
  112. Frame rate                               : 31.250 FPS (1536 SPF)
  113. Bit depth                                : 16 bits
  114. Compression mode                         : Lossy
  115. Stream size                              : 475 MiB (1%)
  116. Title                                    : Spectre.2015.2160p.BluRay.REMUX.HEVC.DTS-HD.MA.7.1-FGT
  117. Language                                 : Spanish
  118. Service kind                             : Complete Main
  119. Default                                  : No
  120. Forced                                   : No

  121. Audio #4
  122. ID                                       : 6
  123. Format                                   : DTS
  124. Format/Info                              : Digital Theater Systems
  125. Codec ID                                 : A_DTS
  126. Duration                                 : 2 h 28 min
  127. Bit rate mode                            : Constant
  128. Bit rate                                 : 768 kb/s
  129. Channel(s)                               : 6 channels
  130. Channel layout                           : C L R Ls Rs LFE
  131. Sampling rate                            : 48.0 kHz
  132. Frame rate                               : 93.750 FPS (512 SPF)
  133. Bit depth                                : 24 bits
  134. Compression mode                         : Lossy
  135. Stream size                              : 814 MiB (1%)
  136. Title                                    : Spectre.2015.2160p.BluRay.REMUX.HEVC.DTS-HD.MA.7.1-FGT
  137. Language                                 : French
  138. Default                                  : No
  139. Forced                                   : No

  140. Audio #5
  141. ID                                       : 7
  142. Format                                   : DTS
  143. Format/Info                              : Digital Theater Systems
  144. Codec ID                                 : A_DTS
  145. Duration                                 : 2 h 28 min
  146. Bit rate mode                            : Constant
  147. Bit rate                                 : 768 kb/s
  148. Channel(s)                               : 6 channels
  149. Channel layout                           : C L R Ls Rs LFE
  150. Sampling rate                            : 48.0 kHz
  151. Frame rate                               : 93.750 FPS (512 SPF)
  152. Bit depth                                : 24 bits
  153. Compression mode                         : Lossy
  154. Stream size                              : 814 MiB (1%)
  155. Title                                    : Spectre.2015.2160p.BluRay.REMUX.HEVC.DTS-HD.MA.7.1-FGT
  156. Language                                 : Spanish
  157. Default                                  : No
  158. Forced                                   : No

  159. Audio #6
  160. ID                                       : 8
  161. Format                                   : DTS
  162. Format/Info                              : Digital Theater Systems
  163. Codec ID                                 : A_DTS
  164. Duration                                 : 2 h 28 min
  165. Bit rate mode                            : Constant
  166. Bit rate                                 : 768 kb/s
  167. Channel(s)                               : 6 channels
  168. Channel layout                           : C L R Ls Rs LFE
  169. Sampling rate                            : 48.0 kHz
  170. Frame rate                               : 93.750 FPS (512 SPF)
  171. Bit depth                                : 24 bits
  172. Compression mode                         : Lossy
  173. Stream size                              : 814 MiB (1%)
  174. Title                                    : Spectre.2015.2160p.BluRay.REMUX.HEVC.DTS-HD.MA.7.1-FGT
  175. Language                                 : German
  176. Default                                  : No
  177. Forced                                   : No

  178. Audio #7
  179. ID                                       : 9
  180. Format                                   : DTS
  181. Format/Info                              : Digital Theater Systems
  182. Codec ID                                 : A_DTS
  183. Duration                                 : 2 h 28 min
  184. Bit rate mode                            : Constant
  185. Bit rate                                 : 768 kb/s
  186. Channel(s)                               : 6 channels
  187. Channel layout                           : C L R Ls Rs LFE
  188. Sampling rate                            : 48.0 kHz
  189. Frame rate                               : 93.750 FPS (512 SPF)
  190. Bit depth                                : 24 bits
  191. Compression mode                         : Lossy
  192. Stream size                              : 814 MiB (1%)
  193. Title                                    : Spectre.2015.2160p.BluRay.REMUX.HEVC.DTS-HD.MA.7.1-FGT
  194. Language                                 : Italian
  195. Default                                  : No
  196. Forced                                   : No

  197. Audio #8
  198. ID                                       : 10
  199. Format                                   : AC-3
  200. Format/Info                              : Audio Coding 3
  201. Commercial name                          : Dolby Digital
  202. Codec ID                                 : A_AC3
  203. Duration                                 : 2 h 28 min
  204. Bit rate mode                            : Constant
  205. Bit rate                                 : 448 kb/s
  206. Channel(s)                               : 6 channels
  207. Channel layout                           : L R C LFE Ls Rs
  208. Sampling rate                            : 48.0 kHz
  209. Frame rate                               : 31.250 FPS (1536 SPF)
  210. Bit depth                                : 16 bits
  211. Compression mode                         : Lossy
  212. Stream size                              : 475 MiB (1%)
  213. Title                                    : Spectre.2015.2160p.BluRay.REMUX.HEVC.DTS-HD.MA.7.1-FGT
  214. Language                                 : Czech
  215. Service kind                             : Complete Main
  216. Default                                  : No
  217. Forced                                   : No

  218. Audio #9
  219. ID                                       : 11
  220. Format                                   : AC-3
  221. Format/Info                              : Audio Coding 3
  222. Commercial name                          : Dolby Digital
  223. Codec ID                                 : A_AC3
  224. Duration                                 : 2 h 28 min
  225. Bit rate mode                            : Constant
  226. Bit rate                                 : 448 kb/s
  227. Channel(s)                               : 6 channels
  228. Channel layout                           : L R C LFE Ls Rs
  229. Sampling rate                            : 48.0 kHz
  230. Frame rate                               : 31.250 FPS (1536 SPF)
  231. Bit depth                                : 16 bits
  232. Compression mode                         : Lossy
  233. Stream size                              : 475 MiB (1%)
  234. Title                                    : Spectre.2015.2160p.BluRay.REMUX.HEVC.DTS-HD.MA.7.1-FGT
  235. Language                                 : Hungarian
  236. Service kind                             : Complete Main
  237. Default                                  : No
  238. Forced                                   : No

  239. Audio #10
  240. ID                                       : 12
  241. Format                                   : AC-3
  242. Format/Info                              : Audio Coding 3
  243. Commercial name                          : Dolby Digital
  244. Codec ID                                 : A_AC3
  245. Duration                                 : 2 h 28 min
  246. Bit rate mode                            : Constant
  247. Bit rate                                 : 448 kb/s
  248. Channel(s)                               : 6 channels
  249. Channel layout                           : L R C LFE Ls Rs
  250. Sampling rate                            : 48.0 kHz
  251. Frame rate                               : 31.250 FPS (1536 SPF)
  252. Bit depth                                : 16 bits
  253. Compression mode                         : Lossy
  254. Stream size                              : 475 MiB (1%)
  255. Title                                    : Spectre.2015.2160p.BluRay.REMUX.HEVC.DTS-HD.MA.7.1-FGT
  256. Language                                 : Polish
  257. Service kind                             : Complete Main
  258. Default                                  : No
  259. Forced                                   : No

  260. Text #1
  261. ID                                       : 13
  262. Format                                   : UTF-8
  263. Codec ID                                 : S_TEXT/UTF8
  264. Codec ID/Info                            : UTF-8 Plain Text
  265. Duration                                 : 1 h 16 min
  266. Bit rate                                 : 1 b/s
  267. Count of elements                        : 39
  268. Stream size                              : 1.01 KiB (0%)
  269. Title                                    : English-FORCED-SRT
  270. Language                                 : English
  271. Default                                  : Yes
  272. Forced                                   : Yes

  273. Text #2
  274. ID                                       : 14
  275. Format                                   : UTF-8
  276. Codec ID                                 : S_TEXT/UTF8
  277. Codec ID/Info                            : UTF-8 Plain Text
  278. Duration                                 : 2 h 16 min
  279. Bit rate                                 : 35 b/s
  280. Count of elements                        : 1203
  281. Stream size                              : 35.6 KiB (0%)
  282. Title                                    : English-SRT
  283. Language                                 : English
  284. Default                                  : No
  285. Forced                                   : No

  286. Text #3
  287. ID                                       : 15
  288. Format                                   : UTF-8
  289. Codec ID                                 : S_TEXT/UTF8
  290. Codec ID/Info                            : UTF-8 Plain Text
  291. Duration                                 : 2 h 19 min
  292. Bit rate                                 : 37 b/s
  293. Count of elements                        : 1362
  294. Stream size                              : 38.6 KiB (0%)
  295. Title                                    : English-SDH-SRT
  296. Language                                 : English
  297. Default                                  : No
  298. Forced                                   : No

  299. Text #4
  300. ID                                       : 16
  301. Format                                   : PGS
  302. Muxing mode                              : zlib
  303. Codec ID                                 : S_HDMV/PGS
  304. Codec ID/Info                            : Picture based subtitle format used on BDs/HD-DVDs
  305. Duration                                 : 2 h 19 min
  306. Bit rate                                 : 25.0 kb/s
  307. Count of elements                        : 2724
  308. Stream size                              : 25.0 MiB (0%)
  309. Title                                    : English-PGS
  310. Language                                 : English
  311. Default                                  : No
  312. Forced                                   : No

  313. Text #5
  314. ID                                       : 17
  315. Format                                   : PGS
  316. Muxing mode                              : zlib
  317. Codec ID                                 : S_HDMV/PGS
  318. Codec ID/Info                            : Picture based subtitle format used on BDs/HD-DVDs
  319. Duration                                 : 2 h 27 min
  320. Bit rate                                 : 20.2 kb/s
  321. Count of elements                        : 2260
  322. Stream size                              : 21.2 MiB (0%)
  323. Title                                    : Spanish-PGS
  324. Language                                 : Spanish
  325. Default                                  : No
  326. Forced                                   : No

  327. Text #6
  328. ID                                       : 18
  329. Format                                   : PGS
  330. Muxing mode                              : zlib
  331. Codec ID                                 : S_HDMV/PGS
  332. Codec ID/Info                            : Picture based subtitle format used on BDs/HD-DVDs
  333. Duration                                 : 2 h 27 min
  334. Bit rate                                 : 1 160 b/s
  335. Count of elements                        : 154
  336. Stream size                              : 1.22 MiB (0%)
  337. Title                                    : Spanish-FORCED-PGS
  338. Language                                 : Spanish
  339. Default                                  : No
  340. Forced                                   : No

  341. Text #7
  342. ID                                       : 19
  343. Format                                   : PGS
  344. Muxing mode                              : zlib
  345. Codec ID                                 : S_HDMV/PGS
  346. Codec ID/Info                            : Picture based subtitle format used on BDs/HD-DVDs
  347. Duration                                 : 2 h 27 min
  348. Bit rate                                 : 17.7 kb/s
  349. Count of elements                        : 2308
  350. Stream size                              : 18.6 MiB (0%)
  351. Title                                    : French-PGS
  352. Language                                 : French
  353. Default                                  : No
  354. Forced                                   : No

  355. Text #8
  356. ID                                       : 20
  357. Format                                   : PGS
  358. Muxing mode                              : zlib
  359. Codec ID                                 : S_HDMV/PGS
  360. Codec ID/Info                            : Picture based subtitle format used on BDs/HD-DVDs
  361. Duration                                 : 2 h 27 min
  362. Bit rate                                 : 730 b/s
  363. Count of elements                        : 106
  364. Stream size                              : 787 KiB (0%)
  365. Title                                    : French-FORCED-PGS
  366. Language                                 : French
  367. Default                                  : No
  368. Forced                                   : No

  369. Text #9
  370. ID                                       : 21
  371. Format                                   : PGS
  372. Muxing mode                              : zlib
  373. Codec ID                                 : S_HDMV/PGS
  374. Codec ID/Info                            : Picture based subtitle format used on BDs/HD-DVDs
  375. Duration                                 : 2 h 27 min
  376. Bit rate                                 : 18.4 kb/s
  377. Count of elements                        : 2149
  378. Stream size                              : 19.3 MiB (0%)
  379. Title                                    : Spanish-PGS
  380. Language                                 : Spanish
  381. Default                                  : No
  382. Forced                                   : No

  383. Text #10
  384. ID                                       : 22
  385. Format                                   : PGS
  386. Muxing mode                              : zlib
  387. Codec ID                                 : S_HDMV/PGS
  388. Codec ID/Info                            : Picture based subtitle format used on BDs/HD-DVDs
  389. Duration                                 : 2 h 27 min
  390. Bit rate                                 : 817 b/s
  391. Count of elements                        : 97
  392. Stream size                              : 881 KiB (0%)
  393. Title                                    : Spanish-FORCED-PGS
  394. Language                                 : Spanish
  395. Default                                  : No
  396. Forced                                   : No

  397. Text #11
  398. ID                                       : 23
  399. Format                                   : PGS
  400. Muxing mode                              : zlib
  401. Codec ID                                 : S_HDMV/PGS
  402. Codec ID/Info                            : Picture based subtitle format used on BDs/HD-DVDs
  403. Duration                                 : 2 h 27 min
  404. Bit rate                                 : 19.1 kb/s
  405. Count of elements                        : 1948
  406. Stream size                              : 20.1 MiB (0%)
  407. Title                                    : Danish-PGS
  408. Language                                 : Danish
  409. Default                                  : No
  410. Forced                                   : No

  411. Text #12
  412. ID                                       : 24
  413. Format                                   : PGS
  414. Muxing mode                              : zlib
  415. Codec ID                                 : S_HDMV/PGS
  416. Codec ID/Info                            : Picture based subtitle format used on BDs/HD-DVDs
  417. Duration                                 : 2 h 27 min
  418. Bit rate                                 : 18.1 kb/s
  419. Count of elements                        : 1937
  420. Stream size                              : 19.1 MiB (0%)
  421. Title                                    : Dutch-PGS
  422. Language                                 : Dutch
  423. Default                                  : No
  424. Forced                                   : No

  425. Text #13
  426. ID                                       : 25
  427. Format                                   : PGS
  428. Muxing mode                              : zlib
  429. Codec ID                                 : S_HDMV/PGS
  430. Codec ID/Info                            : Picture based subtitle format used on BDs/HD-DVDs
  431. Duration                                 : 2 h 27 min
  432. Bit rate                                 : 17.6 kb/s
  433. Count of elements                        : 2217
  434. Stream size                              : 18.5 MiB (0%)
  435. Title                                    : Finnish-PGS
  436. Language                                 : Finnish
  437. Default                                  : No
  438. Forced                                   : No

  439. Text #14
  440. ID                                       : 26
  441. Format                                   : PGS
  442. Muxing mode                              : zlib
  443. Codec ID                                 : S_HDMV/PGS
  444. Codec ID/Info                            : Picture based subtitle format used on BDs/HD-DVDs
  445. Duration                                 : 2 h 27 min
  446. Bit rate                                 : 20.7 kb/s
  447. Count of elements                        : 2168
  448. Stream size                              : 21.8 MiB (0%)
  449. Title                                    : German-PGS
  450. Language                                 : German
  451. Default                                  : No
  452. Forced                                   : No

  453. Text #15
  454. ID                                       : 27
  455. Format                                   : PGS
  456. Muxing mode                              : zlib
  457. Codec ID                                 : S_HDMV/PGS
  458. Codec ID/Info                            : Picture based subtitle format used on BDs/HD-DVDs
  459. Duration                                 : 2 h 27 min
  460. Bit rate                                 : 450 b/s
  461. Count of elements                        : 60
  462. Stream size                              : 485 KiB (0%)
  463. Title                                    : German-FORCED-PGS
  464. Language                                 : German
  465. Default                                  : No
  466. Forced                                   : No

  467. Text #16
  468. ID                                       : 28
  469. Format                                   : PGS
  470. Muxing mode                              : zlib
  471. Codec ID                                 : S_HDMV/PGS
  472. Codec ID/Info                            : Picture based subtitle format used on BDs/HD-DVDs
  473. Duration                                 : 2 h 27 min
  474. Bit rate                                 : 19.4 kb/s
  475. Count of elements                        : 2000
  476. Stream size                              : 20.4 MiB (0%)
  477. Title                                    : Italian-PGS
  478. Language                                 : Italian
  479. Default                                  : No
  480. Forced                                   : No

  481. Text #17
  482. ID                                       : 29
  483. Format                                   : PGS
  484. Muxing mode                              : zlib
  485. Codec ID                                 : S_HDMV/PGS
  486. Codec ID/Info                            : Picture based subtitle format used on BDs/HD-DVDs
  487. Duration                                 : 2 h 27 min
  488. Bit rate                                 : 777 b/s
  489. Count of elements                        : 90
  490. Stream size                              : 837 KiB (0%)
  491. Title                                    : Italian-FORCED-PGS
  492. Language                                 : Italian
  493. Default                                  : No
  494. Forced                                   : No

  495. Text #18
  496. ID                                       : 30
  497. Format                                   : PGS
  498. Muxing mode                              : zlib
  499. Codec ID                                 : S_HDMV/PGS
  500. Codec ID/Info                            : Picture based subtitle format used on BDs/HD-DVDs
  501. Duration                                 : 2 h 27 min
  502. Bit rate                                 : 17.9 kb/s
  503. Count of elements                        : 1806
  504. Stream size                              : 18.8 MiB (0%)
  505. Title                                    : Norwegian-PGS
  506. Language                                 : Norwegian
  507. Default                                  : No
  508. Forced                                   : No

  509. Text #19
  510. ID                                       : 31
  511. Format                                   : PGS
  512. Muxing mode                              : zlib
  513. Codec ID                                 : S_HDMV/PGS
  514. Codec ID/Info                            : Picture based subtitle format used on BDs/HD-DVDs
  515. Duration                                 : 2 h 27 min
  516. Bit rate                                 : 18.0 kb/s
  517. Count of elements                        : 1822
  518. Stream size                              : 18.9 MiB (0%)
  519. Title                                    : Swedish-PGS
  520. Language                                 : Swedish
  521. Default                                  : No
  522. Forced                                   : No

  523. Text #20
  524. ID                                       : 32
  525. Format                                   : PGS
  526. Muxing mode                              : zlib
  527. Codec ID                                 : S_HDMV/PGS
  528. Codec ID/Info                            : Picture based subtitle format used on BDs/HD-DVDs
  529. Duration                                 : 2 h 27 min
  530. Bit rate                                 : 17.0 kb/s
  531. Count of elements                        : 2244
  532. Stream size                              : 17.9 MiB (0%)
  533. Title                                    : Chinese-PGS
  534. Language                                 : Chinese
  535. Default                                  : No
  536. Forced                                   : No

  537. Text #21
  538. ID                                       : 33
  539. Format                                   : PGS
  540. Muxing mode                              : zlib
  541. Codec ID                                 : S_HDMV/PGS
  542. Codec ID/Info                            : Picture based subtitle format used on BDs/HD-DVDs
  543. Duration                                 : 2 h 27 min
  544. Bit rate                                 : 19.6 kb/s
  545. Count of elements                        : 2226
  546. Stream size                              : 20.6 MiB (0%)
  547. Title                                    : Czech-PGS
  548. Language                                 : Czech
  549. Default                                  : No
  550. Forced                                   : No

  551. Text #22
  552. ID                                       : 34
  553. Format                                   : PGS
  554. Muxing mode                              : zlib
  555. Codec ID                                 : S_HDMV/PGS
  556. Codec ID/Info                            : Picture based subtitle format used on BDs/HD-DVDs
  557. Duration                                 : 2 h 27 min
  558. Bit rate                                 : 1 116 b/s
  559. Count of elements                        : 160
  560. Stream size                              : 1.17 MiB (0%)
  561. Title                                    : Czech-FORCED-PGS
  562. Language                                 : Czech
  563. Default                                  : No
  564. Forced                                   : No

  565. Text #23
  566. ID                                       : 35
  567. Format                                   : PGS
  568. Muxing mode                              : zlib
  569. Codec ID                                 : S_HDMV/PGS
  570. Codec ID/Info                            : Picture based subtitle format used on BDs/HD-DVDs
  571. Duration                                 : 2 h 27 min
  572. Bit rate                                 : 19.9 kb/s
  573. Count of elements                        : 1912
  574. Stream size                              : 20.9 MiB (0%)
  575. Title                                    : Hungarian-PGS
  576. Language                                 : Hungarian
  577. Default                                  : No
  578. Forced                                   : No

  579. Text #24
  580. ID                                       : 36
  581. Format                                   : PGS
  582. Muxing mode                              : zlib
  583. Codec ID                                 : S_HDMV/PGS
  584. Codec ID/Info                            : Picture based subtitle format used on BDs/HD-DVDs
  585. Duration                                 : 2 h 22 min
  586. Bit rate                                 : 927 b/s
  587. Count of elements                        : 104
  588. Stream size                              : 971 KiB (0%)
  589. Title                                    : Hungarian-FORCED-PGS
  590. Language                                 : Hungarian
  591. Default                                  : No
  592. Forced                                   : No

  593. Text #25
  594. ID                                       : 37
  595. Format                                   : PGS
  596. Muxing mode                              : zlib
  597. Codec ID                                 : S_HDMV/PGS
  598. Codec ID/Info                            : Picture based subtitle format used on BDs/HD-DVDs
  599. Duration                                 : 2 h 27 min
  600. Bit rate                                 : 12.0 kb/s
  601. Count of elements                        : 2242
  602. Stream size                              : 12.7 MiB (0%)
  603. Title                                    : Korean-PGS
  604. Language                                 : Korean
  605. Default                                  : No
  606. Forced                                   : No

  607. Text #26
  608. ID                                       : 38
  609. Format                                   : PGS
  610. Muxing mode                              : zlib
  611. Codec ID                                 : S_HDMV/PGS
  612. Codec ID/Info                            : Picture based subtitle format used on BDs/HD-DVDs
  613. Duration                                 : 2 h 27 min
  614. Bit rate                                 : 15.1 kb/s
  615. Count of elements                        : 2242
  616. Stream size                              : 15.9 MiB (0%)
  617. Title                                    : Chinese-PGS
  618. Language                                 : Chinese
  619. Default                                  : No
  620. Forced                                   : No

  621. Text #27
  622. ID                                       : 39
  623. Format                                   : PGS
  624. Muxing mode                              : zlib
  625. Codec ID                                 : S_HDMV/PGS
  626. Codec ID/Info                            : Picture based subtitle format used on BDs/HD-DVDs
  627. Duration                                 : 2 h 27 min
  628. Bit rate                                 : 18.5 kb/s
  629. Count of elements                        : 2192
  630. Stream size                              : 19.4 MiB (0%)
  631. Title                                    : Polish-PGS
  632. Language                                 : Polish
  633. Default                                  : No
  634. Forced                                   : No

  635. Text #28
  636. ID                                       : 40
  637. Format                                   : PGS
  638. Muxing mode                              : zlib
  639. Codec ID                                 : S_HDMV/PGS
  640. Codec ID/Info                            : Picture based subtitle format used on BDs/HD-DVDs
  641. Duration                                 : 2 h 27 min
  642. Bit rate                                 : 20.8 kb/s
  643. Count of elements                        : 2270
  644. Stream size                              : 21.9 MiB (0%)
  645. Title                                    : Portuguese-PGS
  646. Language                                 : Portuguese
  647. Default                                  : No
  648. Forced                                   : No

  649. Text #29
  650. ID                                       : 41
  651. Format                                   : PGS
  652. Muxing mode                              : zlib
  653. Codec ID                                 : S_HDMV/PGS
  654. Codec ID/Info                            : Picture based subtitle format used on BDs/HD-DVDs
  655. Duration                                 : 1 h 16 min
  656. Bit rate                                 : 435 b/s
  657. Count of elements                        : 78
  658. Stream size                              : 244 KiB (0%)
  659. Title                                    : English-FORCED-PGS
  660. Language                                 : English
  661. Default                                  : No
  662. Forced                                   : No

  663. Menu
  664. 00:00:00.000                             : en:Chapter 01
  665. 00:06:09.744                             : en:Chapter 02
  666. 00:13:05.409                             : en:Chapter 03
  667. 00:18:59.096                             : en:Chapter 04
  668. 00:24:47.402                             : en:Chapter 05
  669. 00:28:04.683                             : en:Chapter 06
  670. 00:32:15.892                             : en:Chapter 07
  671. 00:36:59.217                             : en:Chapter 08
  672. 00:41:57.264                             : en:Chapter 09
  673. 00:46:13.771                             : en:Chapter 10
  674. 00:50:52.507                             : en:Chapter 11
  675. 00:53:43.762                             : en:Chapter 12
  676. 01:00:21.993                             : en:Chapter 13
  677. 01:06:48.754                             : en:Chapter 14
  678. 01:10:59.588                             : en:Chapter 15
  679. 01:15:14.635                             : en:Chapter 16
  680. 01:18:56.273                             : en:Chapter 17
  681. 01:26:11.666                             : en:Chapter 18
  682. 01:29:40.541                             : en:Chapter 19
  683. 01:36:43.798                             : en:Chapter 20
  684. 01:41:45.015                             : en:Chapter 21
  685. 01:49:07.040                             : en:Chapter 22
  686. 01:55:53.404                             : en:Chapter 23
  687. 01:59:39.839                             : en:Chapter 24
  688. 02:04:20.369                             : en:Chapter 25
  689. 02:09:29.136                             : en:Chapter 26
  690. 02:14:06.288                             : en:Chapter 27
  691. 02:19:42.999                             : en:Chapter 28
复制代码

195028kelw017jb7m3bjm2.png 007:幽灵党/007系列24:大破幽灵危机 Spectre.2015.2160p.BluRay.REMUX.HEVC.DTS-HD.MA.7.1-FGT 54.55GB-3.png 007:幽灵党/007系列24:大破幽灵危机 Spectre.2015.2160p.BluRay.REMUX.HEVC.DTS-HD.MA.7.1-FGT 54.55GB-4.png







回复

使用道具 举报

发表于 2019-10-22 07:08:26 | 显示全部楼层

楼主太厉害了!楼主,电影应该很好看我觉得蓝光电影网真是个好地方!
回复 支持 反对

使用道具 举报

发表于 2019-10-22 10:08:08 | 显示全部楼层
楼主太厉害了!楼主
回复 支持 反对

使用道具 举报

发表于 2019-10-22 11:40:10 | 显示全部楼层

这东西我收了!谢谢楼主!蓝光电影网真好!
回复 支持 反对

使用道具 举报

发表于 2019-10-22 14:16:00 | 显示全部楼层
楼主发贴辛苦了,谢谢楼主分享!我觉得蓝光电影网是注册对了!
回复 支持 反对

使用道具 举报

 成长值: 970

发表于 2019-10-22 16:24:27 | 显示全部楼层
谢谢楼主无私分享。
回复 支持 反对

使用道具 举报

发表于 2019-10-22 19:04:46 | 显示全部楼层
谢谢楼主分享
回复 支持 反对

使用道具 举报

发表于 2019-10-23 09:15:13 | 显示全部楼层
谢谢楼主分享
回复 支持 反对

使用道具 举报

发表于 2019-10-23 12:10:16 | 显示全部楼层
感谢楼主,分享辛苦了。
回复 支持 反对

使用道具 举报

发表于 2019-10-24 09:20:58 | 显示全部楼层
谢谢发片。
回复

使用道具 举报

懒得打字嘛,点击右侧快捷回复 【右侧内容,后台自定义】
您需要登录后才可以回帖 登录 | 立即加入

本版积分规则

现在加入蓝光电影网,注册一个账号

QQ| 手机版|小黑屋| 蓝光电影网 |网站地图

Copyright © 2015-2019 Comsenz Inc.  Template by 蓝光电影论坛 All Rights Reserved.

Powered by 蓝光电影网 X3.4

特别声明:本站所有资源均由网上收集而来,版权归原影音公司所有,如果侵犯了你的权益,请通知我们,我们会及时删除侵权内容.

快速回复 返回顶部 返回列表