找回密码

蓝光电影网

查看: 709|回复: 30

[10bit.SDR] 007:大战皇家赌场/007大战皇家赌场 Casino.Royale.2006.2160p.BluRay.x265.10bit.SDR.DTS-HD.MA.5.1-SWTYBLZ 41.96GB

[复制链接]

 成长值: 23245

发表于 2019-10-20 17:04:02 | 显示全部楼层 |阅读模式
007:大战皇家赌场/007大战皇家赌场 Casino.Royale.2006.2160p.BluRay.x265.10bit.SDR.DTS-HD.MA.5.1-SWTYBLZ 41.96GB-1.png

译  名 007:大战皇家赌场 / 007大战皇家赌场 / 007系列21:大战皇家赌场 / 007首部曲:皇家夜总会(台) / James Bond 007 - Casino Royale / 新铁金刚智破皇家赌场(港) / 邦德21
片  名 Casino Royale
年  代 2006
产  地 美国 / 英国 / 德国 / 捷克 Czech Republic / 巴哈马 Bahamas
类  别 动作 / 惊悚 / 犯罪
语  言 英语
上映日期 2006-11-16(英国) / 2006-11-17(美国) / 2007-01-30(中国大陆)
IMDb评分  8.0/10 from 543625 users
IMDb链接  http://www.imdb.com/title/tt0381061
豆瓣评分 7.5/10 from 115486 users
豆瓣链接 https://movie.douban.com/subject/1418190/
片  长 144分钟
导  演 马丁·坎贝尔 Martin Campbell
编  剧 尼尔·珀维斯 Neal Purvis / 罗伯特·韦德 Robert Wade / 保罗·哈吉斯 Paul Haggis / 伊恩·弗莱明 Ian Fleming
主  演 丹尼尔·克雷格 Daniel Craig
       伊娃·格林 Eva Green
       麦德斯·米科尔森 Mads Mikkelsen
       朱迪·丹奇 Judi Dench
       杰弗里·怀特 Jeffrey Wright
       吉安卡罗·吉安尼尼 Giancarlo Giannini


标  签 007 | 动作 | 美国 | 间谍 | 英国 | 2006 | 特工 | 犯罪

简  介  

  英国军情六处特工詹姆斯?邦德(丹尼尔?克雷格饰)这一次的任务是在赌场上赢取俄罗斯间谍手中的巨额财富,让其背后的恐怖组织势力无法达成阴谋并且击垮恐怖组织。这次,邦德有了一个漂亮的得力女助手琳德(伊娃?格林饰)。邦德经过了赌场上的种种训练,最终来到了皇家赌场。随着赌注越来越大,这场赌局也愈来愈显示出背后交错的阴谋。邦德甚至险些死于非命。
  在共同的合作中,邦德和琳德不知不觉拥有了信任和默契,这种感情,将会何去何从呢?
  1. Video
  2. ID                                       : 1
  3. Format                                   : HEVC
  4. Format/Info                              : High Efficiency Video Coding
  5. Format profile                           : Main High@L4@High
  6. Codec ID                                 : V_MPEGH/ISO/HEVC
  7. Duration                                 : 2 h 24 min
  8. Bit rate                                 : 36.8 Mb/s
  9. Width                                    : 3 840 pixels
  10. Height                                   : 1 606 pixels
  11. Display aspect ratio                     : 2.40:1
  12. Frame rate mode                          : Constant
  13. Frame rate                               : 23.976 (24000/1001) FPS
  14. Color space                              : YUV
  15. Chroma subsampling                       : 4:2:0
  16. Bit depth                                : 10 bits
  17. Bits/(Pixel*Frame)                       : 0.249
  18. Stream size                              : 37.2 GiB (89%)
  19. Title                                    : Casino.Royale.2006.2160p.BluRay.x265.10bit.SDR.DTS-HD.MA.5.1-SWTYBLZ
  20. Writing library                          : x265 3.0ed72af837053:[Windows][GCC 8.2.0][64 bit] 10bit
  21. Encoding settings                        : cpuid=1111039 / frame-threads=16 / numa-pools=44,44 / wpp / no-pmode / no-pme / no-psnr / no-ssim / log-level=2 / input-csp=1 / input-res=3840x1606 / interlace=0 / total-frames=207951 / level-idc=51 / high-tier=1 / uhd-bd=0 / ref=3 / no-allow-non-conformance / repeat-headers / annexb / aud / hrd / info / hash=0 / no-temporal-layers / no-open-gop / min-keyint=1 / keyint=24 / gop-lookahead=0 / bframes=4 / b-adapt=2 / b-pyramid / bframe-bias=0 / rc-lookahead=25 / lookahead-slices=4 / scenecut=40 / radl=0 / no-splice / no-intra-refresh / ctu=64 / min-cu-size=8 / no-rect / no-amp / max-tu-size=32 / tu-inter-depth=1 / tu-intra-depth=1 / limit-tu=0 / rdoq-level=0 / dynamic-rd=0.00 / no-ssim-rd / signhide / no-tskip / nr-intra=0 / nr-inter=0 / no-constrained-intra / strong-intra-smoothing / max-merge=2 / limit-refs=3 / no-limit-modes / me=1 / subme=2 / merange=57 / temporal-mvp / weightp / no-weightb / no-analyze-src-pics / deblock=0:0 / no-sao / no-sao-non-deblock / rd=3 / no-early-skip / rskip / no-fast-intra / no-tskip-fast / no-cu-lossless / no-b-intra / no-splitrd-skip / rdpenalty=0 / psy-rd=2.00 / psy-rdoq=0.00 / no-rd-refine / no-lossless / cbqpoffs=0 / crqpoffs=0 / rc=crf / crf=16.0 / qcomp=0.60 / qpstep=4 / stats-write=0 / stats-read=0 / vbv-maxrate=160000 / vbv-bufsize=160000 / vbv-init=0.9 / crf-max=0.0 / crf-min=0.0 / ipratio=1.40 / pbratio=1.30 / aq-mode=1 / aq-strength=1.00 / cutree / zone-count=0 / no-strict-cbr / qg-size=32 / no-rc-grain / qpmax=69 / qpmin=0 / no-const-vbv / sar=1 / overscan=0 / videoformat=5 / range=0 / colorprim=2 / transfer=2 / colormatrix=2 / chromaloc=0 / display-window=0 / max-cll=0,0 / min-luma=0 / max-luma=1023 / log2-max-poc-lsb=8 / vui-timing-info / vui-hrd-info / slices=1 / opt-qp-pps / opt-ref-list-length-pps / no-multi-pass-opt-rps / scenecut-bias=0.05 / no-opt-cu-delta-qp / no-aq-motion / no-hdr / no-hdr-opt / no-dhdr10-opt / no-idr-recovery-sei / analysis-reuse-level=5 / scale-factor=0 / refine-intra=0 / refine-inter=0 / refine-mv=0 / refine-ctu-distortion=0 / no-limit-sao / ctu-info=0 / no-lowpass-dct / refine-analysis-type=0 / copy-pic=1 / max-ausize-factor=1.0 / no-dynamic-refine / no-single-sei / no-hevc-aq / qp-adaptation-range=1.00
  22. Language                                 : English
  23. Default                                  : Yes
  24. Forced                                   : No

  25. Audio #1
  26. ID                                       : 2
  27. Format                                   : DTS XLL
  28. Format/Info                              : Digital Theater Systems
  29. Commercial name                          : DTS-HD Master Audio
  30. Codec ID                                 : A_DTS
  31. Duration                                 : 2 h 24 min
  32. Bit rate mode                            : Variable
  33. Bit rate                                 : 3 887 kb/s
  34. Channel(s)                               : 6 channels
  35. Channel layout                           : C L R Ls Rs LFE
  36. Sampling rate                            : 48.0 kHz
  37. Frame rate                               : 93.750 FPS (512 SPF)
  38. Bit depth                                : 24 bits
  39. Compression mode                         : Lossless
  40. Stream size                              : 3.92 GiB (9%)
  41. Title                                    : Casino.Royale.2006.2160p.BluRay.x265.10bit.SDR.DTS-HD.MA.5.1-SWTYBLZ
  42. Language                                 : English
  43. Default                                  : Yes
  44. Forced                                   : No

  45. Audio #2
  46. ID                                       : 3
  47. Format                                   : AC-3
  48. Format/Info                              : Audio Coding 3
  49. Commercial name                          : Dolby Digital
  50. Codec ID                                 : A_AC3
  51. Duration                                 : 2 h 24 min
  52. Bit rate mode                            : Constant
  53. Bit rate                                 : 640 kb/s
  54. Channel(s)                               : 6 channels
  55. Channel layout                           : L R C LFE Ls Rs
  56. Sampling rate                            : 48.0 kHz
  57. Frame rate                               : 31.250 FPS (1536 SPF)
  58. Bit depth                                : 16 bits
  59. Compression mode                         : Lossy
  60. Stream size                              : 662 MiB (2%)
  61. Title                                    : Casino.Royale.2006.2160p.BluRay.x265.10bit.SDR.DTS-HD.MA.5.1-SWTYBLZ
  62. Language                                 : English
  63. Service kind                             : Complete Main
  64. Default                                  : No
  65. Forced                                   : No

  66. Text #1
  67. ID                                       : 4
  68. Format                                   : UTF-8
  69. Codec ID                                 : S_TEXT/UTF8
  70. Codec ID/Info                            : UTF-8 Plain Text
  71. Duration                                 : 2 h 23 min
  72. Bit rate                                 : 31 b/s
  73. Count of elements                        : 1041
  74. Stream size                              : 33.4 KiB (0%)
  75. Title                                    : English-SRT
  76. Language                                 : English
  77. Default                                  : Yes
  78. Forced                                   : No

  79. Text #2
  80. ID                                       : 5
  81. Format                                   : PGS
  82. Muxing mode                              : zlib
  83. Codec ID                                 : S_HDMV/PGS
  84. Codec ID/Info                            : Picture based subtitle format used on BDs/HD-DVDs
  85. Duration                                 : 2 h 23 min
  86. Bit rate                                 : 20.1 kb/s
  87. Count of elements                        : 2084
  88. Stream size                              : 20.6 MiB (0%)
  89. Title                                    : English-PGS
  90. Language                                 : English
  91. Default                                  : No
  92. Forced                                   : No

  93. Text #3
  94. ID                                       : 6
  95. Format                                   : PGS
  96. Muxing mode                              : zlib
  97. Codec ID                                 : S_HDMV/PGS
  98. Codec ID/Info                            : Picture based subtitle format used on BDs/HD-DVDs
  99. Duration                                 : 2 h 23 min
  100. Bit rate                                 : 18.4 kb/s
  101. Count of elements                        : 2100
  102. Stream size                              : 19.0 MiB (0%)
  103. Title                                    : Spanish-PGS
  104. Language                                 : Spanish
  105. Default                                  : No
  106. Forced                                   : No

  107. Text #4
  108. ID                                       : 7
  109. Format                                   : PGS
  110. Muxing mode                              : zlib
  111. Codec ID                                 : S_HDMV/PGS
  112. Codec ID/Info                            : Picture based subtitle format used on BDs/HD-DVDs
  113. Duration                                 : 2 h 23 min
  114. Bit rate                                 : 15.8 kb/s
  115. Count of elements                        : 1840
  116. Stream size                              : 16.3 MiB (0%)
  117. Title                                    : French-PGS
  118. Language                                 : French
  119. Default                                  : No
  120. Forced                                   : No

  121. Text #5
  122. ID                                       : 8
  123. Format                                   : PGS
  124. Muxing mode                              : zlib
  125. Codec ID                                 : S_HDMV/PGS
  126. Codec ID/Info                            : Picture based subtitle format used on BDs/HD-DVDs
  127. Duration                                 : 2 h 23 min
  128. Bit rate                                 : 18.4 kb/s
  129. Count of elements                        : 1972
  130. Stream size                              : 18.9 MiB (0%)
  131. Title                                    : Spanish-PGS
  132. Language                                 : Spanish
  133. Default                                  : No
  134. Forced                                   : No

  135. Text #6
  136. ID                                       : 9
  137. Format                                   : PGS
  138. Muxing mode                              : zlib
  139. Codec ID                                 : S_HDMV/PGS
  140. Codec ID/Info                            : Picture based subtitle format used on BDs/HD-DVDs
  141. Duration                                 : 2 h 23 min
  142. Bit rate                                 : 17.6 kb/s
  143. Count of elements                        : 1700
  144. Stream size                              : 18.2 MiB (0%)
  145. Title                                    : Danish-PGS
  146. Language                                 : Danish
  147. Default                                  : No
  148. Forced                                   : No

  149. Text #7
  150. ID                                       : 10
  151. Format                                   : PGS
  152. Muxing mode                              : zlib
  153. Codec ID                                 : S_HDMV/PGS
  154. Codec ID/Info                            : Picture based subtitle format used on BDs/HD-DVDs
  155. Duration                                 : 2 h 23 min
  156. Bit rate                                 : 18.6 kb/s
  157. Count of elements                        : 1948
  158. Stream size                              : 19.2 MiB (0%)
  159. Title                                    : Dutch-PGS
  160. Language                                 : Dutch
  161. Default                                  : No
  162. Forced                                   : No

  163. Text #8
  164. ID                                       : 11
  165. Format                                   : PGS
  166. Muxing mode                              : zlib
  167. Codec ID                                 : S_HDMV/PGS
  168. Codec ID/Info                            : Picture based subtitle format used on BDs/HD-DVDs
  169. Duration                                 : 2 h 23 min
  170. Bit rate                                 : 16.4 kb/s
  171. Count of elements                        : 1892
  172. Stream size                              : 16.9 MiB (0%)
  173. Title                                    : Finnish-PGS
  174. Language                                 : Finnish
  175. Default                                  : No
  176. Forced                                   : No

  177. Text #9
  178. ID                                       : 12
  179. Format                                   : PGS
  180. Muxing mode                              : zlib
  181. Codec ID                                 : S_HDMV/PGS
  182. Codec ID/Info                            : Picture based subtitle format used on BDs/HD-DVDs
  183. Duration                                 : 2 h 23 min
  184. Bit rate                                 : 17.5 kb/s
  185. Count of elements                        : 1798
  186. Stream size                              : 18.0 MiB (0%)
  187. Title                                    : German-PGS
  188. Language                                 : German
  189. Default                                  : No
  190. Forced                                   : No

  191. Text #10
  192. ID                                       : 13
  193. Format                                   : PGS
  194. Muxing mode                              : zlib
  195. Codec ID                                 : S_HDMV/PGS
  196. Codec ID/Info                            : Picture based subtitle format used on BDs/HD-DVDs
  197. Duration                                 : 2 h 23 min
  198. Bit rate                                 : 20.4 kb/s
  199. Count of elements                        : 2134
  200. Stream size                              : 20.9 MiB (0%)
  201. Title                                    : Italian-PGS
  202. Language                                 : Italian
  203. Default                                  : No
  204. Forced                                   : No

  205. Text #11
  206. ID                                       : 14
  207. Format                                   : PGS
  208. Muxing mode                              : zlib
  209. Codec ID                                 : S_HDMV/PGS
  210. Codec ID/Info                            : Picture based subtitle format used on BDs/HD-DVDs
  211. Duration                                 : 2 h 23 min
  212. Bit rate                                 : 15.2 kb/s
  213. Count of elements                        : 1856
  214. Stream size                              : 15.6 MiB (0%)
  215. Title                                    : Norwegian-PGS
  216. Language                                 : Norwegian
  217. Default                                  : No
  218. Forced                                   : No

  219. Text #12
  220. ID                                       : 15
  221. Format                                   : PGS
  222. Muxing mode                              : zlib
  223. Codec ID                                 : S_HDMV/PGS
  224. Codec ID/Info                            : Picture based subtitle format used on BDs/HD-DVDs
  225. Duration                                 : 2 h 23 min
  226. Bit rate                                 : 15.3 kb/s
  227. Count of elements                        : 1398
  228. Stream size                              : 15.8 MiB (0%)
  229. Title                                    : Swedish-PGS
  230. Language                                 : Swedish
  231. Default                                  : No
  232. Forced                                   : No

  233. Text #13
  234. ID                                       : 16
  235. Format                                   : PGS
  236. Muxing mode                              : zlib
  237. Codec ID                                 : S_HDMV/PGS
  238. Codec ID/Info                            : Picture based subtitle format used on BDs/HD-DVDs
  239. Duration                                 : 2 h 23 min
  240. Bit rate                                 : 17.0 kb/s
  241. Count of elements                        : 2154
  242. Stream size                              : 17.5 MiB (0%)
  243. Title                                    : Chinese-PGS
  244. Language                                 : Chinese
  245. Default                                  : No
  246. Forced                                   : No

  247. Text #14
  248. ID                                       : 17
  249. Format                                   : PGS
  250. Muxing mode                              : zlib
  251. Codec ID                                 : S_HDMV/PGS
  252. Codec ID/Info                            : Picture based subtitle format used on BDs/HD-DVDs
  253. Duration                                 : 2 h 23 min
  254. Bit rate                                 : 18.0 kb/s
  255. Count of elements                        : 2066
  256. Stream size                              : 18.5 MiB (0%)
  257. Title                                    : Czech-PGS
  258. Language                                 : Czech
  259. Default                                  : No
  260. Forced                                   : No

  261. Text #15
  262. ID                                       : 18
  263. Format                                   : PGS
  264. Muxing mode                              : zlib
  265. Codec ID                                 : S_HDMV/PGS
  266. Codec ID/Info                            : Picture based subtitle format used on BDs/HD-DVDs
  267. Duration                                 : 2 h 23 min
  268. Bit rate                                 : 15.5 kb/s
  269. Count of elements                        : 1952
  270. Stream size                              : 15.9 MiB (0%)
  271. Title                                    : Hungarian-PGS
  272. Language                                 : Hungarian
  273. Default                                  : No
  274. Forced                                   : No

  275. Text #16
  276. ID                                       : 19
  277. Format                                   : PGS
  278. Muxing mode                              : zlib
  279. Codec ID                                 : S_HDMV/PGS
  280. Codec ID/Info                            : Picture based subtitle format used on BDs/HD-DVDs
  281. Duration                                 : 2 h 23 min
  282. Bit rate                                 : 9 669 b/s
  283. Count of elements                        : 2004
  284. Stream size                              : 9.95 MiB (0%)
  285. Title                                    : Korean-PGS
  286. Language                                 : Korean
  287. Default                                  : No
  288. Forced                                   : No

  289. Text #17
  290. ID                                       : 20
  291. Format                                   : PGS
  292. Muxing mode                              : zlib
  293. Codec ID                                 : S_HDMV/PGS
  294. Codec ID/Info                            : Picture based subtitle format used on BDs/HD-DVDs
  295. Duration                                 : 2 h 23 min
  296. Bit rate                                 : 14.0 kb/s
  297. Count of elements                        : 2008
  298. Stream size                              : 14.5 MiB (0%)
  299. Title                                    : Chinese-PGS
  300. Language                                 : Chinese
  301. Default                                  : No
  302. Forced                                   : No

  303. Text #18
  304. ID                                       : 21
  305. Format                                   : PGS
  306. Muxing mode                              : zlib
  307. Codec ID                                 : S_HDMV/PGS
  308. Codec ID/Info                            : Picture based subtitle format used on BDs/HD-DVDs
  309. Duration                                 : 2 h 23 min
  310. Bit rate                                 : 15.7 kb/s
  311. Count of elements                        : 1962
  312. Stream size                              : 16.2 MiB (0%)
  313. Title                                    : Polish-PGS
  314. Language                                 : Polish
  315. Default                                  : No
  316. Forced                                   : No

  317. Text #19
  318. ID                                       : 22
  319. Format                                   : PGS
  320. Muxing mode                              : zlib
  321. Codec ID                                 : S_HDMV/PGS
  322. Codec ID/Info                            : Picture based subtitle format used on BDs/HD-DVDs
  323. Duration                                 : 2 h 23 min
  324. Bit rate                                 : 19.3 kb/s
  325. Count of elements                        : 1996
  326. Stream size                              : 19.8 MiB (0%)
  327. Title                                    : Portuguese-PGS
  328. Language                                 : Portuguese
  329. Default                                  : No
  330. Forced                                   : No

  331. Menu
  332. 00:00:00.000                             : en:Chapter 01
  333. 00:09:37.952                             : en:Chapter 02
  334. 00:19:31.170                             : en:Chapter 03
  335. 00:25:35.951                             : en:Chapter 04
  336. 00:35:18.908                             : en:Chapter 05
  337. 00:39:59.397                             : en:Chapter 06
  338. 00:45:22.302                             : en:Chapter 07
  339. 00:57:50.800                             : en:Chapter 08
  340. 01:07:22.246                             : en:Chapter 09
  341. 01:17:12.044                             : en:Chapter 10
  342. 01:30:06.067                             : en:Chapter 11
  343. 01:38:40.831                             : en:Chapter 12
  344. 01:43:29.620                             : en:Chapter 13
  345. 01:54:03.044                             : en:Chapter 14
  346. 02:05:45.371                             : en:Chapter 15
  347. 02:13:19.700                             : en:Chapter 16
复制代码

2575301255923.png 007:大战皇家赌场/007大战皇家赌场 Casino.Royale.2006.2160p.BluRay.x265.10bit.SDR.DTS-HD.MA.5.1-SWTYBLZ 41.96GB-3.png 007:大战皇家赌场/007大战皇家赌场 Casino.Royale.2006.2160p.BluRay.x265.10bit.SDR.DTS-HD.MA.5.1-SWTYBLZ 41.96GB-4.png 007:大战皇家赌场/007大战皇家赌场 Casino.Royale.2006.2160p.BluRay.x265.10bit.SDR.DTS-HD.MA.5.1-SWTYBLZ 41.96GB-5.png 007:大战皇家赌场/007大战皇家赌场 Casino.Royale.2006.2160p.BluRay.x265.10bit.SDR.DTS-HD.MA.5.1-SWTYBLZ 41.96GB-6.png 007:大战皇家赌场/007大战皇家赌场 Casino.Royale.2006.2160p.BluRay.x265.10bit.SDR.DTS-HD.MA.5.1-SWTYBLZ 41.96GB-7.png 007:大战皇家赌场/007大战皇家赌场 Casino.Royale.2006.2160p.BluRay.x265.10bit.SDR.DTS-HD.MA.5.1-SWTYBLZ 41.96GB-8.png







回复

使用道具 举报

发表于 2019-10-20 19:18:41 | 显示全部楼层

这东西我收了!谢谢楼主!蓝光电影网真好!
回复 支持 反对

使用道具 举报

发表于 2019-10-20 20:30:55 | 显示全部楼层
楼主发贴辛苦了,谢谢楼主分享!我觉得蓝光电影网是注册对了!
回复 支持 反对

使用道具 举报

发表于 2019-10-20 20:56:35 | 显示全部楼层
楼主发贴辛苦了,谢谢楼主分享!我觉得蓝光电影网是注册对了!
回复 支持 反对

使用道具 举报

发表于 2019-10-20 21:03:36 | 显示全部楼层
楼主发贴辛苦了,谢谢楼主分享!我觉得蓝光电影网是注册对了!
回复 支持 反对

使用道具 举报

发表于 2019-10-20 23:44:52 | 显示全部楼层

楼主太厉害了!楼主,电影应该很好看我觉得蓝光电影网真是个好地方!
回复 支持 反对

使用道具 举报

发表于 2019-10-21 00:58:57 | 显示全部楼层
楼主发贴辛苦了,谢谢楼主分享!我觉得蓝光电影网是注册对了!
回复 支持 反对

使用道具 举报

发表于 2019-10-21 06:39:27 | 显示全部楼层

楼主太厉害了!楼主,电影应该很好看我觉得蓝光电影网真是个好地方!
回复 支持 反对

使用道具 举报

发表于 2019-10-21 06:56:00 | 显示全部楼层
新片不错谢谢楼主分享!
回复 支持 反对

使用道具 举报

发表于 2019-10-21 06:57:37 | 显示全部楼层
用迅雷下载很慢很慢不知道哪位仙神知道用什么软件和方法下载速度较快
回复 支持 反对

使用道具 举报

懒得打字嘛,点击右侧快捷回复 【右侧内容,后台自定义】
您需要登录后才可以回帖 登录 | 立即加入

本版积分规则

现在加入蓝光电影网,注册一个账号

QQ| 手机版|小黑屋| 蓝光电影网 |网站地图 

Copyright © 2015-2019 Comsenz Inc.  Template by 蓝光电影论坛 All Rights Reserved.

Powered by 蓝光电影网 X3.4

特别声明:本站所有资源均由网上收集而来,版权归原影音公司所有,如果侵犯了你的权益,请通知我们,我们会及时删除侵权内容.

快速回复 返回顶部 返回列表