找回密码

蓝光电影网

查看: 250|回复: 7

[10bit.SDR] 007:大破量子危机/007大破量子危机 Quantum.of.Solace.2008.2160p.BluRay.x265.10bit.SDR.DTS-HD.MA.5.1-SWTYBLZ 25.06GB

[复制链接]

 成长值: 23245

发表于 2019-10-20 16:58:01 | 显示全部楼层 |阅读模式
007:大破量子危机/007大破量子危机 Quantum.of.Solace.2008.2160p.BluRay.x265.10bit.SDR.DTS-HD.MA.5.1-SWTYBLZ 25.06GB-1.png

译  名 007:大破量子危机 / 007大破量子危机 / 007系列22:大破量子危机 / 007:量子危机(台) / 余温之恋 / 宽慰量子 / 新铁金刚之量子杀机(港) / 邦德22
片  名 Quantum of Solace
年  代 2008
产  地 英国 / 美国
类  别 动作 / 惊悚 / 冒险
语  言 英语 / 意大利语 / 法语 / 西班牙语 / 瑞士德语 / 德语
上映日期 2008-10-31(英国) / 2008-11-05(中国大陆) / 2008-11-14(美国)
IMDb评分  6.6/10 from 380807 users
IMDb链接  http://www.imdb.com/title/tt0830515
豆瓣评分 6.5/10 from 80293 users
豆瓣链接 https://movie.douban.com/subject/1946882/
片  长 106 分钟
导  演 Marc Forster
编  剧 Paul Haggis / Neal Purvis / Robert Wade
主  演 Daniel Craig
       Judi Dench
       Olga Kurylenko
       Mathieu Amalric
       Gemma Arterton


标  签 007 | 动作 | 美国 | 特工 | 英国 | 美国电影 | 2008 | DanielCraig

简  介  

  紧接前一集《皇家赌场》的剧情,由于爱人维斯佩的背叛,邦德(丹尼尔·克雷格 Daniel Craig 饰)的怒火被彻底激发,甚至在执行最新任务时都不得不尽量克制个人感情,以免把这次任务升级为个人恩怨。通过与M(朱迪·丹奇 Judi Dench 饰)对白先生(加斯帕·克里斯 滕森 Jesper Christensen 饰)的审问,得知维斯佩是被一个难以想象的犯罪组织所要挟。为了能查清楚这个组织的情况,邦德根据手上的线索顺藤摸瓜,最终把目标锁定在了一个名叫格林(马修·阿马立克 Mathieu Amalric 饰)的商人身上。经过不断的调查,最终发现了这个犯罪组织的惊天阴谋,想控制全球的自然资源。在随时可能遭遇背叛、谋杀和骗局的情况下,邦德再次出击……最终成功挫败了这个惊天阴谋。
  在这一集的片头,性感火辣的舞女轮廓将回归这部经典系列电影的片头。
  1. Video
  2. ID                                       : 1
  3. Format                                   : HEVC
  4. Format/Info                              : High Efficiency Video Coding
  5. Format profile                           : Main High@L4@High
  6. Codec ID                                 : V_MPEGH/ISO/HEVC
  7. Duration                                 : 1 h 46 min
  8. Bit rate                                 : 28.7 Mb/s
  9. Width                                    : 3 840 pixels
  10. Height                                   : 1 600 pixels
  11. Display aspect ratio                     : 2.40:1
  12. Frame rate mode                          : Constant
  13. Frame rate                               : 23.976 (24000/1001) FPS
  14. Color space                              : YUV
  15. Chroma subsampling                       : 4:2:0
  16. Bit depth                                : 10 bits
  17. Bits/(Pixel*Frame)                       : 0.195
  18. Stream size                              : 21.3 GiB (85%)
  19. Title                                    : Quantum.of.Solace.2008.2160p.BluRay.x265.10bit.SDR.DTS-HD.MA.5.1-SWTYBLZ
  20. Writing library                          : x265 3.0ed72af837053:[Windows][GCC 8.2.0][64 bit] 10bit
  21. Encoding settings                        : cpuid=1111039 / frame-threads=16 / numa-pools=24,24,24,24 / wpp / no-pmode / no-pme / no-psnr / no-ssim / log-level=2 / input-csp=1 / input-res=3840x1600 / interlace=0 / total-frames=152796 / level-idc=51 / high-tier=1 / uhd-bd=0 / ref=3 / no-allow-non-conformance / repeat-headers / annexb / aud / hrd / info / hash=0 / no-temporal-layers / no-open-gop / min-keyint=1 / keyint=24 / gop-lookahead=0 / bframes=4 / b-adapt=2 / b-pyramid / bframe-bias=0 / rc-lookahead=25 / lookahead-slices=4 / scenecut=40 / radl=0 / no-splice / no-intra-refresh / ctu=64 / min-cu-size=8 / no-rect / no-amp / max-tu-size=32 / tu-inter-depth=1 / tu-intra-depth=1 / limit-tu=0 / rdoq-level=0 / dynamic-rd=0.00 / no-ssim-rd / signhide / no-tskip / nr-intra=0 / nr-inter=0 / no-constrained-intra / strong-intra-smoothing / max-merge=2 / limit-refs=3 / no-limit-modes / me=1 / subme=2 / merange=57 / temporal-mvp / weightp / no-weightb / no-analyze-src-pics / deblock=0:0 / no-sao / no-sao-non-deblock / rd=3 / no-early-skip / rskip / no-fast-intra / no-tskip-fast / no-cu-lossless / no-b-intra / no-splitrd-skip / rdpenalty=0 / psy-rd=2.00 / psy-rdoq=0.00 / no-rd-refine / no-lossless / cbqpoffs=0 / crqpoffs=0 / rc=crf / crf=16.0 / qcomp=0.60 / qpstep=4 / stats-write=0 / stats-read=0 / vbv-maxrate=160000 / vbv-bufsize=160000 / vbv-init=0.9 / crf-max=0.0 / crf-min=0.0 / ipratio=1.40 / pbratio=1.30 / aq-mode=1 / aq-strength=1.00 / cutree / zone-count=0 / no-strict-cbr / qg-size=32 / no-rc-grain / qpmax=69 / qpmin=0 / no-const-vbv / sar=1 / overscan=0 / videoformat=5 / range=0 / colorprim=2 / transfer=2 / colormatrix=2 / chromaloc=0 / display-window=0 / max-cll=0,0 / min-luma=0 / max-luma=1023 / log2-max-poc-lsb=8 / vui-timing-info / vui-hrd-info / slices=1 / opt-qp-pps / opt-ref-list-length-pps / no-multi-pass-opt-rps / scenecut-bias=0.05 / no-opt-cu-delta-qp / no-aq-motion / no-hdr / no-hdr-opt / no-dhdr10-opt / no-idr-recovery-sei / analysis-reuse-level=5 / scale-factor=0 / refine-intra=0 / refine-inter=0 / refine-mv=0 / refine-ctu-distortion=0 / no-limit-sao / ctu-info=0 / no-lowpass-dct / refine-analysis-type=0 / copy-pic=1 / max-ausize-factor=1.0 / no-dynamic-refine / no-single-sei / no-hevc-aq / qp-adaptation-range=1.00
  22. Default                                  : Yes
  23. Forced                                   : No

  24. Audio #1
  25. ID                                       : 2
  26. Format                                   : DTS XLL
  27. Format/Info                              : Digital Theater Systems
  28. Commercial name                          : DTS-HD Master Audio
  29. Codec ID                                 : A_DTS
  30. Duration                                 : 1 h 46 min
  31. Bit rate mode                            : Variable
  32. Bit rate                                 : 4 094 kb/s
  33. Channel(s)                               : 6 channels
  34. Channel layout                           : C L R Ls Rs LFE
  35. Sampling rate                            : 48.0 kHz
  36. Frame rate                               : 93.750 FPS (512 SPF)
  37. Bit depth                                : 24 bits
  38. Compression mode                         : Lossless
  39. Stream size                              : 3.04 GiB (12%)
  40. Title                                    : Quantum.of.Solace.2008.2160p.BluRay.x265.10bit.SDR.DTS-HD.MA.5.1-SWTYBLZ
  41. Language                                 : English
  42. Default                                  : Yes
  43. Forced                                   : No

  44. Audio #2
  45. ID                                       : 3
  46. Format                                   : AC-3
  47. Format/Info                              : Audio Coding 3
  48. Commercial name                          : Dolby Digital
  49. Codec ID                                 : A_AC3
  50. Duration                                 : 1 h 46 min
  51. Bit rate mode                            : Constant
  52. Bit rate                                 : 640 kb/s
  53. Channel(s)                               : 6 channels
  54. Channel layout                           : L R C LFE Ls Rs
  55. Sampling rate                            : 48.0 kHz
  56. Frame rate                               : 31.250 FPS (1536 SPF)
  57. Bit depth                                : 16 bits
  58. Compression mode                         : Lossy
  59. Stream size                              : 486 MiB (2%)
  60. Title                                    : Quantum.of.Solace.2008.2160p.BluRay.x265.10bit.SDR.DTS-HD.MA.5.1-SWTYBLZ
  61. Language                                 : English
  62. Service kind                             : Complete Main
  63. Default                                  : No
  64. Forced                                   : No

  65. Text #1
  66. ID                                       : 4
  67. Format                                   : UTF-8
  68. Codec ID                                 : S_TEXT/UTF8
  69. Codec ID/Info                            : UTF-8 Plain Text
  70. Duration                                 : 1 h 37 min
  71. Bit rate                                 : 46 b/s
  72. Count of elements                        : 1017
  73. Stream size                              : 33.2 KiB (0%)
  74. Title                                    : English-SRT
  75. Language                                 : English
  76. Default                                  : Yes
  77. Forced                                   : No

  78. Text #2
  79. ID                                       : 5
  80. Format                                   : UTF-8
  81. Codec ID                                 : S_TEXT/UTF8
  82. Codec ID/Info                            : UTF-8 Plain Text
  83. Duration                                 : 1 h 40 min
  84. Bit rate                                 : 49 b/s
  85. Count of elements                        : 1189
  86. Stream size                              : 36.7 KiB (0%)
  87. Title                                    : English-SDH-SRT
  88. Language                                 : English
  89. Default                                  : No
  90. Forced                                   : No

  91. Text #3
  92. ID                                       : 6
  93. Format                                   : PGS
  94. Muxing mode                              : zlib
  95. Codec ID                                 : S_HDMV/PGS
  96. Codec ID/Info                            : Picture based subtitle format used on BDs/HD-DVDs
  97. Duration                                 : 1 h 40 min
  98. Bit rate                                 : 33.1 kb/s
  99. Count of elements                        : 2378
  100. Stream size                              : 23.8 MiB (0%)
  101. Title                                    : English-PGS
  102. Language                                 : English
  103. Default                                  : No
  104. Forced                                   : No

  105. Text #4
  106. ID                                       : 7
  107. Format                                   : PGS
  108. Muxing mode                              : zlib
  109. Codec ID                                 : S_HDMV/PGS
  110. Codec ID/Info                            : Picture based subtitle format used on BDs/HD-DVDs
  111. Duration                                 : 1 h 43 min
  112. Bit rate                                 : 26.0 kb/s
  113. Count of elements                        : 1918
  114. Stream size                              : 19.3 MiB (0%)
  115. Title                                    : Spanish-PGS
  116. Language                                 : Spanish
  117. Default                                  : No
  118. Forced                                   : No

  119. Text #5
  120. ID                                       : 8
  121. Format                                   : PGS
  122. Muxing mode                              : zlib
  123. Codec ID                                 : S_HDMV/PGS
  124. Codec ID/Info                            : Picture based subtitle format used on BDs/HD-DVDs
  125. Duration                                 : 1 h 43 min
  126. Bit rate                                 : 22.4 kb/s
  127. Count of elements                        : 2004
  128. Stream size                              : 16.7 MiB (0%)
  129. Title                                    : French-PGS
  130. Language                                 : French
  131. Default                                  : No
  132. Forced                                   : No

  133. Text #6
  134. ID                                       : 9
  135. Format                                   : PGS
  136. Muxing mode                              : zlib
  137. Codec ID                                 : S_HDMV/PGS
  138. Codec ID/Info                            : Picture based subtitle format used on BDs/HD-DVDs
  139. Duration                                 : 1 h 39 min
  140. Bit rate                                 : 23.7 kb/s
  141. Count of elements                        : 1898
  142. Stream size                              : 16.8 MiB (0%)
  143. Title                                    : Spanish-PGS
  144. Language                                 : Spanish
  145. Default                                  : No
  146. Forced                                   : No

  147. Text #7
  148. ID                                       : 10
  149. Format                                   : PGS
  150. Muxing mode                              : zlib
  151. Codec ID                                 : S_HDMV/PGS
  152. Codec ID/Info                            : Picture based subtitle format used on BDs/HD-DVDs
  153. Duration                                 : 1 h 43 min
  154. Bit rate                                 : 24.7 kb/s
  155. Count of elements                        : 1946
  156. Stream size                              : 18.4 MiB (0%)
  157. Title                                    : Danish-PGS
  158. Language                                 : Danish
  159. Default                                  : No
  160. Forced                                   : No

  161. Text #8
  162. ID                                       : 11
  163. Format                                   : PGS
  164. Muxing mode                              : zlib
  165. Codec ID                                 : S_HDMV/PGS
  166. Codec ID/Info                            : Picture based subtitle format used on BDs/HD-DVDs
  167. Duration                                 : 1 h 43 min
  168. Bit rate                                 : 27.4 kb/s
  169. Count of elements                        : 2008
  170. Stream size                              : 20.4 MiB (0%)
  171. Title                                    : Dutch-PGS
  172. Language                                 : Dutch
  173. Default                                  : No
  174. Forced                                   : No

  175. Text #9
  176. ID                                       : 12
  177. Format                                   : PGS
  178. Muxing mode                              : zlib
  179. Codec ID                                 : S_HDMV/PGS
  180. Codec ID/Info                            : Picture based subtitle format used on BDs/HD-DVDs
  181. Duration                                 : 1 h 39 min
  182. Bit rate                                 : 23.0 kb/s
  183. Count of elements                        : 2000
  184. Stream size                              : 16.3 MiB (0%)
  185. Title                                    : Finnish-PGS
  186. Language                                 : Finnish
  187. Default                                  : No
  188. Forced                                   : No

  189. Text #10
  190. ID                                       : 13
  191. Format                                   : PGS
  192. Muxing mode                              : zlib
  193. Codec ID                                 : S_HDMV/PGS
  194. Codec ID/Info                            : Picture based subtitle format used on BDs/HD-DVDs
  195. Duration                                 : 1 h 39 min
  196. Bit rate                                 : 28.1 kb/s
  197. Count of elements                        : 2006
  198. Stream size                              : 20.0 MiB (0%)
  199. Title                                    : German-PGS
  200. Language                                 : German
  201. Default                                  : No
  202. Forced                                   : No

  203. Text #11
  204. ID                                       : 14
  205. Format                                   : PGS
  206. Muxing mode                              : zlib
  207. Codec ID                                 : S_HDMV/PGS
  208. Codec ID/Info                            : Picture based subtitle format used on BDs/HD-DVDs
  209. Duration                                 : 1 h 37 min
  210. Bit rate                                 : 26.2 kb/s
  211. Count of elements                        : 1982
  212. Stream size                              : 18.3 MiB (0%)
  213. Title                                    : Italian-PGS
  214. Language                                 : Italian
  215. Default                                  : No
  216. Forced                                   : No

  217. Text #12
  218. ID                                       : 15
  219. Format                                   : PGS
  220. Muxing mode                              : zlib
  221. Codec ID                                 : S_HDMV/PGS
  222. Codec ID/Info                            : Picture based subtitle format used on BDs/HD-DVDs
  223. Duration                                 : 1 h 39 min
  224. Bit rate                                 : 22.5 kb/s
  225. Count of elements                        : 2006
  226. Stream size                              : 15.9 MiB (0%)
  227. Title                                    : Norwegian-PGS
  228. Language                                 : Norwegian
  229. Default                                  : No
  230. Forced                                   : No

  231. Text #13
  232. ID                                       : 16
  233. Format                                   : PGS
  234. Muxing mode                              : zlib
  235. Codec ID                                 : S_HDMV/PGS
  236. Codec ID/Info                            : Picture based subtitle format used on BDs/HD-DVDs
  237. Duration                                 : 1 h 39 min
  238. Bit rate                                 : 24.1 kb/s
  239. Count of elements                        : 1980
  240. Stream size                              : 17.2 MiB (0%)
  241. Title                                    : Swedish-PGS
  242. Language                                 : Swedish
  243. Default                                  : No
  244. Forced                                   : No

  245. Text #14
  246. ID                                       : 17
  247. Format                                   : PGS
  248. Muxing mode                              : zlib
  249. Codec ID                                 : S_HDMV/PGS
  250. Codec ID/Info                            : Picture based subtitle format used on BDs/HD-DVDs
  251. Duration                                 : 1 h 43 min
  252. Bit rate                                 : 26.4 kb/s
  253. Count of elements                        : 2002
  254. Stream size                              : 19.7 MiB (0%)
  255. Title                                    : Chinese-PGS
  256. Language                                 : Chinese
  257. Default                                  : No
  258. Forced                                   : No

  259. Text #15
  260. ID                                       : 18
  261. Format                                   : PGS
  262. Muxing mode                              : zlib
  263. Codec ID                                 : S_HDMV/PGS
  264. Codec ID/Info                            : Picture based subtitle format used on BDs/HD-DVDs
  265. Duration                                 : 1 h 39 min
  266. Bit rate                                 : 24.6 kb/s
  267. Count of elements                        : 2006
  268. Stream size                              : 17.4 MiB (0%)
  269. Title                                    : Czech-PGS
  270. Language                                 : Czech
  271. Default                                  : No
  272. Forced                                   : No

  273. Text #16
  274. ID                                       : 19
  275. Format                                   : PGS
  276. Muxing mode                              : zlib
  277. Codec ID                                 : S_HDMV/PGS
  278. Codec ID/Info                            : Picture based subtitle format used on BDs/HD-DVDs
  279. Duration                                 : 1 h 39 min
  280. Bit rate                                 : 23.0 kb/s
  281. Count of elements                        : 2006
  282. Stream size                              : 16.3 MiB (0%)
  283. Title                                    : Hungarian-PGS
  284. Language                                 : Hungarian
  285. Default                                  : No
  286. Forced                                   : No

  287. Text #17
  288. ID                                       : 20
  289. Format                                   : PGS
  290. Muxing mode                              : zlib
  291. Codec ID                                 : S_HDMV/PGS
  292. Codec ID/Info                            : Picture based subtitle format used on BDs/HD-DVDs
  293. Duration                                 : 1 h 43 min
  294. Bit rate                                 : 14.7 kb/s
  295. Count of elements                        : 2022
  296. Stream size                              : 10.9 MiB (0%)
  297. Title                                    : Korean-PGS
  298. Language                                 : Korean
  299. Default                                  : No
  300. Forced                                   : No

  301. Text #18
  302. ID                                       : 21
  303. Format                                   : PGS
  304. Muxing mode                              : zlib
  305. Codec ID                                 : S_HDMV/PGS
  306. Codec ID/Info                            : Picture based subtitle format used on BDs/HD-DVDs
  307. Duration                                 : 1 h 43 min
  308. Bit rate                                 : 18.9 kb/s
  309. Count of elements                        : 2002
  310. Stream size                              : 14.0 MiB (0%)
  311. Title                                    : Chinese-PGS
  312. Language                                 : Chinese
  313. Default                                  : No
  314. Forced                                   : No

  315. Text #19
  316. ID                                       : 22
  317. Format                                   : PGS
  318. Muxing mode                              : zlib
  319. Codec ID                                 : S_HDMV/PGS
  320. Codec ID/Info                            : Picture based subtitle format used on BDs/HD-DVDs
  321. Duration                                 : 1 h 39 min
  322. Bit rate                                 : 23.7 kb/s
  323. Count of elements                        : 2022
  324. Stream size                              : 16.8 MiB (0%)
  325. Title                                    : Polish-PGS
  326. Language                                 : Polish
  327. Default                                  : No
  328. Forced                                   : No

  329. Text #20
  330. ID                                       : 23
  331. Format                                   : PGS
  332. Muxing mode                              : zlib
  333. Codec ID                                 : S_HDMV/PGS
  334. Codec ID/Info                            : Picture based subtitle format used on BDs/HD-DVDs
  335. Duration                                 : 1 h 39 min
  336. Bit rate                                 : 28.3 kb/s
  337. Count of elements                        : 2006
  338. Stream size                              : 20.1 MiB (0%)
  339. Title                                    : Portuguese-PGS
  340. Language                                 : Portuguese
  341. Default                                  : No
  342. Forced                                   : No

  343. Menu
  344. 00:00:00.000                             : en:Chapter 01
  345. 00:04:09.624                             : en:Chapter 02
  346. 00:07:27.196                             : en:Chapter 03
  347. 00:10:19.994                             : en:Chapter 04
  348. 00:15:16.498                             : en:Chapter 05
  349. 00:17:47.066                             : en:Chapter 06
  350. 00:20:23.972                             : en:Chapter 07
  351. 00:22:51.036                             : en:Chapter 08
  352. 00:26:27.877                             : en:Chapter 09
  353. 00:29:06.035                             : en:Chapter 10
  354. 00:33:16.411                             : en:Chapter 11
  355. 00:35:47.770                             : en:Chapter 12
  356. 00:39:01.797                             : en:Chapter 13
  357. 00:44:18.822                             : en:Chapter 14
  358. 00:47:21.296                             : en:Chapter 15
  359. 00:52:30.230                             : en:Chapter 16
  360. 00:56:28.301                             : en:Chapter 17
  361. 01:01:16.547                             : en:Chapter 18
  362. 01:04:50.678                             : en:Chapter 19
  363. 01:11:04.468                             : en:Chapter 20
  364. 01:12:34.099                             : en:Chapter 21
  365. 01:17:16.089                             : en:Chapter 22
  366. 01:21:05.360                             : en:Chapter 23
  367. 01:24:17.385                             : en:Chapter 24
  368. 01:29:19.604                             : en:Chapter 25
  369. 01:36:15.186                             : en:Chapter 26
  370. 01:37:58.914                             : en:Chapter 27
  371. 01:41:38.550                             : en:Chapter 28
复制代码

007:大破量子危机/007大破量子危机 Quantum.of.Solace.2008.2160p.BluRay.x265.10bit.SDR.DTS-HD.MA.5.1-SWTYBLZ 25.06GB-2.png 007:大破量子危机/007大破量子危机 Quantum.of.Solace.2008.2160p.BluRay.x265.10bit.SDR.DTS-HD.MA.5.1-SWTYBLZ 25.06GB-3.png 007:大破量子危机/007大破量子危机 Quantum.of.Solace.2008.2160p.BluRay.x265.10bit.SDR.DTS-HD.MA.5.1-SWTYBLZ 25.06GB-4.png 007:大破量子危机/007大破量子危机 Quantum.of.Solace.2008.2160p.BluRay.x265.10bit.SDR.DTS-HD.MA.5.1-SWTYBLZ 25.06GB-5.png 007:大破量子危机/007大破量子危机 Quantum.of.Solace.2008.2160p.BluRay.x265.10bit.SDR.DTS-HD.MA.5.1-SWTYBLZ 25.06GB-6.png 007:大破量子危机/007大破量子危机 Quantum.of.Solace.2008.2160p.BluRay.x265.10bit.SDR.DTS-HD.MA.5.1-SWTYBLZ 25.06GB-7.png 007:大破量子危机/007大破量子危机 Quantum.of.Solace.2008.2160p.BluRay.x265.10bit.SDR.DTS-HD.MA.5.1-SWTYBLZ 25.06GB-8.png







回复

使用道具 举报

发表于 2019-10-20 19:41:24 | 显示全部楼层

这东西我收了!谢谢楼主!蓝光电影网真好!
回复 支持 反对

使用道具 举报

发表于 2019-10-20 21:37:48 | 显示全部楼层


感谢楼主分享
回复 支持 反对

使用道具 举报

发表于 2019-10-22 08:01:05 | 显示全部楼层
楼主发贴辛苦了,谢谢楼主分享!我觉得蓝光电影网是注册对了!
回复 支持 反对

使用道具 举报

发表于 2019-10-22 09:22:51 | 显示全部楼层

这个帖子不回对不起自己!我想我是一天也不能离开蓝光电影网
回复 支持 反对

使用道具 举报

发表于 2019-10-22 17:28:20 | 显示全部楼层
楼主发贴辛苦了,谢谢楼主分享!我觉得蓝光电影网是注册对了!
回复 支持 反对

使用道具 举报

发表于 2019-10-24 18:33:38 | 显示全部楼层

这东西我收了!谢谢楼主!蓝光电影网真好!
回复 支持 反对

使用道具 举报

发表于 2019-11-8 22:46:51 | 显示全部楼层
经典系列,感谢楼主!
回复 支持 反对

使用道具 举报

懒得打字嘛,点击右侧快捷回复 【右侧内容,后台自定义】
您需要登录后才可以回帖 登录 | 立即加入

本版积分规则

现在加入蓝光电影网,注册一个账号

QQ| 手机版|小黑屋| 蓝光电影网 |网站地图 

Copyright © 2015-2019 Comsenz Inc.  Template by 蓝光电影论坛 All Rights Reserved.

Powered by 蓝光电影网 X3.4

特别声明:本站所有资源均由网上收集而来,版权归原影音公司所有,如果侵犯了你的权益,请通知我们,我们会及时删除侵权内容.

快速回复 返回顶部 返回列表