找回密码

蓝光电影网

查看: 217|回复: 9

[REMUX.HEVC] 007:大战皇家赌场/007大战皇家赌场 Casino.Royale.2006.2160p.BluRay.REMUX.HEVC.DTS-HD.MA.5.1-FGT 51.60GB

[复制链接]

 成长值: 23155

发表于 2019-10-20 12:29:50 | 显示全部楼层 |阅读模式
007:大战皇家赌场/007大战皇家赌场 Casino.Royale.2006.2160p.BluRay.REMUX.HEVC.DTS-HD.MA.5.1-FGT 51.60GB-1.png

译  名 007:大战皇家赌场 / 007大战皇家赌场 / 007系列21:大战皇家赌场 / 007首部曲:皇家夜总会(台) / James Bond 007 - Casino Royale / 新铁金刚智破皇家赌场(港) / 邦德21
片  名 Casino Royale
年  代 2006
产  地 美国 / 英国 / 德国 / 捷克 Czech Republic / 巴哈马 Bahamas
类  别 动作 / 惊悚 / 犯罪
语  言 英语
上映日期 2006-11-16(英国) / 2006-11-17(美国) / 2007-01-30(中国大陆)
IMDb评分  8.0/10 from 543625 users
IMDb链接  http://www.imdb.com/title/tt0381061
豆瓣评分 7.5/10 from 115486 users
豆瓣链接 https://movie.douban.com/subject/1418190/
片  长 144分钟
导  演 马丁·坎贝尔 Martin Campbell
编  剧 尼尔·珀维斯 Neal Purvis / 罗伯特·韦德 Robert Wade / 保罗·哈吉斯 Paul Haggis / 伊恩·弗莱明 Ian Fleming
主  演 丹尼尔·克雷格 Daniel Craig
       伊娃·格林 Eva Green
       麦德斯·米科尔森 Mads Mikkelsen
       朱迪·丹奇 Judi Dench
       杰弗里·怀特 Jeffrey Wright
       吉安卡罗·吉安尼尼 Giancarlo Giannini


标  签 007 | 动作 | 美国 | 间谍 | 英国 | 2006 | 特工 | 犯罪

简  介  

  英国军情六处特工詹姆斯?邦德(丹尼尔?克雷格饰)这一次的任务是在赌场上赢取俄罗斯间谍手中的巨额财富,让其背后的恐怖组织势力无法达成阴谋并且击垮恐怖组织。这次,邦德有了一个漂亮的得力女助手琳德(伊娃?格林饰)。邦德经过了赌场上的种种训练,最终来到了皇家赌场。随着赌注越来越大,这场赌局也愈来愈显示出背后交错的阴谋。邦德甚至险些死于非命。
  在共同的合作中,邦德和琳德不知不觉拥有了信任和默契,这种感情,将会何去何从呢?
  1. Video #1
  2. ID                                       : 1
  3. Format                                   : HEVC
  4. Format/Info                              : High Efficiency Video Coding
  5. Format profile                           : Main High@L4@High
  6. HDR format                               : SMPTE ST 2086, HDR10 compatible
  7. Codec ID                                 : V_MPEGH/ISO/HEVC
  8. Duration                                 : 2 h 24 min
  9. Bit rate                                 : 41.9 Mb/s
  10. Width                                    : 3 840 pixels
  11. Height                                   : 2 160 pixels
  12. Display aspect ratio                     : 16:9
  13. Frame rate mode                          : Constant
  14. Frame rate                               : 23.976 (24000/1001) FPS
  15. Color space                              : YUV
  16. Chroma subsampling                       : 4:2:0 (Type 2)
  17. Bit depth                                : 10 bits
  18. Bits/(Pixel*Frame)                       : 0.211
  19. Stream size                              : 42.3 GiB (82%)
  20. Language                                 : English
  21. Default                                  : Yes
  22. Forced                                   : No
  23. Color range                              : Limited
  24. Color primaries                          : BT.2020
  25. Transfer characteristics                 : PQ
  26. Matrix coefficients                      : BT.2020 non-constant
  27. Mastering display color primaries        : Display P3
  28. Mastering display luminance              : min: 0.0001 cd/m2, max: 1000 cd/m2

  29. Video #2
  30. ID                                       : 2
  31. Format                                   : HEVC
  32. Format/Info                              : High Efficiency Video Coding
  33. Format profile                           : Main High@L4@High
  34. HDR format                               : SMPTE ST 2086, HDR10 compatible
  35. Codec ID                                 : V_MPEGH/ISO/HEVC
  36. Duration                                 : 2 h 24 min
  37. Bit rate                                 : 63.4 kb/s
  38. Width                                    : 1 920 pixels
  39. Height                                   : 1 080 pixels
  40. Display aspect ratio                     : 16:9
  41. Frame rate mode                          : Constant
  42. Frame rate                               : 23.976 (24000/1001) FPS
  43. Color space                              : YUV
  44. Chroma subsampling                       : 4:2:0 (Type 2)
  45. Bit depth                                : 10 bits
  46. Bits/(Pixel*Frame)                       : 0.001
  47. Stream size                              : 65.5 MiB (0%)
  48. Title                                    : Casino.Royale.2006.2160p.BluRay.REMUX.HEVC.DTS-HD.MA.5.1-FGT
  49. Language                                 : English
  50. Default                                  : No
  51. Forced                                   : No
  52. Color range                              : Limited
  53. Color primaries                          : BT.2020
  54. Transfer characteristics                 : PQ
  55. Matrix coefficients                      : BT.2020 non-constant
  56. Mastering display color primaries        : Display P3
  57. Mastering display luminance              : min: 0.0001 cd/m2, max: 1000 cd/m2

  58. Audio #1
  59. ID                                       : 3
  60. Format                                   : DTS XLL
  61. Format/Info                              : Digital Theater Systems
  62. Commercial name                          : DTS-HD Master Audio
  63. Codec ID                                 : A_DTS
  64. Duration                                 : 2 h 24 min
  65. Bit rate mode                            : Variable
  66. Bit rate                                 : 3 887 kb/s
  67. Channel(s)                               : 6 channels
  68. Channel layout                           : C L R Ls Rs LFE
  69. Sampling rate                            : 48.0 kHz
  70. Frame rate                               : 93.750 FPS (512 SPF)
  71. Bit depth                                : 24 bits
  72. Compression mode                         : Lossless
  73. Stream size                              : 3.92 GiB (8%)
  74. Title                                    : Casino.Royale.2006.2160p.BluRay.REMUX.HEVC.DTS-HD.MA.5.1-FGT
  75. Language                                 : English
  76. Default                                  : Yes
  77. Forced                                   : No

  78. Audio #2
  79. ID                                       : 4
  80. Format                                   : AC-3
  81. Format/Info                              : Audio Coding 3
  82. Commercial name                          : Dolby Digital
  83. Codec ID                                 : A_AC3
  84. Duration                                 : 2 h 24 min
  85. Bit rate mode                            : Constant
  86. Bit rate                                 : 448 kb/s
  87. Channel(s)                               : 6 channels
  88. Channel layout                           : L R C LFE Ls Rs
  89. Sampling rate                            : 48.0 kHz
  90. Frame rate                               : 31.250 FPS (1536 SPF)
  91. Bit depth                                : 16 bits
  92. Compression mode                         : Lossy
  93. Stream size                              : 463 MiB (1%)
  94. Title                                    : Casino.Royale.2006.2160p.BluRay.REMUX.HEVC.DTS-HD.MA.5.1-FGT
  95. Language                                 : Spanish
  96. Service kind                             : Complete Main
  97. Default                                  : No
  98. Forced                                   : No

  99. Audio #3
  100. ID                                       : 5
  101. Format                                   : DTS
  102. Format/Info                              : Digital Theater Systems
  103. Codec ID                                 : A_DTS
  104. Duration                                 : 2 h 24 min
  105. Bit rate mode                            : Constant
  106. Bit rate                                 : 768 kb/s
  107. Channel(s)                               : 6 channels
  108. Channel layout                           : C L R Ls Rs LFE
  109. Sampling rate                            : 48.0 kHz
  110. Frame rate                               : 93.750 FPS (512 SPF)
  111. Bit depth                                : 24 bits
  112. Compression mode                         : Lossy
  113. Stream size                              : 794 MiB (2%)
  114. Title                                    : Casino.Royale.2006.2160p.BluRay.REMUX.HEVC.DTS-HD.MA.5.1-FGT
  115. Language                                 : French
  116. Default                                  : No
  117. Forced                                   : No

  118. Audio #4
  119. ID                                       : 6
  120. Format                                   : DTS
  121. Format/Info                              : Digital Theater Systems
  122. Codec ID                                 : A_DTS
  123. Duration                                 : 2 h 24 min
  124. Bit rate mode                            : Constant
  125. Bit rate                                 : 768 kb/s
  126. Channel(s)                               : 6 channels
  127. Channel layout                           : C L R Ls Rs LFE
  128. Sampling rate                            : 48.0 kHz
  129. Frame rate                               : 93.750 FPS (512 SPF)
  130. Bit depth                                : 24 bits
  131. Compression mode                         : Lossy
  132. Stream size                              : 794 MiB (2%)
  133. Title                                    : Casino.Royale.2006.2160p.BluRay.REMUX.HEVC.DTS-HD.MA.5.1-FGT
  134. Language                                 : Spanish
  135. Default                                  : No
  136. Forced                                   : No

  137. Audio #5
  138. ID                                       : 7
  139. Format                                   : DTS
  140. Format/Info                              : Digital Theater Systems
  141. Codec ID                                 : A_DTS
  142. Duration                                 : 2 h 24 min
  143. Bit rate mode                            : Constant
  144. Bit rate                                 : 768 kb/s
  145. Channel(s)                               : 6 channels
  146. Channel layout                           : C L R Ls Rs LFE
  147. Sampling rate                            : 48.0 kHz
  148. Frame rate                               : 93.750 FPS (512 SPF)
  149. Bit depth                                : 24 bits
  150. Compression mode                         : Lossy
  151. Stream size                              : 794 MiB (2%)
  152. Title                                    : Casino.Royale.2006.2160p.BluRay.REMUX.HEVC.DTS-HD.MA.5.1-FGT
  153. Language                                 : German
  154. Default                                  : No
  155. Forced                                   : No

  156. Audio #6
  157. ID                                       : 8
  158. Format                                   : DTS
  159. Format/Info                              : Digital Theater Systems
  160. Codec ID                                 : A_DTS
  161. Duration                                 : 2 h 24 min
  162. Bit rate mode                            : Constant
  163. Bit rate                                 : 768 kb/s
  164. Channel(s)                               : 6 channels
  165. Channel layout                           : C L R Ls Rs LFE
  166. Sampling rate                            : 48.0 kHz
  167. Frame rate                               : 93.750 FPS (512 SPF)
  168. Bit depth                                : 24 bits
  169. Compression mode                         : Lossy
  170. Stream size                              : 794 MiB (2%)
  171. Title                                    : Casino.Royale.2006.2160p.BluRay.REMUX.HEVC.DTS-HD.MA.5.1-FGT
  172. Language                                 : Italian
  173. Default                                  : No
  174. Forced                                   : No

  175. Audio #7
  176. ID                                       : 9
  177. Format                                   : AC-3
  178. Format/Info                              : Audio Coding 3
  179. Commercial name                          : Dolby Digital
  180. Codec ID                                 : A_AC3
  181. Duration                                 : 2 h 24 min
  182. Bit rate mode                            : Constant
  183. Bit rate                                 : 448 kb/s
  184. Channel(s)                               : 6 channels
  185. Channel layout                           : L R C LFE Ls Rs
  186. Sampling rate                            : 48.0 kHz
  187. Frame rate                               : 31.250 FPS (1536 SPF)
  188. Bit depth                                : 16 bits
  189. Compression mode                         : Lossy
  190. Stream size                              : 463 MiB (1%)
  191. Title                                    : Casino.Royale.2006.2160p.BluRay.REMUX.HEVC.DTS-HD.MA.5.1-FGT
  192. Language                                 : Czech
  193. Service kind                             : Complete Main
  194. Default                                  : No
  195. Forced                                   : No

  196. Audio #8
  197. ID                                       : 10
  198. Format                                   : AC-3
  199. Format/Info                              : Audio Coding 3
  200. Commercial name                          : Dolby Digital
  201. Codec ID                                 : A_AC3
  202. Duration                                 : 2 h 24 min
  203. Bit rate mode                            : Constant
  204. Bit rate                                 : 448 kb/s
  205. Channel(s)                               : 6 channels
  206. Channel layout                           : L R C LFE Ls Rs
  207. Sampling rate                            : 48.0 kHz
  208. Frame rate                               : 31.250 FPS (1536 SPF)
  209. Bit depth                                : 16 bits
  210. Compression mode                         : Lossy
  211. Stream size                              : 463 MiB (1%)
  212. Title                                    : Casino.Royale.2006.2160p.BluRay.REMUX.HEVC.DTS-HD.MA.5.1-FGT
  213. Language                                 : Hungarian
  214. Service kind                             : Complete Main
  215. Default                                  : No
  216. Forced                                   : No

  217. Audio #9
  218. ID                                       : 11
  219. Format                                   : AC-3
  220. Format/Info                              : Audio Coding 3
  221. Commercial name                          : Dolby Digital
  222. Codec ID                                 : A_AC3
  223. Duration                                 : 2 h 24 min
  224. Bit rate mode                            : Constant
  225. Bit rate                                 : 448 kb/s
  226. Channel(s)                               : 6 channels
  227. Channel layout                           : L R C LFE Ls Rs
  228. Sampling rate                            : 48.0 kHz
  229. Frame rate                               : 31.250 FPS (1536 SPF)
  230. Bit depth                                : 16 bits
  231. Compression mode                         : Lossy
  232. Stream size                              : 463 MiB (1%)
  233. Title                                    : Casino.Royale.2006.2160p.BluRay.REMUX.HEVC.DTS-HD.MA.5.1-FGT
  234. Language                                 : Polish
  235. Service kind                             : Complete Main
  236. Default                                  : No
  237. Forced                                   : No

  238. Audio #10
  239. ID                                       : 12
  240. Format                                   : AC-3
  241. Format/Info                              : Audio Coding 3
  242. Commercial name                          : Dolby Digital
  243. Codec ID                                 : A_AC3
  244. Duration                                 : 2 h 24 min
  245. Bit rate mode                            : Constant
  246. Bit rate                                 : 224 kb/s
  247. Channel(s)                               : 2 channels
  248. Channel layout                           : L R
  249. Sampling rate                            : 48.0 kHz
  250. Frame rate                               : 31.250 FPS (1536 SPF)
  251. Bit depth                                : 16 bits
  252. Compression mode                         : Lossy
  253. Stream size                              : 232 MiB (0%)
  254. Title                                    : Casino.Royale.2006.2160p.BluRay.REMUX.HEVC.DTS-HD.MA.5.1-FGT
  255. Language                                 : English
  256. Service kind                             : Commentary
  257. Default                                  : No
  258. Forced                                   : No

  259. Text #1
  260. ID                                       : 13
  261. Format                                   : UTF-8
  262. Codec ID                                 : S_TEXT/UTF8
  263. Codec ID/Info                            : UTF-8 Plain Text
  264. Duration                                 : 2 h 23 min
  265. Bit rate                                 : 31 b/s
  266. Count of elements                        : 1041
  267. Stream size                              : 33.4 KiB (0%)
  268. Title                                    : English-SRT
  269. Language                                 : English
  270. Default                                  : Yes
  271. Forced                                   : No

  272. Text #2
  273. ID                                       : 14
  274. Format                                   : PGS
  275. Muxing mode                              : zlib
  276. Codec ID                                 : S_HDMV/PGS
  277. Codec ID/Info                            : Picture based subtitle format used on BDs/HD-DVDs
  278. Duration                                 : 2 h 23 min
  279. Bit rate                                 : 20.1 kb/s
  280. Count of elements                        : 2084
  281. Stream size                              : 20.6 MiB (0%)
  282. Title                                    : English-PGS
  283. Language                                 : English
  284. Default                                  : No
  285. Forced                                   : No

  286. Text #3
  287. ID                                       : 15
  288. Format                                   : PGS
  289. Muxing mode                              : zlib
  290. Codec ID                                 : S_HDMV/PGS
  291. Codec ID/Info                            : Picture based subtitle format used on BDs/HD-DVDs
  292. Duration                                 : 2 h 23 min
  293. Bit rate                                 : 18.4 kb/s
  294. Count of elements                        : 2100
  295. Stream size                              : 19.0 MiB (0%)
  296. Title                                    : Spanish-PGS
  297. Language                                 : Spanish
  298. Default                                  : No
  299. Forced                                   : No

  300. Text #4
  301. ID                                       : 16
  302. Format                                   : PGS
  303. Muxing mode                              : zlib
  304. Codec ID                                 : S_HDMV/PGS
  305. Codec ID/Info                            : Picture based subtitle format used on BDs/HD-DVDs
  306. Duration                                 : 2 h 3 min
  307. Bit rate                                 : 326 b/s
  308. Count of elements                        : 34
  309. Stream size                              : 295 KiB (0%)
  310. Title                                    : Spanish-FORCED-PGS
  311. Language                                 : Spanish
  312. Default                                  : No
  313. Forced                                   : No

  314. Text #5
  315. ID                                       : 17
  316. Format                                   : PGS
  317. Muxing mode                              : zlib
  318. Codec ID                                 : S_HDMV/PGS
  319. Codec ID/Info                            : Picture based subtitle format used on BDs/HD-DVDs
  320. Duration                                 : 2 h 23 min
  321. Bit rate                                 : 15.8 kb/s
  322. Count of elements                        : 1840
  323. Stream size                              : 16.3 MiB (0%)
  324. Title                                    : French-PGS
  325. Language                                 : French
  326. Default                                  : No
  327. Forced                                   : No

  328. Text #6
  329. ID                                       : 18
  330. Format                                   : PGS
  331. Muxing mode                              : zlib
  332. Codec ID                                 : S_HDMV/PGS
  333. Codec ID/Info                            : Picture based subtitle format used on BDs/HD-DVDs
  334. Duration                                 : 2 h 23 min
  335. Bit rate                                 : 71 b/s
  336. Count of elements                        : 10
  337. Stream size                              : 75.0 KiB (0%)
  338. Title                                    : French-FORCED-PGS
  339. Language                                 : French
  340. Default                                  : No
  341. Forced                                   : No

  342. Text #7
  343. ID                                       : 19
  344. Format                                   : PGS
  345. Muxing mode                              : zlib
  346. Codec ID                                 : S_HDMV/PGS
  347. Codec ID/Info                            : Picture based subtitle format used on BDs/HD-DVDs
  348. Duration                                 : 2 h 23 min
  349. Bit rate                                 : 18.4 kb/s
  350. Count of elements                        : 1972
  351. Stream size                              : 18.9 MiB (0%)
  352. Title                                    : Spanish-PGS
  353. Language                                 : Spanish
  354. Default                                  : No
  355. Forced                                   : No

  356. Text #8
  357. ID                                       : 20
  358. Format                                   : PGS
  359. Muxing mode                              : zlib
  360. Codec ID                                 : S_HDMV/PGS
  361. Codec ID/Info                            : Picture based subtitle format used on BDs/HD-DVDs
  362. Duration                                 : 2 h 23 min
  363. Bit rate                                 : 88 b/s
  364. Count of elements                        : 10
  365. Stream size                              : 93.8 KiB (0%)
  366. Title                                    : Spanish-FORCED-PGS
  367. Language                                 : Spanish
  368. Default                                  : No
  369. Forced                                   : No

  370. Text #9
  371. ID                                       : 21
  372. Format                                   : PGS
  373. Muxing mode                              : zlib
  374. Codec ID                                 : S_HDMV/PGS
  375. Codec ID/Info                            : Picture based subtitle format used on BDs/HD-DVDs
  376. Duration                                 : 2 h 23 min
  377. Bit rate                                 : 17.6 kb/s
  378. Count of elements                        : 1700
  379. Stream size                              : 18.2 MiB (0%)
  380. Title                                    : Danish-PGS
  381. Language                                 : Danish
  382. Default                                  : No
  383. Forced                                   : No

  384. Text #10
  385. ID                                       : 22
  386. Format                                   : PGS
  387. Muxing mode                              : zlib
  388. Codec ID                                 : S_HDMV/PGS
  389. Codec ID/Info                            : Picture based subtitle format used on BDs/HD-DVDs
  390. Duration                                 : 2 h 23 min
  391. Bit rate                                 : 18.6 kb/s
  392. Count of elements                        : 1948
  393. Stream size                              : 19.2 MiB (0%)
  394. Title                                    : Dutch-PGS
  395. Language                                 : Dutch
  396. Default                                  : No
  397. Forced                                   : No

  398. Text #11
  399. ID                                       : 23
  400. Format                                   : PGS
  401. Muxing mode                              : zlib
  402. Codec ID                                 : S_HDMV/PGS
  403. Codec ID/Info                            : Picture based subtitle format used on BDs/HD-DVDs
  404. Duration                                 : 2 h 23 min
  405. Bit rate                                 : 16.4 kb/s
  406. Count of elements                        : 1892
  407. Stream size                              : 16.9 MiB (0%)
  408. Title                                    : Finnish-PGS
  409. Language                                 : Finnish
  410. Default                                  : No
  411. Forced                                   : No

  412. Text #12
  413. ID                                       : 24
  414. Format                                   : PGS
  415. Muxing mode                              : zlib
  416. Codec ID                                 : S_HDMV/PGS
  417. Codec ID/Info                            : Picture based subtitle format used on BDs/HD-DVDs
  418. Duration                                 : 2 h 23 min
  419. Bit rate                                 : 17.5 kb/s
  420. Count of elements                        : 1798
  421. Stream size                              : 18.0 MiB (0%)
  422. Title                                    : German-PGS
  423. Language                                 : German
  424. Default                                  : No
  425. Forced                                   : No

  426. Text #13
  427. ID                                       : 25
  428. Format                                   : PGS
  429. Muxing mode                              : zlib
  430. Codec ID                                 : S_HDMV/PGS
  431. Codec ID/Info                            : Picture based subtitle format used on BDs/HD-DVDs
  432. Duration                                 : 2 s 314 ms
  433. Bit rate                                 : 113 kb/s
  434. Count of elements                        : 2
  435. Stream size                              : 32.0 KiB (0%)
  436. Title                                    : German-FORCED-PGS
  437. Language                                 : German
  438. Default                                  : No
  439. Forced                                   : No

  440. Text #14
  441. ID                                       : 26
  442. Format                                   : PGS
  443. Muxing mode                              : zlib
  444. Codec ID                                 : S_HDMV/PGS
  445. Codec ID/Info                            : Picture based subtitle format used on BDs/HD-DVDs
  446. Duration                                 : 2 h 23 min
  447. Bit rate                                 : 20.4 kb/s
  448. Count of elements                        : 2134
  449. Stream size                              : 20.9 MiB (0%)
  450. Title                                    : Italian-PGS
  451. Language                                 : Italian
  452. Default                                  : No
  453. Forced                                   : No

  454. Text #15
  455. ID                                       : 27
  456. Format                                   : PGS
  457. Muxing mode                              : zlib
  458. Codec ID                                 : S_HDMV/PGS
  459. Codec ID/Info                            : Picture based subtitle format used on BDs/HD-DVDs
  460. Duration                                 : 2 h 23 min
  461. Bit rate                                 : 499 b/s
  462. Count of elements                        : 54
  463. Stream size                              : 527 KiB (0%)
  464. Title                                    : Italian-FORCED-PGS
  465. Language                                 : Italian
  466. Default                                  : No
  467. Forced                                   : No

  468. Text #16
  469. ID                                       : 28
  470. Format                                   : PGS
  471. Muxing mode                              : zlib
  472. Codec ID                                 : S_HDMV/PGS
  473. Codec ID/Info                            : Picture based subtitle format used on BDs/HD-DVDs
  474. Duration                                 : 2 h 23 min
  475. Bit rate                                 : 15.2 kb/s
  476. Count of elements                        : 1856
  477. Stream size                              : 15.6 MiB (0%)
  478. Title                                    : Norwegian-PGS
  479. Language                                 : Norwegian
  480. Default                                  : No
  481. Forced                                   : No

  482. Text #17
  483. ID                                       : 29
  484. Format                                   : PGS
  485. Muxing mode                              : zlib
  486. Codec ID                                 : S_HDMV/PGS
  487. Codec ID/Info                            : Picture based subtitle format used on BDs/HD-DVDs
  488. Duration                                 : 2 h 23 min
  489. Bit rate                                 : 15.3 kb/s
  490. Count of elements                        : 1398
  491. Stream size                              : 15.8 MiB (0%)
  492. Title                                    : Swedish-PGS
  493. Language                                 : Swedish
  494. Default                                  : No
  495. Forced                                   : No

  496. Text #18
  497. ID                                       : 30
  498. Format                                   : PGS
  499. Muxing mode                              : zlib
  500. Codec ID                                 : S_HDMV/PGS
  501. Codec ID/Info                            : Picture based subtitle format used on BDs/HD-DVDs
  502. Duration                                 : 2 h 23 min
  503. Bit rate                                 : 17.0 kb/s
  504. Count of elements                        : 2154
  505. Stream size                              : 17.5 MiB (0%)
  506. Title                                    : Chinese-PGS
  507. Language                                 : Chinese
  508. Default                                  : No
  509. Forced                                   : No

  510. Text #19
  511. ID                                       : 31
  512. Format                                   : PGS
  513. Muxing mode                              : zlib
  514. Codec ID                                 : S_HDMV/PGS
  515. Codec ID/Info                            : Picture based subtitle format used on BDs/HD-DVDs
  516. Duration                                 : 2 h 23 min
  517. Bit rate                                 : 18.0 kb/s
  518. Count of elements                        : 2066
  519. Stream size                              : 18.5 MiB (0%)
  520. Title                                    : Czech-PGS
  521. Language                                 : Czech
  522. Default                                  : No
  523. Forced                                   : No

  524. Text #20
  525. ID                                       : 32
  526. Format                                   : PGS
  527. Muxing mode                              : zlib
  528. Codec ID                                 : S_HDMV/PGS
  529. Codec ID/Info                            : Picture based subtitle format used on BDs/HD-DVDs
  530. Duration                                 : 2 h 23 min
  531. Bit rate                                 : 445 b/s
  532. Count of elements                        : 64
  533. Stream size                              : 469 KiB (0%)
  534. Title                                    : Czech-FORCED-PGS
  535. Language                                 : Czech
  536. Default                                  : No
  537. Forced                                   : No

  538. Text #21
  539. ID                                       : 33
  540. Format                                   : PGS
  541. Muxing mode                              : zlib
  542. Codec ID                                 : S_HDMV/PGS
  543. Codec ID/Info                            : Picture based subtitle format used on BDs/HD-DVDs
  544. Duration                                 : 2 h 23 min
  545. Bit rate                                 : 15.5 kb/s
  546. Count of elements                        : 1952
  547. Stream size                              : 15.9 MiB (0%)
  548. Title                                    : Hungarian-PGS
  549. Language                                 : Hungarian
  550. Default                                  : No
  551. Forced                                   : No

  552. Text #22
  553. ID                                       : 34
  554. Format                                   : PGS
  555. Muxing mode                              : zlib
  556. Codec ID                                 : S_HDMV/PGS
  557. Codec ID/Info                            : Picture based subtitle format used on BDs/HD-DVDs
  558. Duration                                 : 2 h 23 min
  559. Bit rate                                 : 106 b/s
  560. Count of elements                        : 16
  561. Stream size                              : 113 KiB (0%)
  562. Title                                    : Hungarian-FORCED-PGS
  563. Language                                 : Hungarian
  564. Default                                  : No
  565. Forced                                   : No

  566. Text #23
  567. ID                                       : 35
  568. Format                                   : PGS
  569. Muxing mode                              : zlib
  570. Codec ID                                 : S_HDMV/PGS
  571. Codec ID/Info                            : Picture based subtitle format used on BDs/HD-DVDs
  572. Duration                                 : 2 h 23 min
  573. Bit rate                                 : 9 669 b/s
  574. Count of elements                        : 2004
  575. Stream size                              : 9.95 MiB (0%)
  576. Title                                    : Korean-PGS
  577. Language                                 : Korean
  578. Default                                  : No
  579. Forced                                   : No

  580. Text #24
  581. ID                                       : 36
  582. Format                                   : PGS
  583. Muxing mode                              : zlib
  584. Codec ID                                 : S_HDMV/PGS
  585. Codec ID/Info                            : Picture based subtitle format used on BDs/HD-DVDs
  586. Duration                                 : 2 h 23 min
  587. Bit rate                                 : 14.0 kb/s
  588. Count of elements                        : 2008
  589. Stream size                              : 14.5 MiB (0%)
  590. Title                                    : Chinese-PGS
  591. Language                                 : Chinese
  592. Default                                  : No
  593. Forced                                   : No

  594. Text #25
  595. ID                                       : 37
  596. Format                                   : PGS
  597. Muxing mode                              : zlib
  598. Codec ID                                 : S_HDMV/PGS
  599. Codec ID/Info                            : Picture based subtitle format used on BDs/HD-DVDs
  600. Duration                                 : 2 h 23 min
  601. Bit rate                                 : 15.7 kb/s
  602. Count of elements                        : 1962
  603. Stream size                              : 16.2 MiB (0%)
  604. Title                                    : Polish-PGS
  605. Language                                 : Polish
  606. Default                                  : No
  607. Forced                                   : No

  608. Text #26
  609. ID                                       : 38
  610. Format                                   : PGS
  611. Muxing mode                              : zlib
  612. Codec ID                                 : S_HDMV/PGS
  613. Codec ID/Info                            : Picture based subtitle format used on BDs/HD-DVDs
  614. Duration                                 : 2 h 23 min
  615. Bit rate                                 : 19.3 kb/s
  616. Count of elements                        : 1996
  617. Stream size                              : 19.8 MiB (0%)
  618. Title                                    : Portuguese-PGS
  619. Language                                 : Portuguese
  620. Default                                  : No
  621. Forced                                   : No

  622. Text #27
  623. ID                                       : 39
  624. Format                                   : PGS
  625. Muxing mode                              : zlib
  626. Codec ID                                 : S_HDMV/PGS
  627. Codec ID/Info                            : Picture based subtitle format used on BDs/HD-DVDs
  628. Duration                                 : 2 h 24 min
  629. Bit rate                                 : 69.9 kb/s
  630. Count of elements                        : 5090
  631. Stream size                              : 72.2 MiB (0%)
  632. Title                                    : English-COMMENTARY-PGS
  633. Language                                 : English
  634. Default                                  : No
  635. Forced                                   : No

  636. Text #28
  637. ID                                       : 40
  638. Format                                   : PGS
  639. Muxing mode                              : zlib
  640. Codec ID                                 : S_HDMV/PGS
  641. Codec ID/Info                            : Picture based subtitle format used on BDs/HD-DVDs
  642. Duration                                 : 2 h 24 min
  643. Bit rate                                 : 62.0 kb/s
  644. Count of elements                        : 5044
  645. Stream size                              : 64.1 MiB (0%)
  646. Title                                    : French-COMMENTARY-PGS
  647. Language                                 : French
  648. Default                                  : No
  649. Forced                                   : No

  650. Text #29
  651. ID                                       : 41
  652. Format                                   : PGS
  653. Muxing mode                              : zlib
  654. Codec ID                                 : S_HDMV/PGS
  655. Codec ID/Info                            : Picture based subtitle format used on BDs/HD-DVDs
  656. Duration                                 : 2 h 24 min
  657. Bit rate                                 : 65.5 kb/s
  658. Count of elements                        : 5072
  659. Stream size                              : 67.7 MiB (0%)
  660. Title                                    : Spanish-COMMENTARY-PGS
  661. Language                                 : Spanish
  662. Default                                  : No
  663. Forced                                   : No

  664. Text #30
  665. ID                                       : 42
  666. Format                                   : PGS
  667. Muxing mode                              : zlib
  668. Codec ID                                 : S_HDMV/PGS
  669. Codec ID/Info                            : Picture based subtitle format used on BDs/HD-DVDs
  670. Duration                                 : 2 h 24 min
  671. Bit rate                                 : 70.1 kb/s
  672. Count of elements                        : 5126
  673. Stream size                              : 72.5 MiB (0%)
  674. Title                                    : German-COMMENTARY-PGS
  675. Language                                 : German
  676. Default                                  : No
  677. Forced                                   : No

  678. Text #31
  679. ID                                       : 43
  680. Format                                   : PGS
  681. Muxing mode                              : zlib
  682. Codec ID                                 : S_HDMV/PGS
  683. Codec ID/Info                            : Picture based subtitle format used on BDs/HD-DVDs
  684. Duration                                 : 2 h 24 min
  685. Bit rate                                 : 70.1 kb/s
  686. Count of elements                        : 5096
  687. Stream size                              : 72.4 MiB (0%)
  688. Title                                    : Italian-COMMENTARY-PGS
  689. Language                                 : Italian
  690. Default                                  : No
  691. Forced                                   : No

  692. Menu
  693. 00:00:00.000                             : en:Chapter 01
  694. 00:09:37.952                             : en:Chapter 02
  695. 00:19:31.170                             : en:Chapter 03
  696. 00:25:35.951                             : en:Chapter 04
  697. 00:35:18.908                             : en:Chapter 05
  698. 00:39:59.397                             : en:Chapter 06
  699. 00:45:22.302                             : en:Chapter 07
  700. 00:57:50.800                             : en:Chapter 08
  701. 01:07:22.246                             : en:Chapter 09
  702. 01:17:12.044                             : en:Chapter 10
  703. 01:30:06.067                             : en:Chapter 11
  704. 01:38:40.831                             : en:Chapter 12
  705. 01:43:29.620                             : en:Chapter 13
  706. 01:54:03.044                             : en:Chapter 14
  707. 02:05:45.371                             : en:Chapter 15
  708. 02:13:19.700                             : en:Chapter 16
复制代码

007:大战皇家赌场/007大战皇家赌场 Casino.Royale.2006.2160p.BluRay.REMUX.HEVC.DTS-HD.MA.5.1-FGT 51.60GB-2.png 007:大战皇家赌场/007大战皇家赌场 Casino.Royale.2006.2160p.BluRay.REMUX.HEVC.DTS-HD.MA.5.1-FGT 51.60GB-3.png 007:大战皇家赌场/007大战皇家赌场 Casino.Royale.2006.2160p.BluRay.REMUX.HEVC.DTS-HD.MA.5.1-FGT 51.60GB-4.png







回复

使用道具 举报

发表于 2019-10-20 13:01:28 | 显示全部楼层
谢谢楼主发片。
回复 支持 反对

使用道具 举报

发表于 2019-10-20 13:03:42 | 显示全部楼层
楼主发贴辛苦了,谢谢楼主分享!我觉得蓝光电影网是注册对了!
回复 支持 反对

使用道具 举报

发表于 2019-10-20 15:12:17 | 显示全部楼层
楼主发贴辛苦了,谢谢楼主分享!我觉得蓝光电影网是注册对了!
回复 支持 反对

使用道具 举报

发表于 2019-10-20 16:22:30 | 显示全部楼层
楼主发贴辛苦了,谢谢楼主分享!我觉得蓝光电影网是注册对了!
回复 支持 反对

使用道具 举报

发表于 2019-10-21 08:28:11 | 显示全部楼层
楼主发贴辛苦了,谢谢楼主分享!我觉得蓝光电影网是注册对了!
回复 支持 反对

使用道具 举报

发表于 2019-10-21 12:23:39 | 显示全部楼层
感谢楼主精彩分享。
回复 支持 反对

使用道具 举报

 成长值: 970

发表于 2019-10-21 17:10:35 | 显示全部楼层
谢谢楼主无私分享。
回复 支持 反对

使用道具 举报

 成长值: 1380

发表于 2019-10-21 20:36:15 | 显示全部楼层
谢谢楼主分享!
回复 支持 反对

使用道具 举报

发表于 2019-10-24 14:58:48 | 显示全部楼层
楼主发贴辛苦了,谢谢楼主分享!我觉得蓝光电影网是注册对了!
回复 支持 反对

使用道具 举报

懒得打字嘛,点击右侧快捷回复 【右侧内容,后台自定义】
您需要登录后才可以回帖 登录 | 立即加入

本版积分规则

现在加入蓝光电影网,注册一个账号

QQ| 手机版|小黑屋| 蓝光电影网 |网站地图

Copyright © 2015-2019 Comsenz Inc.  Template by 蓝光电影论坛 All Rights Reserved.

Powered by 蓝光电影网 X3.4

特别声明:本站所有资源均由网上收集而来,版权归原影音公司所有,如果侵犯了你的权益,请通知我们,我们会及时删除侵权内容.

快速回复 返回顶部 返回列表