找回密码

蓝光电影网

查看: 194|回复: 7

[REMUX.HEVC] 007:大破量子危机/007大破量子危机 Quantum.of.Solace.2008.2160p.BluRay.REMUX.HEVC.DTS-HD.MA.5.1-FGT 53.55GB

[复制链接]

 成长值: 23155

发表于 2019-10-20 12:28:32 | 显示全部楼层 |阅读模式
007:大破量子危机/007大破量子危机 Quantum.of.Solace.2008.2160p.BluRay.REMUX.HEVC.DTS-HD.MA.5.1-FGT 53.55GB-1.png

译  名 007:大破量子危机 / 007大破量子危机 / 007系列22:大破量子危机 / 007:量子危机(台) / 余温之恋 / 宽慰量子 / 新铁金刚之量子杀机(港) / 邦德22
片  名 Quantum of Solace
年  代 2008
产  地 英国 / 美国
类  别 动作 / 惊悚 / 冒险
语  言 英语 / 意大利语 / 法语 / 西班牙语 / 瑞士德语 / 德语
上映日期 2008-10-31(英国) / 2008-11-05(中国大陆) / 2008-11-14(美国)
IMDb评分  6.6/10 from 380807 users
IMDb链接  http://www.imdb.com/title/tt0830515
豆瓣评分 6.5/10 from 80293 users
豆瓣链接 https://movie.douban.com/subject/1946882/
片  长 106 分钟
导  演 Marc Forster
编  剧 Paul Haggis / Neal Purvis / Robert Wade
主  演 Daniel Craig
       Judi Dench
       Olga Kurylenko
       Mathieu Amalric
       Gemma Arterton


标  签 007 | 动作 | 美国 | 特工 | 英国 | 美国电影 | 2008 | DanielCraig

简  介  

  紧接前一集《皇家赌场》的剧情,由于爱人维斯佩的背叛,邦德(丹尼尔·克雷格 Daniel Craig 饰)的怒火被彻底激发,甚至在执行最新任务时都不得不尽量克制个人感情,以免把这次任务升级为个人恩怨。通过与M(朱迪·丹奇 Judi Dench 饰)对白先生(加斯帕·克里斯 滕森 Jesper Christensen 饰)的审问,得知维斯佩是被一个难以想象的犯罪组织所要挟。为了能查清楚这个组织的情况,邦德根据手上的线索顺藤摸瓜,最终把目标锁定在了一个名叫格林(马修·阿马立克 Mathieu Amalric 饰)的商人身上。经过不断的调查,最终发现了这个犯罪组织的惊天阴谋,想控制全球的自然资源。在随时可能遭遇背叛、谋杀和骗局的情况下,邦德再次出击……最终成功挫败了这个惊天阴谋。
  在这一集的片头,性感火辣的舞女轮廓将回归这部经典系列电影的片头。
  1. Video #1
  2. ID                                       : 1
  3. Format                                   : HEVC
  4. Format/Info                              : High Efficiency Video Coding
  5. Format profile                           : Main High@L4@High
  6. HDR format                               : SMPTE ST 2086, HDR10 compatible
  7. Codec ID                                 : V_MPEGH/ISO/HEVC
  8. Duration                                 : 1 h 46 min
  9. Bit rate                                 : 62.6 Mb/s
  10. Width                                    : 3 840 pixels
  11. Height                                   : 2 160 pixels
  12. Display aspect ratio                     : 16:9
  13. Frame rate mode                          : Constant
  14. Frame rate                               : 23.976 (24000/1001) FPS
  15. Color space                              : YUV
  16. Chroma subsampling                       : 4:2:0 (Type 2)
  17. Bit depth                                : 10 bits
  18. Bits/(Pixel*Frame)                       : 0.315
  19. Stream size                              : 46.4 GiB (87%)
  20. Title                                    : Quantum.of.Solace.2008.2160p.BluRay.REMUX.HEVC.DTS-HD.MA.5.1-FGT
  21. Language                                 : English
  22. Default                                  : Yes
  23. Forced                                   : No
  24. Color range                              : Limited
  25. Color primaries                          : BT.2020
  26. Transfer characteristics                 : PQ
  27. Matrix coefficients                      : BT.2020 non-constant
  28. Mastering display color primaries        : Display P3
  29. Mastering display luminance              : min: 0.0001 cd/m2, max: 1000 cd/m2

  30. Video #2
  31. ID                                       : 2
  32. Format                                   : HEVC
  33. Format/Info                              : High Efficiency Video Coding
  34. Format profile                           : Main High@L4@High
  35. HDR format                               : SMPTE ST 2086, HDR10 compatible
  36. Codec ID                                 : V_MPEGH/ISO/HEVC
  37. Duration                                 : 1 h 46 min
  38. Bit rate                                 : 64.0 kb/s
  39. Width                                    : 1 920 pixels
  40. Height                                   : 1 080 pixels
  41. Display aspect ratio                     : 16:9
  42. Frame rate mode                          : Constant
  43. Frame rate                               : 23.976 (24000/1001) FPS
  44. Color space                              : YUV
  45. Chroma subsampling                       : 4:2:0 (Type 2)
  46. Bit depth                                : 10 bits
  47. Bits/(Pixel*Frame)                       : 0.001
  48. Stream size                              : 48.6 MiB (0%)
  49. Title                                    : Quantum.of.Solace.2008.2160p.BluRay.REMUX.HEVC.DTS-HD.MA.5.1-FGT
  50. Language                                 : English
  51. Default                                  : No
  52. Forced                                   : No
  53. Color range                              : Limited
  54. Color primaries                          : BT.2020
  55. Transfer characteristics                 : PQ
  56. Matrix coefficients                      : BT.2020 non-constant
  57. Mastering display color primaries        : Display P3
  58. Mastering display luminance              : min: 0.0001 cd/m2, max: 1000 cd/m2

  59. Audio #1
  60. ID                                       : 3
  61. Format                                   : DTS XLL
  62. Format/Info                              : Digital Theater Systems
  63. Commercial name                          : DTS-HD Master Audio
  64. Codec ID                                 : A_DTS
  65. Duration                                 : 1 h 46 min
  66. Bit rate mode                            : Variable
  67. Bit rate                                 : 4 094 kb/s
  68. Channel(s)                               : 6 channels
  69. Channel layout                           : C L R Ls Rs LFE
  70. Sampling rate                            : 48.0 kHz
  71. Frame rate                               : 93.750 FPS (512 SPF)
  72. Bit depth                                : 24 bits
  73. Compression mode                         : Lossless
  74. Stream size                              : 3.04 GiB (6%)
  75. Title                                    : Quantum.of.Solace.2008.2160p.BluRay.REMUX.HEVC.DTS-HD.MA.5.1-FGT
  76. Language                                 : English
  77. Default                                  : Yes
  78. Forced                                   : No

  79. Audio #2
  80. ID                                       : 4
  81. Format                                   : AC-3
  82. Format/Info                              : Audio Coding 3
  83. Commercial name                          : Dolby Digital
  84. Codec ID                                 : A_AC3
  85. Duration                                 : 1 h 46 min
  86. Bit rate mode                            : Constant
  87. Bit rate                                 : 448 kb/s
  88. Channel(s)                               : 6 channels
  89. Channel layout                           : L R C LFE Ls Rs
  90. Sampling rate                            : 48.0 kHz
  91. Frame rate                               : 31.250 FPS (1536 SPF)
  92. Bit depth                                : 16 bits
  93. Compression mode                         : Lossy
  94. Stream size                              : 340 MiB (1%)
  95. Title                                    : Quantum.of.Solace.2008.2160p.BluRay.REMUX.HEVC.DTS-HD.MA.5.1-FGT
  96. Language                                 : English
  97. Service kind                             : Complete Main
  98. Default                                  : No
  99. Forced                                   : No

  100. Audio #3
  101. ID                                       : 5
  102. Format                                   : AC-3
  103. Format/Info                              : Audio Coding 3
  104. Commercial name                          : Dolby Digital
  105. Codec ID                                 : A_AC3
  106. Duration                                 : 1 h 46 min
  107. Bit rate mode                            : Constant
  108. Bit rate                                 : 448 kb/s
  109. Channel(s)                               : 6 channels
  110. Channel layout                           : L R C LFE Ls Rs
  111. Sampling rate                            : 48.0 kHz
  112. Frame rate                               : 31.250 FPS (1536 SPF)
  113. Bit depth                                : 16 bits
  114. Compression mode                         : Lossy
  115. Stream size                              : 340 MiB (1%)
  116. Title                                    : Quantum.of.Solace.2008.2160p.BluRay.REMUX.HEVC.DTS-HD.MA.5.1-FGT
  117. Language                                 : Spanish
  118. Service kind                             : Complete Main
  119. Default                                  : No
  120. Forced                                   : No

  121. Audio #4
  122. ID                                       : 6
  123. Format                                   : DTS
  124. Format/Info                              : Digital Theater Systems
  125. Codec ID                                 : A_DTS
  126. Duration                                 : 1 h 46 min
  127. Bit rate mode                            : Constant
  128. Bit rate                                 : 768 kb/s
  129. Channel(s)                               : 6 channels
  130. Channel layout                           : C L R Ls Rs LFE
  131. Sampling rate                            : 48.0 kHz
  132. Frame rate                               : 93.750 FPS (512 SPF)
  133. Bit depth                                : 24 bits
  134. Compression mode                         : Lossy
  135. Stream size                              : 583 MiB (1%)
  136. Title                                    : Quantum.of.Solace.2008.2160p.BluRay.REMUX.HEVC.DTS-HD.MA.5.1-FGT
  137. Language                                 : French
  138. Default                                  : No
  139. Forced                                   : No

  140. Audio #5
  141. ID                                       : 7
  142. Format                                   : DTS
  143. Format/Info                              : Digital Theater Systems
  144. Codec ID                                 : A_DTS
  145. Duration                                 : 1 h 46 min
  146. Bit rate mode                            : Constant
  147. Bit rate                                 : 768 kb/s
  148. Channel(s)                               : 6 channels
  149. Channel layout                           : C L R Ls Rs LFE
  150. Sampling rate                            : 48.0 kHz
  151. Frame rate                               : 93.750 FPS (512 SPF)
  152. Bit depth                                : 24 bits
  153. Compression mode                         : Lossy
  154. Stream size                              : 583 MiB (1%)
  155. Title                                    : Quantum.of.Solace.2008.2160p.BluRay.REMUX.HEVC.DTS-HD.MA.5.1-FGT
  156. Language                                 : Spanish
  157. Default                                  : No
  158. Forced                                   : No

  159. Audio #6
  160. ID                                       : 8
  161. Format                                   : DTS
  162. Format/Info                              : Digital Theater Systems
  163. Codec ID                                 : A_DTS
  164. Duration                                 : 1 h 46 min
  165. Bit rate mode                            : Constant
  166. Bit rate                                 : 768 kb/s
  167. Channel(s)                               : 6 channels
  168. Channel layout                           : C L R Ls Rs LFE
  169. Sampling rate                            : 48.0 kHz
  170. Frame rate                               : 93.750 FPS (512 SPF)
  171. Bit depth                                : 24 bits
  172. Compression mode                         : Lossy
  173. Stream size                              : 583 MiB (1%)
  174. Title                                    : Quantum.of.Solace.2008.2160p.BluRay.REMUX.HEVC.DTS-HD.MA.5.1-FGT
  175. Language                                 : German
  176. Default                                  : No
  177. Forced                                   : No

  178. Audio #7
  179. ID                                       : 9
  180. Format                                   : DTS
  181. Format/Info                              : Digital Theater Systems
  182. Codec ID                                 : A_DTS
  183. Duration                                 : 1 h 46 min
  184. Bit rate mode                            : Constant
  185. Bit rate                                 : 768 kb/s
  186. Channel(s)                               : 6 channels
  187. Channel layout                           : C L R Ls Rs LFE
  188. Sampling rate                            : 48.0 kHz
  189. Frame rate                               : 93.750 FPS (512 SPF)
  190. Bit depth                                : 24 bits
  191. Compression mode                         : Lossy
  192. Stream size                              : 583 MiB (1%)
  193. Title                                    : Quantum.of.Solace.2008.2160p.BluRay.REMUX.HEVC.DTS-HD.MA.5.1-FGT
  194. Language                                 : Italian
  195. Default                                  : No
  196. Forced                                   : No

  197. Audio #8
  198. ID                                       : 10
  199. Format                                   : AC-3
  200. Format/Info                              : Audio Coding 3
  201. Commercial name                          : Dolby Digital
  202. Codec ID                                 : A_AC3
  203. Duration                                 : 1 h 46 min
  204. Bit rate mode                            : Constant
  205. Bit rate                                 : 448 kb/s
  206. Channel(s)                               : 6 channels
  207. Channel layout                           : L R C LFE Ls Rs
  208. Sampling rate                            : 48.0 kHz
  209. Frame rate                               : 31.250 FPS (1536 SPF)
  210. Bit depth                                : 16 bits
  211. Compression mode                         : Lossy
  212. Stream size                              : 340 MiB (1%)
  213. Title                                    : Quantum.of.Solace.2008.2160p.BluRay.REMUX.HEVC.DTS-HD.MA.5.1-FGT
  214. Language                                 : Czech
  215. Service kind                             : Complete Main
  216. Default                                  : No
  217. Forced                                   : No

  218. Audio #9
  219. ID                                       : 11
  220. Format                                   : AC-3
  221. Format/Info                              : Audio Coding 3
  222. Commercial name                          : Dolby Digital
  223. Codec ID                                 : A_AC3
  224. Duration                                 : 1 h 46 min
  225. Bit rate mode                            : Constant
  226. Bit rate                                 : 448 kb/s
  227. Channel(s)                               : 6 channels
  228. Channel layout                           : L R C LFE Ls Rs
  229. Sampling rate                            : 48.0 kHz
  230. Frame rate                               : 31.250 FPS (1536 SPF)
  231. Bit depth                                : 16 bits
  232. Compression mode                         : Lossy
  233. Stream size                              : 340 MiB (1%)
  234. Title                                    : Quantum.of.Solace.2008.2160p.BluRay.REMUX.HEVC.DTS-HD.MA.5.1-FGT
  235. Language                                 : Hungarian
  236. Service kind                             : Complete Main
  237. Default                                  : No
  238. Forced                                   : No

  239. Audio #10
  240. ID                                       : 12
  241. Format                                   : AC-3
  242. Format/Info                              : Audio Coding 3
  243. Commercial name                          : Dolby Digital
  244. Codec ID                                 : A_AC3
  245. Duration                                 : 1 h 46 min
  246. Bit rate mode                            : Constant
  247. Bit rate                                 : 448 kb/s
  248. Channel(s)                               : 6 channels
  249. Channel layout                           : L R C LFE Ls Rs
  250. Sampling rate                            : 48.0 kHz
  251. Frame rate                               : 31.250 FPS (1536 SPF)
  252. Bit depth                                : 16 bits
  253. Compression mode                         : Lossy
  254. Stream size                              : 340 MiB (1%)
  255. Title                                    : Quantum.of.Solace.2008.2160p.BluRay.REMUX.HEVC.DTS-HD.MA.5.1-FGT
  256. Language                                 : Polish
  257. Service kind                             : Complete Main
  258. Default                                  : No
  259. Forced                                   : No

  260. Text #1
  261. ID                                       : 13
  262. Format                                   : UTF-8
  263. Codec ID                                 : S_TEXT/UTF8
  264. Codec ID/Info                            : UTF-8 Plain Text
  265. Duration                                 : 1 h 37 min
  266. Bit rate                                 : 46 b/s
  267. Count of elements                        : 1017
  268. Stream size                              : 33.2 KiB (0%)
  269. Title                                    : English-SRT
  270. Language                                 : English
  271. Default                                  : Yes
  272. Forced                                   : No

  273. Text #2
  274. ID                                       : 14
  275. Format                                   : UTF-8
  276. Codec ID                                 : S_TEXT/UTF8
  277. Codec ID/Info                            : UTF-8 Plain Text
  278. Duration                                 : 1 h 40 min
  279. Bit rate                                 : 49 b/s
  280. Count of elements                        : 1189
  281. Stream size                              : 36.7 KiB (0%)
  282. Title                                    : English-SDH-SRT
  283. Language                                 : English
  284. Default                                  : No
  285. Forced                                   : No

  286. Text #3
  287. ID                                       : 15
  288. Format                                   : PGS
  289. Muxing mode                              : zlib
  290. Codec ID                                 : S_HDMV/PGS
  291. Codec ID/Info                            : Picture based subtitle format used on BDs/HD-DVDs
  292. Duration                                 : 1 h 40 min
  293. Bit rate                                 : 33.1 kb/s
  294. Count of elements                        : 2378
  295. Stream size                              : 23.8 MiB (0%)
  296. Title                                    : English-PGS
  297. Language                                 : English
  298. Default                                  : No
  299. Forced                                   : No

  300. Text #4
  301. ID                                       : 16
  302. Format                                   : PGS
  303. Muxing mode                              : zlib
  304. Codec ID                                 : S_HDMV/PGS
  305. Codec ID/Info                            : Picture based subtitle format used on BDs/HD-DVDs
  306. Duration                                 : 1 h 43 min
  307. Bit rate                                 : 26.0 kb/s
  308. Count of elements                        : 1918
  309. Stream size                              : 19.3 MiB (0%)
  310. Title                                    : Spanish-PGS
  311. Language                                 : Spanish
  312. Default                                  : No
  313. Forced                                   : No

  314. Text #5
  315. ID                                       : 17
  316. Format                                   : PGS
  317. Muxing mode                              : zlib
  318. Codec ID                                 : S_HDMV/PGS
  319. Codec ID/Info                            : Picture based subtitle format used on BDs/HD-DVDs
  320. Duration                                 : 1 h 43 min
  321. Bit rate                                 : 572 b/s
  322. Count of elements                        : 46
  323. Stream size                              : 436 KiB (0%)
  324. Title                                    : Spanish-FORCED-PGS
  325. Language                                 : Spanish
  326. Default                                  : No
  327. Forced                                   : No

  328. Text #6
  329. ID                                       : 18
  330. Format                                   : PGS
  331. Muxing mode                              : zlib
  332. Codec ID                                 : S_HDMV/PGS
  333. Codec ID/Info                            : Picture based subtitle format used on BDs/HD-DVDs
  334. Duration                                 : 1 h 43 min
  335. Bit rate                                 : 22.4 kb/s
  336. Count of elements                        : 2004
  337. Stream size                              : 16.7 MiB (0%)
  338. Title                                    : French-PGS
  339. Language                                 : French
  340. Default                                  : No
  341. Forced                                   : No

  342. Text #7
  343. ID                                       : 19
  344. Format                                   : PGS
  345. Muxing mode                              : zlib
  346. Codec ID                                 : S_HDMV/PGS
  347. Codec ID/Info                            : Picture based subtitle format used on BDs/HD-DVDs
  348. Duration                                 : 1 h 43 min
  349. Bit rate                                 : 1 400 b/s
  350. Count of elements                        : 136
  351. Stream size                              : 1.04 MiB (0%)
  352. Title                                    : French-FORCED-PGS
  353. Language                                 : French
  354. Default                                  : No
  355. Forced                                   : No

  356. Text #8
  357. ID                                       : 20
  358. Format                                   : PGS
  359. Muxing mode                              : zlib
  360. Codec ID                                 : S_HDMV/PGS
  361. Codec ID/Info                            : Picture based subtitle format used on BDs/HD-DVDs
  362. Duration                                 : 1 h 39 min
  363. Bit rate                                 : 23.7 kb/s
  364. Count of elements                        : 1898
  365. Stream size                              : 16.8 MiB (0%)
  366. Title                                    : Spanish-PGS
  367. Language                                 : Spanish
  368. Default                                  : No
  369. Forced                                   : No

  370. Text #9
  371. ID                                       : 21
  372. Format                                   : PGS
  373. Muxing mode                              : zlib
  374. Codec ID                                 : S_HDMV/PGS
  375. Codec ID/Info                            : Picture based subtitle format used on BDs/HD-DVDs
  376. Duration                                 : 48 min 48 s
  377. Bit rate                                 : 811 b/s
  378. Count of elements                        : 36
  379. Stream size                              : 290 KiB (0%)
  380. Title                                    : Spanish-FORCED-PGS
  381. Language                                 : Spanish
  382. Default                                  : No
  383. Forced                                   : No

  384. Text #10
  385. ID                                       : 22
  386. Format                                   : PGS
  387. Muxing mode                              : zlib
  388. Codec ID                                 : S_HDMV/PGS
  389. Codec ID/Info                            : Picture based subtitle format used on BDs/HD-DVDs
  390. Duration                                 : 1 h 43 min
  391. Bit rate                                 : 24.7 kb/s
  392. Count of elements                        : 1946
  393. Stream size                              : 18.4 MiB (0%)
  394. Title                                    : Danish-PGS
  395. Language                                 : Danish
  396. Default                                  : No
  397. Forced                                   : No

  398. Text #11
  399. ID                                       : 23
  400. Format                                   : PGS
  401. Muxing mode                              : zlib
  402. Codec ID                                 : S_HDMV/PGS
  403. Codec ID/Info                            : Picture based subtitle format used on BDs/HD-DVDs
  404. Duration                                 : 1 h 43 min
  405. Bit rate                                 : 27.4 kb/s
  406. Count of elements                        : 2008
  407. Stream size                              : 20.4 MiB (0%)
  408. Title                                    : Dutch-PGS
  409. Language                                 : Dutch
  410. Default                                  : No
  411. Forced                                   : No

  412. Text #12
  413. ID                                       : 24
  414. Format                                   : PGS
  415. Muxing mode                              : zlib
  416. Codec ID                                 : S_HDMV/PGS
  417. Codec ID/Info                            : Picture based subtitle format used on BDs/HD-DVDs
  418. Duration                                 : 1 h 39 min
  419. Bit rate                                 : 23.0 kb/s
  420. Count of elements                        : 2000
  421. Stream size                              : 16.3 MiB (0%)
  422. Title                                    : Finnish-PGS
  423. Language                                 : Finnish
  424. Default                                  : No
  425. Forced                                   : No

  426. Text #13
  427. ID                                       : 25
  428. Format                                   : PGS
  429. Muxing mode                              : zlib
  430. Codec ID                                 : S_HDMV/PGS
  431. Codec ID/Info                            : Picture based subtitle format used on BDs/HD-DVDs
  432. Duration                                 : 1 h 39 min
  433. Bit rate                                 : 28.1 kb/s
  434. Count of elements                        : 2006
  435. Stream size                              : 20.0 MiB (0%)
  436. Title                                    : German-PGS
  437. Language                                 : German
  438. Default                                  : No
  439. Forced                                   : No

  440. Text #14
  441. ID                                       : 26
  442. Format                                   : PGS
  443. Muxing mode                              : zlib
  444. Codec ID                                 : S_HDMV/PGS
  445. Codec ID/Info                            : Picture based subtitle format used on BDs/HD-DVDs
  446. Duration                                 : 1 h 36 min
  447. Bit rate                                 : 1 709 b/s
  448. Count of elements                        : 126
  449. Stream size                              : 1.17 MiB (0%)
  450. Title                                    : German-FORCED-PGS
  451. Language                                 : German
  452. Default                                  : No
  453. Forced                                   : No

  454. Text #15
  455. ID                                       : 27
  456. Format                                   : PGS
  457. Muxing mode                              : zlib
  458. Codec ID                                 : S_HDMV/PGS
  459. Codec ID/Info                            : Picture based subtitle format used on BDs/HD-DVDs
  460. Duration                                 : 1 h 37 min
  461. Bit rate                                 : 26.2 kb/s
  462. Count of elements                        : 1982
  463. Stream size                              : 18.3 MiB (0%)
  464. Title                                    : Italian-PGS
  465. Language                                 : Italian
  466. Default                                  : No
  467. Forced                                   : No

  468. Text #16
  469. ID                                       : 28
  470. Format                                   : PGS
  471. Muxing mode                              : zlib
  472. Codec ID                                 : S_HDMV/PGS
  473. Codec ID/Info                            : Picture based subtitle format used on BDs/HD-DVDs
  474. Duration                                 : 1 h 28 min
  475. Bit rate                                 : 1 589 b/s
  476. Count of elements                        : 120
  477. Stream size                              : 1.01 MiB (0%)
  478. Title                                    : Italian-FORCED-PGS
  479. Language                                 : Italian
  480. Default                                  : No
  481. Forced                                   : No

  482. Text #17
  483. ID                                       : 29
  484. Format                                   : PGS
  485. Muxing mode                              : zlib
  486. Codec ID                                 : S_HDMV/PGS
  487. Codec ID/Info                            : Picture based subtitle format used on BDs/HD-DVDs
  488. Duration                                 : 1 h 39 min
  489. Bit rate                                 : 22.5 kb/s
  490. Count of elements                        : 2006
  491. Stream size                              : 15.9 MiB (0%)
  492. Title                                    : Norwegian-PGS
  493. Language                                 : Norwegian
  494. Default                                  : No
  495. Forced                                   : No

  496. Text #18
  497. ID                                       : 30
  498. Format                                   : PGS
  499. Muxing mode                              : zlib
  500. Codec ID                                 : S_HDMV/PGS
  501. Codec ID/Info                            : Picture based subtitle format used on BDs/HD-DVDs
  502. Duration                                 : 1 h 39 min
  503. Bit rate                                 : 24.1 kb/s
  504. Count of elements                        : 1980
  505. Stream size                              : 17.2 MiB (0%)
  506. Title                                    : Swedish-PGS
  507. Language                                 : Swedish
  508. Default                                  : No
  509. Forced                                   : No

  510. Text #19
  511. ID                                       : 31
  512. Format                                   : PGS
  513. Muxing mode                              : zlib
  514. Codec ID                                 : S_HDMV/PGS
  515. Codec ID/Info                            : Picture based subtitle format used on BDs/HD-DVDs
  516. Duration                                 : 1 h 43 min
  517. Bit rate                                 : 26.4 kb/s
  518. Count of elements                        : 2002
  519. Stream size                              : 19.7 MiB (0%)
  520. Title                                    : Chinese-PGS
  521. Language                                 : Chinese
  522. Default                                  : No
  523. Forced                                   : No

  524. Text #20
  525. ID                                       : 32
  526. Format                                   : PGS
  527. Muxing mode                              : zlib
  528. Codec ID                                 : S_HDMV/PGS
  529. Codec ID/Info                            : Picture based subtitle format used on BDs/HD-DVDs
  530. Duration                                 : 1 h 39 min
  531. Bit rate                                 : 24.6 kb/s
  532. Count of elements                        : 2006
  533. Stream size                              : 17.4 MiB (0%)
  534. Title                                    : Czech-PGS
  535. Language                                 : Czech
  536. Default                                  : No
  537. Forced                                   : No

  538. Text #21
  539. ID                                       : 33
  540. Format                                   : PGS
  541. Muxing mode                              : zlib
  542. Codec ID                                 : S_HDMV/PGS
  543. Codec ID/Info                            : Picture based subtitle format used on BDs/HD-DVDs
  544. Duration                                 : 1 h 34 min
  545. Bit rate                                 : 252 b/s
  546. Count of elements                        : 28
  547. Stream size                              : 175 KiB (0%)
  548. Title                                    : Czech-FORCED-PGS
  549. Language                                 : Czech
  550. Default                                  : No
  551. Forced                                   : No

  552. Text #22
  553. ID                                       : 34
  554. Format                                   : PGS
  555. Muxing mode                              : zlib
  556. Codec ID                                 : S_HDMV/PGS
  557. Codec ID/Info                            : Picture based subtitle format used on BDs/HD-DVDs
  558. Duration                                 : 1 h 39 min
  559. Bit rate                                 : 23.0 kb/s
  560. Count of elements                        : 2006
  561. Stream size                              : 16.3 MiB (0%)
  562. Title                                    : Hungarian-PGS
  563. Language                                 : Hungarian
  564. Default                                  : No
  565. Forced                                   : No

  566. Text #23
  567. ID                                       : 35
  568. Format                                   : PGS
  569. Muxing mode                              : zlib
  570. Codec ID                                 : S_HDMV/PGS
  571. Codec ID/Info                            : Picture based subtitle format used on BDs/HD-DVDs
  572. Duration                                 : 35 min 52 s
  573. Bit rate                                 : 1 084 b/s
  574. Count of elements                        : 32
  575. Stream size                              : 285 KiB (0%)
  576. Title                                    : Hungarian-FORCED-PGS
  577. Language                                 : Hungarian
  578. Default                                  : No
  579. Forced                                   : No

  580. Text #24
  581. ID                                       : 36
  582. Format                                   : PGS
  583. Muxing mode                              : zlib
  584. Codec ID                                 : S_HDMV/PGS
  585. Codec ID/Info                            : Picture based subtitle format used on BDs/HD-DVDs
  586. Duration                                 : 1 h 43 min
  587. Bit rate                                 : 14.7 kb/s
  588. Count of elements                        : 2022
  589. Stream size                              : 10.9 MiB (0%)
  590. Title                                    : Korean-PGS
  591. Language                                 : Korean
  592. Default                                  : No
  593. Forced                                   : No

  594. Text #25
  595. ID                                       : 37
  596. Format                                   : PGS
  597. Muxing mode                              : zlib
  598. Codec ID                                 : S_HDMV/PGS
  599. Codec ID/Info                            : Picture based subtitle format used on BDs/HD-DVDs
  600. Duration                                 : 1 h 43 min
  601. Bit rate                                 : 18.9 kb/s
  602. Count of elements                        : 2002
  603. Stream size                              : 14.0 MiB (0%)
  604. Title                                    : Chinese-PGS
  605. Language                                 : Chinese
  606. Default                                  : No
  607. Forced                                   : No

  608. Text #26
  609. ID                                       : 38
  610. Format                                   : PGS
  611. Muxing mode                              : zlib
  612. Codec ID                                 : S_HDMV/PGS
  613. Codec ID/Info                            : Picture based subtitle format used on BDs/HD-DVDs
  614. Duration                                 : 1 h 39 min
  615. Bit rate                                 : 23.7 kb/s
  616. Count of elements                        : 2022
  617. Stream size                              : 16.8 MiB (0%)
  618. Title                                    : Polish-PGS
  619. Language                                 : Polish
  620. Default                                  : No
  621. Forced                                   : No

  622. Text #27
  623. ID                                       : 39
  624. Format                                   : PGS
  625. Muxing mode                              : zlib
  626. Codec ID                                 : S_HDMV/PGS
  627. Codec ID/Info                            : Picture based subtitle format used on BDs/HD-DVDs
  628. Duration                                 : 17 min 48 s
  629. Bit rate                                 : 211 b/s
  630. Count of elements                        : 4
  631. Stream size                              : 27.6 KiB (0%)
  632. Title                                    : Polish-FORCED-PGS
  633. Language                                 : Polish
  634. Default                                  : No
  635. Forced                                   : No

  636. Text #28
  637. ID                                       : 40
  638. Format                                   : PGS
  639. Muxing mode                              : zlib
  640. Codec ID                                 : S_HDMV/PGS
  641. Codec ID/Info                            : Picture based subtitle format used on BDs/HD-DVDs
  642. Duration                                 : 1 h 39 min
  643. Bit rate                                 : 28.3 kb/s
  644. Count of elements                        : 2006
  645. Stream size                              : 20.1 MiB (0%)
  646. Title                                    : Portuguese-PGS
  647. Language                                 : Portuguese
  648. Default                                  : No
  649. Forced                                   : No

  650. Menu
  651. 00:00:00.000                             : en:Chapter 01
  652. 00:04:09.624                             : en:Chapter 02
  653. 00:07:27.196                             : en:Chapter 03
  654. 00:10:19.994                             : en:Chapter 04
  655. 00:15:16.498                             : en:Chapter 05
  656. 00:17:47.066                             : en:Chapter 06
  657. 00:20:23.972                             : en:Chapter 07
  658. 00:22:51.036                             : en:Chapter 08
  659. 00:26:27.877                             : en:Chapter 09
  660. 00:29:06.035                             : en:Chapter 10
  661. 00:33:16.411                             : en:Chapter 11
  662. 00:35:47.770                             : en:Chapter 12
  663. 00:39:01.797                             : en:Chapter 13
  664. 00:44:18.822                             : en:Chapter 14
  665. 00:47:21.296                             : en:Chapter 15
  666. 00:52:30.230                             : en:Chapter 16
  667. 00:56:28.301                             : en:Chapter 17
  668. 01:01:16.547                             : en:Chapter 18
  669. 01:04:50.678                             : en:Chapter 19
  670. 01:11:04.468                             : en:Chapter 20
  671. 01:12:34.099                             : en:Chapter 21
  672. 01:17:16.089                             : en:Chapter 22
  673. 01:21:05.360                             : en:Chapter 23
  674. 01:24:17.385                             : en:Chapter 24
  675. 01:29:19.604                             : en:Chapter 25
  676. 01:36:15.186                             : en:Chapter 26
  677. 01:37:58.914                             : en:Chapter 27
  678. 01:41:38.550                             : en:Chapter 28
复制代码

007:大破量子危机/007大破量子危机 Quantum.of.Solace.2008.2160p.BluRay.REMUX.HEVC.DTS-HD.MA.5.1-FGT 53.55GB-2.png 122751tp4z4hmf5ppfz4h4.png 007:大破量子危机/007大破量子危机 Quantum.of.Solace.2008.2160p.BluRay.REMUX.HEVC.DTS-HD.MA.5.1-FGT 53.55GB-4.png







回复

使用道具 举报

发表于 2019-10-20 15:56:32 | 显示全部楼层
阿弥陀佛,善人自有善报
回复 支持 反对

使用道具 举报

发表于 2019-10-20 16:23:48 | 显示全部楼层
楼主发贴辛苦了,谢谢楼主分享!我觉得蓝光电影网是注册对了!
回复 支持 反对

使用道具 举报

发表于 2019-10-20 19:06:35 | 显示全部楼层
谢谢楼主分享!
回复 支持 反对

使用道具 举报

发表于 2019-10-21 12:26:44 | 显示全部楼层
感谢楼主精彩分享。
回复 支持 反对

使用道具 举报

 成长值: 970

发表于 2019-10-21 17:09:27 | 显示全部楼层
谢谢楼主无私分享。
回复 支持 反对

使用道具 举报

已抛锚 成长值: 4840

发表于 2019-11-3 11:16:00 | 显示全部楼层
g感谢楼主分享。
回复 支持 反对

使用道具 举报

发表于 2019-11-6 20:10:54 | 显示全部楼层

我看不错噢 谢谢楼主!蓝光电影网越来越好!
回复 支持 反对

使用道具 举报

懒得打字嘛,点击右侧快捷回复 【右侧内容,后台自定义】
您需要登录后才可以回帖 登录 | 立即加入

本版积分规则

现在加入蓝光电影网,注册一个账号

QQ| 手机版|小黑屋| 蓝光电影网 |网站地图

Copyright © 2015-2019 Comsenz Inc.  Template by 蓝光电影论坛 All Rights Reserved.

Powered by 蓝光电影网 X3.4

特别声明:本站所有资源均由网上收集而来,版权归原影音公司所有,如果侵犯了你的权益,请通知我们,我们会及时删除侵权内容.

快速回复 返回顶部 返回列表