找回密码

蓝光电影网

查看: 1996|回复: 58

[2160p-WEB] 绝命毒师电影:续命之徒 El.Camino.A.Breaking.Bad.Movie.2019.2160p.NF.WEBRip.x265.10bit.HDR.DD5.1.Atmos-TrollUHD 16.85GB

  [复制链接]

 成长值: 2320

发表于 2019-10-17 13:44:17 | 显示全部楼层 |阅读模式
绝命毒师电影:续命之徒 El.Camino.A.Breaking.Bad.Movie.2019.2160p.NF.WEBRip.x265.10bit.HDR.DD5.1.Atmos-TrollUHD 16.85GB-1.png

译  名 绝命毒师电影:续命之徒 / Greenbriar / 格林布莱尔
片  名 El Camino: A Breaking Bad Movie
年  代 2019
产  地 美国
类  别 剧情
语  言 英语
上映日期 2019-10-11(美国)
IMDb评分  10.0/10 from 209 users
IMDb链接  https://www.imdb.com/title/tt9243946
豆瓣评分 0/10 from 0 users
豆瓣链接 https://movie.douban.com/subject/30372377/
片  长 122分钟
导  演 文斯·吉里根 Vince Gilligan
编  剧 文斯·吉里根 Vince Gilligan
主  演 亚伦·保尔 Aaron Paul
       马特·琼斯 Matt Jones
       乔纳森·班克斯 Jonathan Banks
       查尔斯·贝克 Charles Baker
       拉里·哈金 Larry Hankin


标  签 绝命毒师 | 绝命毒师衍生剧 | Netflix | 犯罪 | 美国 | 电影 | 剧情 | 美国电影

简  介  

  Netflix 电视内容《续命之徒:绝命毒师电影》回归,主角杰西·平克曼(艾美奖得主亚伦·保尔饰演)再次与粉丝见面。杰西戏剧性地逃出囚禁后,他必须接受自己的过去,才有可能创造未来。这部扣人心弦的惊悚片由《绝命毒师》的创剧人文斯·吉里根编写和执导。该电影由马克·约翰逊、梅利莎·伯恩斯坦、查尔斯·纽沃斯、黛安娜·默瑟和亚伦·保尔以及 Sony Pictures Television 联合制作。
  1. Video
  2. ID                                       : 1
  3. Format                                   : HEVC
  4. Format/Info                              : High Efficiency Video Coding
  5. Format profile                           : Main High@L4@Main
  6. HDR format                               : SMPTE ST 2086, HDR10 compatible
  7. Codec ID                                 : V_MPEGH/ISO/HEVC
  8. Duration                                 : 2 h 2 min
  9. Bit rate                                 : 19.0 Mb/s
  10. Width                                    : 3 840 pixels
  11. Height                                   : 1 604 pixels
  12. Display aspect ratio                     : 2.40:1
  13. Frame rate mode                          : Constant
  14. Frame rate                               : 24.000 FPS
  15. Color space                              : YUV
  16. Chroma subsampling                       : 4:2:0
  17. Bit depth                                : 10 bits
  18. Bits/(Pixel*Frame)                       : 0.128
  19. Stream size                              : 16.2 GiB (96%)
  20. Writing library                          : x265 3.1_RC13bdf06e3c628:[Windows][MSVC 1921][64 bit] 10bit
  21. Encoding settings                        : cpuid=1111039 / frame-threads=4 / numa-pools=28 / wpp / no-pmode / no-pme / no-psnr / no-ssim / log-level=2 / input-csp=1 / input-res=3840x1604 / interlace=0 / total-frames=0 / level-idc=0 / high-tier=1 / uhd-bd=0 / ref=5 / no-allow-non-conformance / repeat-headers / annexb / no-aud / no-hrd / info / hash=0 / no-temporal-layers / open-gop / min-keyint=24 / keyint=250 / gop-lookahead=0 / bframes=8 / b-adapt=2 / b-pyramid / bframe-bias=0 / rc-lookahead=40 / lookahead-slices=0 / scenecut=40 / radl=0 / no-splice / no-intra-refresh / ctu=64 / min-cu-size=8 / no-rect / no-amp / max-tu-size=32 / tu-inter-depth=3 / tu-intra-depth=3 / limit-tu=0 / rdoq-level=1 / dynamic-rd=0.00 / no-ssim-rd / signhide / no-tskip / nr-intra=0 / nr-inter=0 / no-constrained-intra / strong-intra-smoothing / max-merge=5 / limit-refs=0 / no-limit-modes / me=3 / subme=4 / merange=57 / temporal-mvp / weightp / weightb / no-analyze-src-pics / deblock=0:0 / no-sao / no-sao-non-deblock / rd=6 / no-early-skip / rskip / no-fast-intra / no-tskip-fast / no-cu-lossless / b-intra / no-splitrd-skip / rdpenalty=0 / psy-rd=4.00 / psy-rdoq=8.00 / no-rd-refine / no-lossless / cbqpoffs=0 / crqpoffs=0 / rc=crf / crf=18.0 / qcomp=0.60 / qpstep=4 / stats-write=0 / stats-read=0 / ipratio=1.40 / pbratio=1.30 / aq-mode=2 / aq-strength=1.00 / cutree / zone-count=0 / no-strict-cbr / qg-size=32 / no-rc-grain / qpmax=69 / qpmin=0 / no-const-vbv / sar=0 / overscan=0 / videoformat=5 / range=0 / colorprim=9 / transfer=16 / colormatrix=9 / chromaloc=0 / display-window=0 / master-display=G(13250,34500)B(7500,3000)R(34000,16000)WP(15635,16450)L(40000000,50)cll=4850,1668 / min-luma=0 / max-luma=1023 / log2-max-poc-lsb=8 / vui-timing-info / vui-hrd-info / slices=1 / no-opt-qp-pps / no-opt-ref-list-length-pps / no-multi-pass-opt-rps / scenecut-bias=0.05 / no-opt-cu-delta-qp / no-aq-motion / hdr / hdr-opt / no-dhdr10-opt / no-idr-recovery-sei / analysis-reuse-level=5 / scale-factor=0 / refine-intra=0 / refine-inter=0 / refine-mv=0 / refine-ctu-distortion=0 / no-limit-sao / ctu-info=0 / no-lowpass-dct / refine-analysis-type=0 / copy-pic=1 / max-ausize-factor=1.0 / no-dynamic-refine / no-single-sei / no-hevc-aq / no-svt / no-field / qp-adaptation-range=1.00
  22. Default                                  : Yes
  23. Forced                                   : No
  24. Color range                              : Limited
  25. Color primaries                          : BT.2020
  26. Transfer characteristics                 : PQ
  27. Matrix coefficients                      : BT.2020 non-constant
  28. Mastering display color primaries        : Display P3
  29. Mastering display luminance              : min: 0.0050 cd/m2, max: 4000 cd/m2
  30. Maximum Content Light Level              : 4850 cd/m2
  31. Maximum Frame-Average Light Level        : 1668 cd/m2

  32. Audio
  33. ID                                       : 2
  34. Format                                   : E-AC-3 JOC
  35. Format/Info                              : Enhanced AC-3 with Joint Object Coding
  36. Commercial name                          : Dolby Digital Plus with Dolby Atmos
  37. Codec ID                                 : A_EAC3
  38. Duration                                 : 2 h 2 min
  39. Bit rate mode                            : Constant
  40. Bit rate                                 : 768 kb/s
  41. Channel(s)                               : 6 channels
  42. Channel layout                           : L R C LFE Ls Rs
  43. Sampling rate                            : 48.0 kHz
  44. Frame rate                               : 31.250 FPS (1536 SPF)
  45. Compression mode                         : Lossy
  46. Stream size                              : 674 MiB (4%)
  47. Title                                    : English
  48. Language                                 : English
  49. Service kind                             : Complete Main
  50. Default                                  : Yes
  51. Forced                                   : No
  52. Complexity index                         : 16
  53. Number of dynamic objects                : 15
  54. Bed channel count                        : 1 channel
  55. Bed channel configuration                : LFE

  56. Text #1
  57. ID                                       : 3
  58. Format                                   : UTF-8
  59. Codec ID                                 : S_TEXT/UTF8
  60. Codec ID/Info                            : UTF-8 Plain Text
  61. Duration                                 : 2 h 0 min
  62. Bit rate                                 : 46 b/s
  63. Count of elements                        : 1344
  64. Stream size                              : 41.3 KiB (0%)
  65. Language                                 : English
  66. Default                                  : No
  67. Forced                                   : No

  68. Text #2
  69. ID                                       : 4
  70. Format                                   : UTF-8
  71. Codec ID                                 : S_TEXT/UTF8
  72. Codec ID/Info                            : UTF-8 Plain Text
  73. Duration                                 : 2 h 1 min
  74. Bit rate                                 : 51 b/s
  75. Count of elements                        : 1544
  76. Stream size                              : 46.2 KiB (0%)
  77. Title                                    : SDH
  78. Language                                 : English
  79. Default                                  : No
  80. Forced                                   : No

  81. Text #3
  82. ID                                       : 5
  83. Format                                   : UTF-8
  84. Codec ID                                 : S_TEXT/UTF8
  85. Codec ID/Info                            : UTF-8 Plain Text
  86. Duration                                 : 2 h 1 min
  87. Bit rate                                 : 63 b/s
  88. Count of elements                        : 1210
  89. Stream size                              : 56.4 KiB (0%)
  90. Language                                 : Arabic
  91. Default                                  : No
  92. Forced                                   : No

  93. Text #4
  94. ID                                       : 6
  95. Format                                   : UTF-8
  96. Codec ID                                 : S_TEXT/UTF8
  97. Codec ID/Info                            : UTF-8 Plain Text
  98. Duration                                 : 2 h 1 min
  99. Bit rate                                 : 35 b/s
  100. Count of elements                        : 1168
  101. Stream size                              : 31.8 KiB (0%)
  102. Language                                 : Czech
  103. Default                                  : No
  104. Forced                                   : No

  105. Text #5
  106. ID                                       : 7
  107. Format                                   : UTF-8
  108. Codec ID                                 : S_TEXT/UTF8
  109. Codec ID/Info                            : UTF-8 Plain Text
  110. Duration                                 : 2 h 1 min
  111. Bit rate                                 : 36 b/s
  112. Count of elements                        : 970
  113. Stream size                              : 33.0 KiB (0%)
  114. Language                                 : Danish
  115. Default                                  : No
  116. Forced                                   : No

  117. Text #6
  118. ID                                       : 8
  119. Format                                   : UTF-8
  120. Codec ID                                 : S_TEXT/UTF8
  121. Codec ID/Info                            : UTF-8 Plain Text
  122. Duration                                 : 2 h 1 min
  123. Bit rate                                 : 36 b/s
  124. Count of elements                        : 1139
  125. Stream size                              : 32.6 KiB (0%)
  126. Language                                 : German
  127. Default                                  : No
  128. Forced                                   : No

  129. Text #7
  130. ID                                       : 9
  131. Format                                   : UTF-8
  132. Codec ID                                 : S_TEXT/UTF8
  133. Codec ID/Info                            : UTF-8 Plain Text
  134. Duration                                 : 2 h 1 min
  135. Bit rate                                 : 61 b/s
  136. Count of elements                        : 1211
  137. Stream size                              : 54.6 KiB (0%)
  138. Language                                 : Greek
  139. Default                                  : No
  140. Forced                                   : No

  141. Text #8
  142. ID                                       : 10
  143. Format                                   : UTF-8
  144. Codec ID                                 : S_TEXT/UTF8
  145. Codec ID/Info                            : UTF-8 Plain Text
  146. Duration                                 : 2 h 1 min
  147. Bit rate                                 : 36 b/s
  148. Count of elements                        : 1183
  149. Stream size                              : 32.9 KiB (0%)
  150. Language                                 : Spanish
  151. Default                                  : No
  152. Forced                                   : No

  153. Text #9
  154. ID                                       : 11
  155. Format                                   : UTF-8
  156. Codec ID                                 : S_TEXT/UTF8
  157. Codec ID/Info                            : UTF-8 Plain Text
  158. Duration                                 : 2 h 1 min
  159. Bit rate                                 : 35 b/s
  160. Count of elements                        : 1170
  161. Stream size                              : 31.6 KiB (0%)
  162. Title                                    : European
  163. Language                                 : Spanish
  164. Default                                  : No
  165. Forced                                   : No

  166. Text #10
  167. ID                                       : 12
  168. Format                                   : UTF-8
  169. Codec ID                                 : S_TEXT/UTF8
  170. Codec ID/Info                            : UTF-8 Plain Text
  171. Duration                                 : 2 h 1 min
  172. Bit rate                                 : 34 b/s
  173. Count of elements                        : 978
  174. Stream size                              : 30.9 KiB (0%)
  175. Language                                 : Finnish
  176. Default                                  : No
  177. Forced                                   : No

  178. Text #11
  179. ID                                       : 13
  180. Format                                   : UTF-8
  181. Codec ID                                 : S_TEXT/UTF8
  182. Codec ID/Info                            : UTF-8 Plain Text
  183. Duration                                 : 2 h 1 min
  184. Bit rate                                 : 35 b/s
  185. Count of elements                        : 1182
  186. Stream size                              : 31.4 KiB (0%)
  187. Language                                 : French
  188. Default                                  : No
  189. Forced                                   : No

  190. Text #12
  191. ID                                       : 14
  192. Format                                   : UTF-8
  193. Codec ID                                 : S_TEXT/UTF8
  194. Codec ID/Info                            : UTF-8 Plain Text
  195. Duration                                 : 2 h 1 min
  196. Bit rate                                 : 58 b/s
  197. Count of elements                        : 1213
  198. Stream size                              : 52.6 KiB (0%)
  199. Language                                 : Hebrew
  200. Default                                  : No
  201. Forced                                   : No

  202. Text #13
  203. ID                                       : 15
  204. Format                                   : UTF-8
  205. Codec ID                                 : S_TEXT/UTF8
  206. Codec ID/Info                            : UTF-8 Plain Text
  207. Duration                                 : 2 h 1 min
  208. Bit rate                                 : 36 b/s
  209. Count of elements                        : 1177
  210. Stream size                              : 32.3 KiB (0%)
  211. Language                                 : Hungarian
  212. Default                                  : No
  213. Forced                                   : No

  214. Text #14
  215. ID                                       : 16
  216. Format                                   : UTF-8
  217. Codec ID                                 : S_TEXT/UTF8
  218. Codec ID/Info                            : UTF-8 Plain Text
  219. Duration                                 : 2 h 1 min
  220. Bit rate                                 : 34 b/s
  221. Count of elements                        : 1210
  222. Stream size                              : 30.6 KiB (0%)
  223. Language                                 : Indonesian
  224. Default                                  : No
  225. Forced                                   : No

  226. Text #15
  227. ID                                       : 17
  228. Format                                   : UTF-8
  229. Codec ID                                 : S_TEXT/UTF8
  230. Codec ID/Info                            : UTF-8 Plain Text
  231. Duration                                 : 2 h 1 min
  232. Bit rate                                 : 33 b/s
  233. Count of elements                        : 1160
  234. Stream size                              : 29.7 KiB (0%)
  235. Language                                 : Italian
  236. Default                                  : No
  237. Forced                                   : No

  238. Text #16
  239. ID                                       : 18
  240. Format                                   : UTF-8
  241. Codec ID                                 : S_TEXT/UTF8
  242. Codec ID/Info                            : UTF-8 Plain Text
  243. Duration                                 : 2 h 1 min
  244. Bit rate                                 : 36 b/s
  245. Count of elements                        : 1151
  246. Stream size                              : 32.2 KiB (0%)
  247. Language                                 : Japanese
  248. Default                                  : No
  249. Forced                                   : No

  250. Text #17
  251. ID                                       : 19
  252. Format                                   : UTF-8
  253. Codec ID                                 : S_TEXT/UTF8
  254. Codec ID/Info                            : UTF-8 Plain Text
  255. Duration                                 : 2 h 1 min
  256. Bit rate                                 : 43 b/s
  257. Count of elements                        : 1190
  258. Stream size                              : 39.3 KiB (0%)
  259. Language                                 : Korean
  260. Default                                  : No
  261. Forced                                   : No

  262. Text #18
  263. ID                                       : 20
  264. Format                                   : UTF-8
  265. Codec ID                                 : S_TEXT/UTF8
  266. Codec ID/Info                            : UTF-8 Plain Text
  267. Duration                                 : 2 h 1 min
  268. Bit rate                                 : 37 b/s
  269. Count of elements                        : 911
  270. Stream size                              : 33.3 KiB (0%)
  271. Language                                 : Norwegian Bokmal
  272. Default                                  : No
  273. Forced                                   : No

  274. Text #19
  275. ID                                       : 21
  276. Format                                   : UTF-8
  277. Codec ID                                 : S_TEXT/UTF8
  278. Codec ID/Info                            : UTF-8 Plain Text
  279. Duration                                 : 2 h 1 min
  280. Bit rate                                 : 37 b/s
  281. Count of elements                        : 1011
  282. Stream size                              : 33.1 KiB (0%)
  283. Language                                 : Dutch
  284. Default                                  : No
  285. Forced                                   : No

  286. Text #20
  287. ID                                       : 22
  288. Format                                   : UTF-8
  289. Codec ID                                 : S_TEXT/UTF8
  290. Codec ID/Info                            : UTF-8 Plain Text
  291. Duration                                 : 2 h 1 min
  292. Bit rate                                 : 34 b/s
  293. Count of elements                        : 1199
  294. Stream size                              : 30.8 KiB (0%)
  295. Language                                 : Polish
  296. Default                                  : No
  297. Forced                                   : No

  298. Text #21
  299. ID                                       : 23
  300. Format                                   : UTF-8
  301. Codec ID                                 : S_TEXT/UTF8
  302. Codec ID/Info                            : UTF-8 Plain Text
  303. Duration                                 : 2 h 1 min
  304. Bit rate                                 : 38 b/s
  305. Count of elements                        : 1202
  306. Stream size                              : 34.3 KiB (0%)
  307. Language                                 : Portuguese
  308. Default                                  : No
  309. Forced                                   : No

  310. Text #22
  311. ID                                       : 24
  312. Format                                   : UTF-8
  313. Codec ID                                 : S_TEXT/UTF8
  314. Codec ID/Info                            : UTF-8 Plain Text
  315. Duration                                 : 1 h 55 min
  316. Bit rate                                 : 36 b/s
  317. Count of elements                        : 1205
  318. Stream size                              : 30.9 KiB (0%)
  319. Title                                    : Brazilian
  320. Language                                 : Portuguese
  321. Default                                  : No
  322. Forced                                   : No

  323. Text #23
  324. ID                                       : 25
  325. Format                                   : UTF-8
  326. Codec ID                                 : S_TEXT/UTF8
  327. Codec ID/Info                            : UTF-8 Plain Text
  328. Duration                                 : 2 h 1 min
  329. Bit rate                                 : 41 b/s
  330. Count of elements                        : 1149
  331. Stream size                              : 37.0 KiB (0%)
  332. Language                                 : Romanian
  333. Default                                  : No
  334. Forced                                   : No

  335. Text #24
  336. ID                                       : 26
  337. Format                                   : UTF-8
  338. Codec ID                                 : S_TEXT/UTF8
  339. Codec ID/Info                            : UTF-8 Plain Text
  340. Duration                                 : 2 h 1 min
  341. Bit rate                                 : 60 b/s
  342. Count of elements                        : 1175
  343. Stream size                              : 54.1 KiB (0%)
  344. Language                                 : Russian
  345. Default                                  : No
  346. Forced                                   : No

  347. Text #25
  348. ID                                       : 27
  349. Format                                   : UTF-8
  350. Codec ID                                 : S_TEXT/UTF8
  351. Codec ID/Info                            : UTF-8 Plain Text
  352. Duration                                 : 2 h 1 min
  353. Bit rate                                 : 35 b/s
  354. Count of elements                        : 1081
  355. Stream size                              : 31.6 KiB (0%)
  356. Language                                 : Swedish
  357. Default                                  : No
  358. Forced                                   : No

  359. Text #26
  360. ID                                       : 28
  361. Format                                   : UTF-8
  362. Codec ID                                 : S_TEXT/UTF8
  363. Codec ID/Info                            : UTF-8 Plain Text
  364. Duration                                 : 2 h 1 min
  365. Bit rate                                 : 97 b/s
  366. Count of elements                        : 1213
  367. Stream size                              : 87.5 KiB (0%)
  368. Language                                 : Thai
  369. Default                                  : No
  370. Forced                                   : No

  371. Text #27
  372. ID                                       : 29
  373. Format                                   : UTF-8
  374. Codec ID                                 : S_TEXT/UTF8
  375. Codec ID/Info                            : UTF-8 Plain Text
  376. Duration                                 : 2 h 1 min
  377. Bit rate                                 : 36 b/s
  378. Count of elements                        : 1143
  379. Stream size                              : 32.2 KiB (0%)
  380. Language                                 : Turkish
  381. Default                                  : No
  382. Forced                                   : No

  383. Text #28
  384. ID                                       : 30
  385. Format                                   : UTF-8
  386. Codec ID                                 : S_TEXT/UTF8
  387. Codec ID/Info                            : UTF-8 Plain Text
  388. Duration                                 : 2 h 1 min
  389. Bit rate                                 : 48 b/s
  390. Count of elements                        : 1210
  391. Stream size                              : 43.4 KiB (0%)
  392. Language                                 : Vietnamese
  393. Default                                  : No
  394. Forced                                   : No

  395. Text #29
  396. ID                                       : 31
  397. Format                                   : UTF-8
  398. Codec ID                                 : S_TEXT/UTF8
  399. Codec ID/Info                            : UTF-8 Plain Text
  400. Duration                                 : 2 h 1 min
  401. Bit rate                                 : 39 b/s
  402. Count of elements                        : 1194
  403. Stream size                              : 35.5 KiB (0%)
  404. Title                                    : Simplified
  405. Language                                 : Chinese
  406. Default                                  : No
  407. Forced                                   : No

  408. Text #30
  409. ID                                       : 32
  410. Format                                   : UTF-8
  411. Codec ID                                 : S_TEXT/UTF8
  412. Codec ID/Info                            : UTF-8 Plain Text
  413. Duration                                 : 2 h 1 min
  414. Bit rate                                 : 34 b/s
  415. Count of elements                        : 1215
  416. Stream size                              : 30.8 KiB (0%)
  417. Title                                    : Traditional
  418. Language                                 : Chinese
  419. Default                                  : No
  420. Forced                                   : No
复制代码

绝命毒师电影:续命之徒 El.Camino.A.Breaking.Bad.Movie.2019.2160p.NF.WEBRip.x265.10bit.HDR.DD5.1.Atmos-TrollUHD 16.85GB-2.png 绝命毒师电影:续命之徒 El.Camino.A.Breaking.Bad.Movie.2019.2160p.NF.WEBRip.x265.10bit.HDR.DD5.1.Atmos-TrollUHD 16.85GB-3.png 绝命毒师电影:续命之徒 El.Camino.A.Breaking.Bad.Movie.2019.2160p.NF.WEBRip.x265.10bit.HDR.DD5.1.Atmos-TrollUHD 16.85GB-4.png







回复

使用道具 举报

发表于 2019-10-17 15:21:04 | 显示全部楼层

楼主太厉害了!楼主,电影应该很好看我觉得蓝光电影网真是个好地方!
回复 支持 反对

使用道具 举报

 成长值: 610

发表于 2019-10-17 16:01:22 | 显示全部楼层
请问大家这个片的下载种子怎么样获取?
回复 支持 反对

使用道具 举报

已抛锚 成长值: 120

发表于 2019-10-17 18:18:56 | 显示全部楼层

既然你诚信诚意的推荐了,那我就勉为其难的看看吧!蓝光电影网不走平凡路。
回复 支持 反对

使用道具 举报

发表于 2019-10-17 18:42:03 | 显示全部楼层
楼主发贴辛苦了,谢谢楼主分享!我觉得蓝光电影网是注册对了!
回复 支持 反对

使用道具 举报

发表于 2019-10-17 19:09:53 | 显示全部楼层
楼主太厉害了!楼主,电影应该很好看我觉得蓝光电影网真是个好地方!
回复 支持 反对

使用道具 举报

发表于 2019-10-17 19:26:49 | 显示全部楼层
楼主发贴辛苦了,谢谢楼主分享!我觉得蓝光电影网是注册对了!
回复 支持 反对

使用道具 举报

发表于 2019-10-17 19:40:56 来自手机 | 显示全部楼层
厉害了楼主幸苦了!
回复 支持 反对

使用道具 举报

发表于 2019-10-17 20:20:45 | 显示全部楼层
谢谢楼主分享
回复 支持 反对

使用道具 举报

发表于 2019-10-17 20:21:06 | 显示全部楼层

既然你诚信诚意的推荐了,那我就勉为其难的看看吧!蓝光电影网不走平凡路。
回复 支持 反对

使用道具 举报

懒得打字嘛,点击右侧快捷回复 【右侧内容,后台自定义】
您需要登录后才可以回帖 登录 | 立即加入

本版积分规则

现在加入蓝光电影网,注册一个账号

QQ| 手机版|小黑屋| 蓝光电影网 |网站地图 

Copyright © 2015-2019 Comsenz Inc.  Template by 蓝光电影论坛 All Rights Reserved.

Powered by 蓝光电影网 X3.4

特别声明:本站所有资源均由网上收集而来,版权归原影音公司所有,如果侵犯了你的权益,请通知我们,我们会及时删除侵权内容.

快速回复 返回顶部 返回列表