找回密码

蓝光电影网

查看: 5245|回复: 138

[动作片] 速度与激情:特别行动 Fast.and.Furious.Presents.Hobbs.and.Shaw.2019.1080p.WEB-DL.DD5.1.H264-FGT 4.66GB

  [复制链接]

 成长值: 2290

发表于 2019-10-14 01:33:50 | 显示全部楼层 |阅读模式
速度与激情:特别行动 Fast.and.Furious.Presents.Hobbs.and.Shaw.2019.1080p.WEB-DL.DD5.1.H264-FGT 4.66GB-1.png

译  名 速度与激情:特别行动 / Hobbs and Shaw / The Fast and the Furious Spinoff / 狂野时速:双雄联盟(港) / 玩命关头:特别行动(台) / 速度与基情(豆友译名) / 速度与激情外传 / 速度与激情衍生片 / 霍布斯与肖
片  名 Fast & Furious Presents: Hobbs & Shaw
年  代 2019
产  地 美国
类  别 动作 / 犯罪
语  言 英语
上映日期 2019-08-02(美国) / 2019-08-23(中国大陆)
IMDb评分  6.8/10 from 64451 users
IMDb链接  http://www.imdb.com/title/tt6806448
豆瓣评分 6.4/10 from 122826 users
豆瓣链接 https://movie.douban.com/subject/27163278/
片  长 137分钟
导  演 大卫·雷奇 David Leitch
编  剧 克里斯·摩根 Chris Morgan / 盖瑞·斯科特·汤普森 Gary Scott Thompson / 德鲁·皮尔斯 Drew Pearce
主  演 道恩·强森 Dwayne Johnson
       杰森·斯坦森 Jason Statham
       伊德里斯·艾尔巴 Idris Elba
       凡妮莎·柯比 Vanessa Kirby
       艾莎·冈萨雷斯 Eiza González
       海伦·米伦 Helen Mirren
       瑞恩·雷诺兹 Ryan Reynolds
       凯文·哈特 Kevin Hart
       埃迪·马森 Eddie Marsan
       罗曼·雷恩斯 Roman Reigns
       斯蒂芬妮·沃格特 Stephanie Vogt
       维克托里娅·菲斯 Viktorija Faith
       康兰·卡萨尔 Conlan Casal
       海伦娜·福尔摩斯 Helena Holmes
       伯纳多·桑托斯 Bernardo Santos
       露丝·霍洛克斯 Ruth Horrocks
       大卫·穆梅尼 David Mumeni
       马诺伊·阿南德 Manoj Anand
       阿玛尔·阿达蒂亚 Amar Adatia
       朱利安·费罗 Julian Ferro
       丹尼尔·厄根 Daniel Eghan
       拉普洛斯·卡伦福佐斯 Lampros Kalfuntzos
       阿克塞尔·努 Axel Nu
       史蒂夫·莱温顿 Steve Lewington
       安东尼奥·曼奇诺 Antonio Mancino
       斯特拉·斯托克尔 Stella Stocker
       克利夫·柯蒂斯 Cliff Curtis


标  签 动作 | 速度与激情:特别行动 | 美国 | 飙车 | 2019 | 犯罪 | 冒险 | 赛车

简  介  

  一个是美国外交安全局的忠诚特工、身材魁梧的执法者霍布斯(强森饰),一个是前英国军事特工精英、无法无天的恶棍肖(斯坦森饰)。在2015年的《速度与激情7》中首次对峙之后,两人不论言语还是肢体都冲突不断,一直试图打倒对方。
  然而,通过高科技进行了基因增强的无政府主义者布里克斯顿(伊德瑞斯·艾尔巴饰)控制了一种可能永远改变人类命运的不为人知的生化武器,并且还打败了一位大胆优秀又特立独行的军情六处特工(曾出演《王冠》的凡妮莎·科比饰)——她恰好是肖的妹妹,为了扳倒这个世界上唯一可能比他们更厉害的敌人,这两个不共戴天的宿敌不得不联手。
  《速度与激情:特别行动》一片在《速度与激情》系列的宇宙中推开了一扇全新的大门。从洛杉矶到伦敦,从切尔诺贝利的有毒废墟到美丽的南太平洋岛国萨摩亚,本次特别行动席卷全球。
  该片由大卫·雷奇执导(《死侍2》导演),由《速度与激情》系列故事的缔造者克里斯·摩根编剧,摩根、强森、斯坦森和海拉姆·加西亚共同担纲制片。丹尼·加西亚、凯利·麦考密克、 、史蒂文·查斯曼、伊森·史密斯和安斯利·戴维斯担任监制。
  1. Video
  2. ID                                       : 1
  3. Format                                   : AVC
  4. Format/Info                              : Advanced Video Codec
  5. Format profile                           : High@L4
  6. Format settings                          : CABAC / 5 Ref Frames
  7. Format settings, CABAC                   : Yes
  8. Format settings, Reference frames        : 5 frames
  9. Codec ID                                 : V_MPEG4/ISO/AVC
  10. Duration                                 : 2 h 15 min
  11. Bit rate                                 : 4 519 kb/s
  12. Width                                    : 1 916 pixels
  13. Height                                   : 798 pixels
  14. Display aspect ratio                     : 2.40:1
  15. Frame rate mode                          : Constant
  16. Frame rate                               : 23.976 (23976/1000) FPS
  17. Color space                              : YUV
  18. Chroma subsampling                       : 4:2:0
  19. Bit depth                                : 8 bits
  20. Scan type                                : Progressive
  21. Bits/(Pixel*Frame)                       : 0.123
  22. Stream size                              : 4.29 GiB (92%)
  23. Title                                    : Fast.and.Furious.Presents.Hobbs.and.Shaw.2019.1080p.WEB-DL.DD5.1.H264-FGT
  24. Language                                 : English
  25. Default                                  : Yes
  26. Forced                                   : No
  27. Color range                              : Limited
  28. Color primaries                          : BT.709
  29. Transfer characteristics                 : BT.709
  30. Matrix coefficients                      : BT.709

  31. Audio
  32. ID                                       : 2
  33. Format                                   : AC-3
  34. Format/Info                              : Audio Coding 3
  35. Commercial name                          : Dolby Digital
  36. Codec ID                                 : A_AC3
  37. Duration                                 : 2 h 15 min
  38. Bit rate mode                            : Constant
  39. Bit rate                                 : 384 kb/s
  40. Channel(s)                               : 6 channels
  41. Channel layout                           : L R C LFE Ls Rs
  42. Sampling rate                            : 48.0 kHz
  43. Frame rate                               : 31.250 FPS (1536 SPF)
  44. Bit depth                                : 16 bits
  45. Compression mode                         : Lossy
  46. Stream size                              : 373 MiB (8%)
  47. Title                                    : Fast.and.Furious.Presents.Hobbs.and.Shaw.2019.1080p.WEB-DL.DD5.1.H264-FGT
  48. Language                                 : English
  49. Service kind                             : Complete Main
  50. Default                                  : Yes
  51. Forced                                   : No

  52. Text #1
  53. ID                                       : 3
  54. Format                                   : UTF-8
  55. Codec ID                                 : S_TEXT/UTF8
  56. Codec ID/Info                            : UTF-8 Plain Text
  57. Duration                                 : 1 h 1 min
  58. Bit rate                                 : 0 b/s
  59. Count of elements                        : 13
  60. Stream size                              : 346 Bytes (0%)
  61. Title                                    : FORCED
  62. Language                                 : English
  63. Default                                  : Yes
  64. Forced                                   : Yes

  65. Text #2
  66. ID                                       : 4
  67. Format                                   : UTF-8
  68. Codec ID                                 : S_TEXT/UTF8
  69. Codec ID/Info                            : UTF-8 Plain Text
  70. Duration                                 : 2 h 15 min
  71. Bit rate                                 : 65 b/s
  72. Count of elements                        : 2283
  73. Stream size                              : 65.1 KiB (0%)
  74. Language                                 : English
  75. Default                                  : No
  76. Forced                                   : No

  77. Menu
  78. 00:00:00.000                             : en:1
  79. 00:04:59.049                             : en:2
  80. 00:13:44.491                             : en:3
  81. 00:19:22.453                             : en:4
  82. 00:26:46.980                             : en:5
  83. 00:35:42.514                             : en:6
  84. 00:40:14.244                             : en:7
  85. 00:46:23.028                             : en:8
  86. 00:51:35.214                             : en:9
  87. 00:57:52.799                             : en:10
  88. 01:01:54.248                             : en:11
  89. 01:08:46.158                             : en:12
  90. 01:14:23.829                             : en:13
  91. 01:19:49.070                             : en:14
  92. 01:25:00.255                             : en:15
  93. 01:32:59.191                             : en:16
  94. 01:38:49.916                             : en:17
  95. 01:46:33.962                             : en:18
  96. 01:53:30.585                             : en:19
  97. 02:01:15.800                             : en:20
复制代码

速度与激情:特别行动 Fast.and.Furious.Presents.Hobbs.and.Shaw.2019.1080p.WEB-DL.DD5.1.H264-FGT 4.66GB-2.png 速度与激情:特别行动 Fast.and.Furious.Presents.Hobbs.and.Shaw.2019.1080p.WEB-DL.DD5.1.H264-FGT 4.66GB-3.png 速度与激情:特别行动 Fast.and.Furious.Presents.Hobbs.and.Shaw.2019.1080p.WEB-DL.DD5.1.H264-FGT 4.66GB-4.png







回复

使用道具 举报

发表于 2019-10-14 02:33:42 | 显示全部楼层

速度与激情 特别行动 Fast and Furious Presents Hobbs and Shaw 2019 1080p WEB DL DD5 1 H264 FGT 4 66GB

Release date: August 2, 2019
Studio: Universal Pictures
Director: David Leitch
MPAA Rating: N/A
Screenwriter: Chris Morgan
Starring: Dwayne Johnson, Jason Statham, Vanessa Kirby, Idris Elba, Eddie Marsan
Genre: Action

Plot Summary: The Fast & Furious spin-off will be a team-up between Dwayne Johnson’s Agent Luke Hobbs and Jason Statham’s Deckard Shaw.
回复 支持 反对

使用道具 举报

 成长值: 6580

发表于 2019-10-14 08:09:54 | 显示全部楼层

其实我一直觉得楼主的品味不错!呵呵!蓝光电影网太棒了!
回复 支持 反对

使用道具 举报

发表于 2019-10-14 08:38:32 | 显示全部楼层
又是vip专属?
回复 支持 反对

使用道具 举报

发表于 2019-10-14 08:49:33 | 显示全部楼层
非常精彩,感谢分享!
回复 支持 反对

使用道具 举报

发表于 2019-10-14 10:00:38 | 显示全部楼层

0

主题       
32

帖子       
20

蓝光币
蓝光会员

Rank: 1

在线时间5 小时
发消息       
5#
发表于 1 小时前 | 只看该作者
非常精彩,感谢分享!
回复 支持 反对

使用道具 举报

发表于 2019-10-14 10:49:11 | 显示全部楼层
楼主发贴辛苦了,谢谢楼主分享!我觉得蓝光电影网是注册对了!
回复 支持 反对

使用道具 举报

发表于 2019-10-14 11:00:12 | 显示全部楼层
楼主发贴辛苦了,谢谢楼主分享!我觉得蓝光电影网是注册对了!
回复 支持 反对

使用道具 举报

发表于 2019-10-14 11:30:13 | 显示全部楼层
6666666666666666666666
回复 支持 反对

使用道具 举报

发表于 2019-10-14 12:23:12 | 显示全部楼层

非常精彩,感谢分享!
回复 支持 反对

使用道具 举报

懒得打字嘛,点击右侧快捷回复 【右侧内容,后台自定义】
您需要登录后才可以回帖 登录 | 立即加入

本版积分规则

现在加入蓝光电影网,注册一个账号

QQ| 手机版|小黑屋| 蓝光电影网 |网站地图 

Copyright © 2015-2019 Comsenz Inc.  Template by 蓝光电影论坛 All Rights Reserved.

Powered by 蓝光电影网 X3.4

特别声明:本站所有资源均由网上收集而来,版权归原影音公司所有,如果侵犯了你的权益,请通知我们,我们会及时删除侵权内容.

快速回复 返回顶部 返回列表