找回密码

蓝光电影网

查看: 55|回复: 4

[剧情] 煤工歌手冈德曼 Gundermann.2018.1080p.BluRay.x264-JustWatch 9.84GB

[复制链接]

 成长值: 1840

发表于 2019-10-10 22:26:31 | 显示全部楼层 |阅读模式
煤工歌手冈德曼 Gundermann.2018.1080p.BluRay.x264-JustWatch 9.84GB-1.png

译  名 煤工歌手冈德曼
片  名 Gundermann
年  代 2018
产  地 德国
类  别 剧情 / 音乐 / 传记
语  言 德语
上映日期 2018-08-23(德国)
IMDb评分  7.5/10 from 971 users
IMDb链接  http://www.imdb.com/title/tt7205942
豆瓣评分 7.0/10 from 150 users
豆瓣链接 https://movie.douban.com/subject/30301444/
片  长 128分钟
导  演 安德里亚斯·德里森 Andreas Dresen
编  剧 莱拉·斯蒂勒 Laila Stieler
主  演 彼得·施耐德 Peter Schneider
       比亚内·梅德尔 Bjarne M?del
       亚历山大·谢尔 Alexander Scheer
       米兰·佩舍尔 Milan Peschel
       希尔玛·艾奇霍恩 Hilmar Eichhorn
       安娜·乌特伯格 Anna Unterberger
       索斯藤·默滕 Thorsten Merten
       阿克西尔·普拉尔 Axel Prahl
       克里斯蒂安·斯基宾斯基 Christian Skibinski


标  签 德国 | 传记 | 音乐 | 2018 | 历史 | 电影 | 真實事件改編 | 剧情

简  介  

  该片是关于前东德歌手格哈德?冈德曼动荡生平的传记电影。冈德曼白天在露天煤矿驾驶着挖土车,但晚上却作为歌手登上舞台,以自己创作的音乐感染他人。他以生活和生死为题材,却也涉及政治和社会批判主题。凭借其颇具个人化和真实感、既忧郁又富有诗意的作品,他成为八十年代东德地区的大众偶像,但也时常遭遇同上级的冲突。甚至在两德统一后,冈德曼的受欢迎程度亦丝毫不减。然而,1995年时,冈德曼作为间谍与东德国家安全局合作的往事被公开,尽管这似乎并未影响到他的音乐事业,却令他陷入了漫长的个人斗争。该片获2019年德国电影奖包括最佳影片、导演和男主角在内等六项大奖和三项提名。(小易甫字幕组)

获奖情况  

  第32届欧洲电影奖(2019)
  最佳影片(提名)
  最佳喜剧片(提名)
  最佳编剧(提名) 莱拉·斯蒂勒
  最佳服装设计(提名)
  最佳妆发(提名)
  1. Video
  2. ID                                       : 1
  3. Format                                   : AVC
  4. Format/Info                              : Advanced Video Codec
  5. Format profile                           : High@L4
  6. Format settings                          : CABAC / 5 Ref Frames
  7. Format settings, CABAC                   : Yes
  8. Format settings, Reference frames        : 5 frames
  9. Codec ID                                 : V_MPEG4/ISO/AVC
  10. Duration                                 : 2 h 7 min
  11. Bit rate                                 : 10.3 Mb/s
  12. Width                                    : 1 920 pixels
  13. Height                                   : 808 pixels
  14. Display aspect ratio                     : 2.40:1
  15. Frame rate mode                          : Constant
  16. Frame rate                               : 24.000 FPS
  17. Color space                              : YUV
  18. Chroma subsampling                       : 4:2:0
  19. Bit depth                                : 8 bits
  20. Scan type                                : Progressive
  21. Bits/(Pixel*Frame)                       : 0.276
  22. Stream size                              : 9.15 GiB (93%)
  23. Writing library                          : x264 core 157 r2969 d4099dd
  24. Encoding settings                        : cabac=1 / ref=5 / deblock=1:-2:-2 / analyse=0x3:0x113 / me=umh / subme=8 / psy=1 / psy_rd=1.00:0.00 / mixed_ref=1 / me_range=16 / chroma_me=1 / trellis=2 / 8x8dct=1 / cqm=0 / deadzone=21,11 / fast_pskip=0 / chroma_qp_offset=-2 / threads=25 / lookahead_threads=4 / sliced_threads=0 / nr=0 / decimate=1 / interlaced=0 / bluray_compat=0 / constrained_intra=0 / bframes=3 / b_pyramid=2 / b_adapt=2 / b_bias=0 / direct=3 / weightb=1 / open_gop=0 / weightp=2 / keyint=240 / keyint_min=24 / scenecut=40 / intra_refresh=0 / rc_lookahead=50 / rc=2pass / mbtree=1 / bitrate=10282 / ratetol=1.0 / qcomp=0.60 / qpmin=0 / qpmax=69 / qpstep=4 / cplxblur=20.0 / qblur=0.5 / ip_ratio=1.40 / aq=1:1.00
  25. Language                                 : English
  26. Default                                  : Yes
  27. Forced                                   : No

  28. Audio
  29. ID                                       : 2
  30. Format                                   : DTS
  31. Format/Info                              : Digital Theater Systems
  32. Codec ID                                 : A_DTS
  33. Duration                                 : 2 h 7 min
  34. Bit rate mode                            : Constant
  35. Bit rate                                 : 768 kb/s
  36. Channel(s)                               : 6 channels
  37. Channel layout                           : C L R Ls Rs LFE
  38. Sampling rate                            : 48.0 kHz
  39. Frame rate                               : 93.750 FPS (512 SPF)
  40. Bit depth                                : 24 bits
  41. Compression mode                         : Lossy
  42. Stream size                              : 700 MiB (7%)
  43. Language                                 : German
  44. Default                                  : Yes
  45. Forced                                   : No

  46. Text
  47. ID                                       : 3
  48. Format                                   : UTF-8
  49. Codec ID                                 : S_TEXT/UTF8
  50. Codec ID/Info                            : UTF-8 Plain Text
  51. Duration                                 : 2 h 6 min
  52. Bit rate                                 : 51 b/s
  53. Count of elements                        : 1383
  54. Stream size                              : 48.1 KiB (0%)
  55. Language                                 : English
  56. Default                                  : Yes
  57. Forced                                   : No

  58. Menu
  59. 00:00:00.000                             : :Kapitel 01
  60. 00:08:33.583                             : :Kapitel 02
  61. 00:14:12.083                             : :Kapitel 03
  62. 00:20:12.875                             : :Kapitel 04
  63. 00:27:48.458                             : :Kapitel 05
  64. 00:35:30.792                             : :Kapitel 06
  65. 00:43:52.875                             : :Kapitel 07
  66. 00:52:16.292                             : :Kapitel 08
  67. 01:00:34.208                             : :Kapitel 09
  68. 01:07:10.500                             : :Kapitel 10
  69. 01:18:34.083                             : :Kapitel 11
  70. 01:23:20.625                             : :Kapitel 12
  71. 01:32:41.625                             : :Kapitel 13
  72. 01:39:40.083                             : :Kapitel 14
  73. 01:50:15.250                             : :Kapitel 15
  74. 02:03:28.125                             : :Kapitel 16
复制代码

煤工歌手冈德曼 Gundermann.2018.1080p.BluRay.x264-JustWatch 9.84GB-1.png







开通VIP免费下载本站所有资源---点这里
新手必看:资源下载常见问题---点这里
回复

使用道具 举报

发表于 2019-10-11 04:39:48 来自手机 | 显示全部楼层
感谢楼主无私奉献
开通VIP免费下载本站所有资源---点这里
新手必看:资源下载常见问题---点这里
回复 支持 反对

使用道具 举报

发表于 2019-10-11 04:53:06 | 显示全部楼层
楼主发贴辛苦了,谢谢楼主分享!我觉得蓝光电影网是注册对了!
开通VIP免费下载本站所有资源---点这里
新手必看:资源下载常见问题---点这里
回复 支持 反对

使用道具 举报

发表于 2019-10-11 09:06:30 | 显示全部楼层

这东西我收了!谢谢楼主!蓝光电影网真好!
开通VIP免费下载本站所有资源---点这里
新手必看:资源下载常见问题---点这里
回复 支持 反对

使用道具 举报

发表于 2019-10-11 10:55:10 | 显示全部楼层

我看不错噢 谢谢楼主!蓝光电影网越来越好!
开通VIP免费下载本站所有资源---点这里
新手必看:资源下载常见问题---点这里
回复 支持 反对

使用道具 举报

懒得打字嘛,点击右侧快捷回复 【右侧内容,后台自定义】
您需要登录后才可以回帖 登录 | 立即加入

本版积分规则

现在加入蓝光电影网,注册一个账号

QQ| 手机版|小黑屋| 蓝光电影网 |网站地图

Copyright © 2015-2019 Comsenz Inc.  Template by 蓝光电影论坛 All Rights Reserved.

Powered by 蓝光电影网 X3.4

特别声明:本站所有资源均由网上收集而来,版权归原影音公司所有,如果侵犯了你的权益,请通知我们,我们会及时删除侵权内容.

快速回复 返回顶部 返回列表