找回密码

蓝光电影网

查看: 79|回复: 0

[剧情] 残酷的夏天 Cruel.Summer.2016.1080p.BluRay.x264.DTS-FGT 7.25GB

[复制链接]

 成长值: 1840

发表于 2019-10-10 22:22:25 | 显示全部楼层 |阅读模式
残酷的夏天 Cruel.Summer.2016.1080p.BluRay.x264.DTS-FGT 7.25GB-1.png

译  名 残酷的夏天
片  名 Summer Scars
年  代 2015
产  地 英国
类  别 剧情 / 惊悚
上映日期 2016-08-27(英国)
IMDb评分  5.4/10 from 695 users
IMDb链接  http://www.imdb.com/title/tt3071192
豆瓣评分 0/10 from 0 users
豆瓣链接 https://movie.douban.com/subject/26591739/
片  长 78分钟
导  演 Craig Newman / Phillip Escott
编  剧 Phillip Escott / Craig Newman (story)
主  演 Danny Miller
       Reece Douglas


标  签 英国 | 蛋泥 | Horror | 美式恐怖 | 真人真事改编 | 犯罪 | 2015

简  介  

  一個風和日麗的夏日,六個不愛念書的中學生相約翹課,跑進森林裡的秘密基地玩耍,騎著偷來的機車肆意狂飆,意外撞上行經此處的彼得!不過彼得非但沒有生氣,反而邀請他們參與屬於大人們的娛樂,而等到彼此熟稔孩子們失去戒心後,露出真面目的彼得,打算讓這些孩子好好感受大人世界的殘酷!
  1. Video
  2. ID                                       : 1
  3. Format                                   : AVC
  4. Format/Info                              : Advanced Video Codec
  5. Format profile                           : High@L4
  6. Format settings                          : CABAC / 4 Ref Frames
  7. Format settings, CABAC                   : Yes
  8. Format settings, Reference frames        : 4 frames
  9. Codec ID                                 : V_MPEG4/ISO/AVC
  10. Duration                                 : 1 h 20 min
  11. Bit rate                                 : 11.5 Mb/s
  12. Width                                    : 1 920 pixels
  13. Height                                   : 804 pixels
  14. Display aspect ratio                     : 2.40:1
  15. Frame rate mode                          : Constant
  16. Frame rate                               : 24.000 FPS
  17. Color space                              : YUV
  18. Chroma subsampling                       : 4:2:0
  19. Bit depth                                : 8 bits
  20. Scan type                                : Progressive
  21. Bits/(Pixel*Frame)                       : 0.310
  22. Stream size                              : 6.41 GiB (88%)
  23. Title                                    : Cruel.Summer.2016.1080p.BluRay.x264.DTS-FGT
  24. Writing library                          : x264 core 148 r2795M aaa9aa8
  25. Encoding settings                        : cabac=1 / ref=4 / deblock=1:-2:-2 / analyse=0x3:0x113 / me=umh / subme=9 / psy=1 / psy_rd=1.00:0.15 / mixed_ref=1 / me_range=16 / chroma_me=1 / trellis=2 / 8x8dct=1 / cqm=0 / deadzone=21,11 / fast_pskip=1 / chroma_qp_offset=-3 / threads=24 / lookahead_threads=3 / sliced_threads=0 / nr=0 / decimate=1 / interlaced=0 / bluray_compat=0 / constrained_intra=0 / bframes=3 / b_pyramid=2 / b_adapt=1 / b_bias=0 / direct=3 / weightb=1 / open_gop=0 / weightp=2 / keyint=250 / keyint_min=25 / scenecut=40 / intra_refresh=0 / rc_lookahead=50 / rc=2pass / mbtree=1 / bitrate=11500 / ratetol=1.0 / qcomp=0.60 / qpmin=0 / qpmax=69 / qpstep=4 / cplxblur=20.0 / qblur=0.5 / vbv_maxrate=31250 / vbv_bufsize=31250 / nal_hrd=none / filler=0 / ip_ratio=1.40 / aq=1:1.00
  26. Language                                 : English
  27. Default                                  : Yes
  28. Forced                                   : No

  29. Audio
  30. ID                                       : 2
  31. Format                                   : DTS
  32. Format/Info                              : Digital Theater Systems
  33. Codec ID                                 : A_DTS
  34. Duration                                 : 1 h 20 min
  35. Bit rate mode                            : Constant
  36. Bit rate                                 : 1 509 kb/s
  37. Channel(s)                               : 6 channels
  38. Channel layout                           : C L R Ls Rs LFE
  39. Sampling rate                            : 48.0 kHz
  40. Frame rate                               : 93.750 FPS (512 SPF)
  41. Bit depth                                : 16 bits
  42. Compression mode                         : Lossy
  43. Stream size                              : 863 MiB (12%)
  44. Title                                    : Cruel.Summer.2016.1080p.BluRay.x264.DTS-FGT
  45. Language                                 : English
  46. Default                                  : No
  47. Forced                                   : No

  48. Text
  49. ID                                       : 3
  50. Format                                   : UTF-8
  51. Codec ID                                 : S_TEXT/UTF8
  52. Codec ID/Info                            : UTF-8 Plain Text
  53. Duration                                 : 1 h 17 min
  54. Bit rate                                 : 47 b/s
  55. Count of elements                        : 890
  56. Stream size                              : 26.7 KiB (0%)
  57. Language                                 : English
  58. Default                                  : Yes
  59. Forced                                   : No

  60. Menu
  61. 00:00:00.000                             : en:Chapter 01
  62. 00:08:05.333                             : en:Chapter 02
  63. 00:14:59.166                             : en:Chapter 03
  64. 00:22:18.750                             : en:Chapter 04
  65. 00:28:59.250                             : en:Chapter 05
  66. 00:36:28.541                             : en:Chapter 06
  67. 00:42:15.125                             : en:Chapter 07
  68. 00:48:13.041                             : en:Chapter 08
  69. 00:54:22.250                             : en:Chapter 09
  70. 01:00:26.791                             : en:Chapter 10
  71. 01:06:35.916                             : en:Chapter 11
  72. 01:12:34.750                             : en:Chapter 12
复制代码

残酷的夏天 Cruel.Summer.2016.1080p.BluRay.x264.DTS-FGT 7.25GB-2.png 残酷的夏天 Cruel.Summer.2016.1080p.BluRay.x264.DTS-FGT 7.25GB-3.png 残酷的夏天 Cruel.Summer.2016.1080p.BluRay.x264.DTS-FGT 7.25GB-4.png







开通VIP免费下载本站所有资源---点这里
新手必看:资源下载常见问题---点这里
回复

使用道具 举报

懒得打字嘛,点击右侧快捷回复 【右侧内容,后台自定义】
您需要登录后才可以回帖 登录 | 立即加入

本版积分规则

现在加入蓝光电影网,注册一个账号

QQ| 手机版|小黑屋| 蓝光电影网 |网站地图

Copyright © 2015-2019 Comsenz Inc.  Template by 蓝光电影论坛 All Rights Reserved.

Powered by 蓝光电影网 X3.4

特别声明:本站所有资源均由网上收集而来,版权归原影音公司所有,如果侵犯了你的权益,请通知我们,我们会及时删除侵权内容.

快速回复 返回顶部 返回列表