找回密码

蓝光电影网

查看: 105|回复: 3

[剧情] 大佛普拉斯 The.Great.Buddha.Plus.2017.CHINESE.1080p.BluRay.x264.DTS-FGT 9.37GB

[复制链接]

 成长值: 1840

发表于 2019-10-10 22:21:32 | 显示全部楼层 |阅读模式
大佛普拉斯 The.Great.Buddha.Plus.2017.CHINESE.1080p.BluRay.x264.DTS-FGT 9.37GB-1.png

译  名 The Great Buddha+
片  名 大佛普拉斯
年  代 2017
产  地 中国台湾
类  别 剧情 / 喜剧 / 犯罪
语  言 闽南语 / 汉语普通话
上映日期 2017-06-29(台北电影节) / 2017-10-13(中国台湾)
IMDb评分  7.6/10 from 2421 users
IMDb链接  http://www.imdb.com/title/tt7010412
豆瓣评分 8.7/10 from 198151 users
豆瓣链接 https://movie.douban.com/subject/27059130/
片  长 102分钟
导  演 黄信尧 Hsin-yao Huang
编  剧 黄信尧 Hsin-yao Huang
主  演 庄益增 Yizeng Zhuang
       陈竹昇 Chu-sheng Chen
       戴立忍 Leon Dai
       张少怀 Shao-Huai Chang
       陈以文 Yiwen Chen
       纳豆 Na Dow
       丁国琳 Guolin Ding
       李永丰 Yung-Feng Lee
       朱约信 Yueh-hsin Chu
       雷婕熙 J.C Lei
       林美秀 Mei-shiu Lin
       小亮哥 Peifang Wang
       游安顺 An-shun Yu
       梁赫群 Vincent Liang
       脱线 Bingnan Chen
       郑宇彤 Evelyn Yu-Tong Cheng
       鲁文学 Louis Lu


标  签 黑色幽默 | 台湾 | 小人物 | 人性 | 荒诞 | 黑白 | 社会 | 剧情

简  介  

  菜埔(庄益增 饰)是一家雕塑厂的夜间保安,家中有一位重病的老母亲需要照顾。肚财(陈竹昇 饰)是菜埔唯一的朋友,菜埔经常在值夜班的时候把肚财叫过来和他作伴。一天,两人突发奇想决定看一看菜埔的老板黄启文(戴立忍 饰)的行车记录仪里记录了哪些影像,希望向来风流的老板能够贡献出一些精彩的片段以解两个独身男人内心里的寂寞之苦。
  行车记录仪所记录的影像果然没有让菜埔和肚财失望,但与此同时,两人也发现了黄启文的许多不可告人的秘密。实际上,菜埔和肚财的一举一动皆没有逃过黄启文的眼睛,为了保住自己的地位和名声,他决定采取一些必要的行动。

获奖情况  

  第54届台北金马影展(2017)
  金马奖 最佳剧情片(提名)
  金马奖 最佳男配角(提名) 戴立忍
  金马奖 最佳改编剧本 黄信尧
  金马奖 最佳新导演 黄信尧
  金马奖 最佳摄影 钟孟宏
  金马奖 最佳美术设计(提名) 赵思豪
  金马奖 最佳原创配乐 林生祥
  金马奖 最佳原创歌曲 林生祥
  金马奖 最佳剪辑(提名) 赖秀雄
  金马奖 最佳音效(提名) 吴书瑶 / 杜笃之

  第37届香港电影金像奖(2018)
  最佳两岸华语电影

  第42届多伦多国际电影节(2017)
  亚洲电影促进联盟奖 黄信尧

  第12届亚洲电影大奖(2018)
  最佳新导演(提名) 黄信尧
  最佳摄影(提名) 钟孟宏
  最佳原创音乐(提名) 林生祥
  最佳音响 吴书瑶 / 杜笃之

  第19届台北电影节(2017)
  台北电影奖 百万首奖
  台北电影奖 最佳剧情长片
  台北电影奖 最佳剪辑奖 赖秀雄
  台北电影奖 最佳音乐奖 林生祥
  台北电影奖 最佳美术设计 赵思豪

  第5届豆瓣电影年度榜单(2018)
  评分最高的华语电影(提名)
  最受关注的非院线电影(提名)
  评分最高的喜剧片(提名)

  第4届豆瓣电影年度榜单(2017)
  年度华语独立佳作(提名)
  1. Video
  2. ID                                       : 1
  3. Format                                   : AVC
  4. Format/Info                              : Advanced Video Codec
  5. Format profile                           : High@L4
  6. Format settings                          : CABAC / 4 Ref Frames
  7. Format settings, CABAC                   : Yes
  8. Format settings, Reference frames        : 4 frames
  9. Codec ID                                 : V_MPEG4/ISO/AVC
  10. Duration                                 : 1 h 43 min
  11. Bit rate                                 : 11.5 Mb/s
  12. Width                                    : 1 920 pixels
  13. Height                                   : 1 036 pixels
  14. Display aspect ratio                     : 1.85:1
  15. Frame rate mode                          : Constant
  16. Frame rate                               : 24.000 FPS
  17. Color space                              : YUV
  18. Chroma subsampling                       : 4:2:0
  19. Bit depth                                : 8 bits
  20. Scan type                                : Progressive
  21. Bits/(Pixel*Frame)                       : 0.241
  22. Stream size                              : 8.28 GiB (88%)
  23. Title                                    : The.Great.Buddha.Plus.2017.CHINESE.1080p.BluRay.x264.DTS-FGT
  24. Writing library                          : x264 core 148 r2795M aaa9aa8
  25. Encoding settings                        : cabac=1 / ref=4 / deblock=1:-2:-2 / analyse=0x3:0x113 / me=umh / subme=9 / psy=1 / psy_rd=1.00:0.15 / mixed_ref=1 / me_range=16 / chroma_me=1 / trellis=2 / 8x8dct=1 / cqm=0 / deadzone=21,11 / fast_pskip=1 / chroma_qp_offset=-3 / threads=24 / lookahead_threads=3 / sliced_threads=0 / nr=0 / decimate=1 / interlaced=0 / bluray_compat=0 / constrained_intra=0 / bframes=3 / b_pyramid=2 / b_adapt=1 / b_bias=0 / direct=3 / weightb=1 / open_gop=0 / weightp=2 / keyint=250 / keyint_min=25 / scenecut=40 / intra_refresh=0 / rc_lookahead=50 / rc=2pass / mbtree=1 / bitrate=11500 / ratetol=1.0 / qcomp=0.60 / qpmin=0 / qpmax=69 / qpstep=4 / cplxblur=20.0 / qblur=0.5 / vbv_maxrate=31250 / vbv_bufsize=31250 / nal_hrd=none / filler=0 / ip_ratio=1.40 / aq=1:1.00
  26. Language                                 : Chinese
  27. Default                                  : Yes
  28. Forced                                   : No

  29. Audio
  30. ID                                       : 2
  31. Format                                   : DTS
  32. Format/Info                              : Digital Theater Systems
  33. Codec ID                                 : A_DTS
  34. Duration                                 : 1 h 43 min
  35. Bit rate mode                            : Constant
  36. Bit rate                                 : 1 509 kb/s
  37. Channel(s)                               : 6 channels
  38. Channel layout                           : C L R Ls Rs LFE
  39. Sampling rate                            : 48.0 kHz
  40. Frame rate                               : 93.750 FPS (512 SPF)
  41. Bit depth                                : 16 bits
  42. Compression mode                         : Lossy
  43. Stream size                              : 1.09 GiB (12%)
  44. Title                                    : The.Great.Buddha.Plus.2017.CHINESE.1080p.BluRay.x264.DTS-FGT
  45. Language                                 : Chinese
  46. Default                                  : No
  47. Forced                                   : No

  48. Text
  49. ID                                       : 3
  50. Format                                   : UTF-8
  51. Codec ID                                 : S_TEXT/UTF8
  52. Codec ID/Info                            : UTF-8 Plain Text
  53. Duration                                 : 1 h 34 min
  54. Bit rate                                 : 56 b/s
  55. Count of elements                        : 1606
  56. Stream size                              : 39.3 KiB (0%)
  57. Language                                 : English
  58. Default                                  : Yes
  59. Forced                                   : No

  60. Menu
  61. 00:00:00.000                             : en:Chapter 01
  62. 00:14:25.958                             : en:Chapter 02
  63. 00:25:58.166                             : en:Chapter 03
  64. 00:38:31.458                             : en:Chapter 04
  65. 00:50:44.833                             : en:Chapter 05
  66. 00:56:48.333                             : en:Chapter 06
  67. 01:05:01.375                             : en:Chapter 07
  68. 01:12:41.625                             : en:Chapter 08
  69. 01:17:56.291                             : en:Chapter 09
  70. 01:22:56.750                             : en:Chapter 10
  71. 01:29:54.458                             : en:Chapter 11
  72. 01:35:37.125                             : en:Chapter 12
复制代码

大佛普拉斯 The.Great.Buddha.Plus.2017.CHINESE.1080p.BluRay.x264.DTS-FGT 9.37GB-2.png 大佛普拉斯 The.Great.Buddha.Plus.2017.CHINESE.1080p.BluRay.x264.DTS-FGT 9.37GB-3.png 大佛普拉斯 The.Great.Buddha.Plus.2017.CHINESE.1080p.BluRay.x264.DTS-FGT 9.37GB-4.png






开通VIP免费下载本站所有资源---点这里
新手必看:资源下载常见问题---点这里
回复

使用道具 举报

发表于 7 天前 | 显示全部楼层
楼主发贴辛苦了,谢谢楼主分享!我觉得蓝光电影网是注册对了!
开通VIP免费下载本站所有资源---点这里
新手必看:资源下载常见问题---点这里
回复 支持 反对

使用道具 举报

发表于 7 天前 | 显示全部楼层
8.7分很值得一看。确实不错。
开通VIP免费下载本站所有资源---点这里
新手必看:资源下载常见问题---点这里
回复 支持 反对

使用道具 举报

发表于 6 天前 | 显示全部楼层
还行吧。不过,豆瓣评分比国外评分高那么多?!呵呵……
开通VIP免费下载本站所有资源---点这里
新手必看:资源下载常见问题---点这里
回复 支持 反对

使用道具 举报

懒得打字嘛,点击右侧快捷回复 【右侧内容,后台自定义】
您需要登录后才可以回帖 登录 | 立即加入

本版积分规则

现在加入蓝光电影网,注册一个账号

QQ| 手机版|小黑屋| 蓝光电影网 |网站地图

Copyright © 2015-2019 Comsenz Inc.  Template by 蓝光电影论坛 All Rights Reserved.

Powered by 蓝光电影网 X3.4

特别声明:本站所有资源均由网上收集而来,版权归原影音公司所有,如果侵犯了你的权益,请通知我们,我们会及时删除侵权内容.

快速回复 返回顶部 返回列表