找回密码

蓝光电影网

查看: 79|回复: 0

[剧情] 朽木/化外国度电影版 Deadwood.The.Movie.2019.1080p.BluRay.x264-PFa 7.63GB

[复制链接]

 成长值: 1840

发表于 2019-10-10 22:19:22 | 显示全部楼层 |阅读模式
朽木/化外国度电影版 Deadwood.The.Movie.2019.1080p.BluRay.x264-PFa 7.63GB-1.png

译  名 朽木 / 化外国度电影版(台) / 无法无天大电影(港)
片  名 Deadwood
年  代 2019
产  地 美国
类  别 西部
语  言 英语
上映日期 2019-05-31(美国)
IMDb评分  9.3/10 from 397 users
IMDb链接  http://www.imdb.com/title/tt4943998
豆瓣评分 0/10 from 0 users
豆瓣链接 https://movie.douban.com/subject/27164161/
导  演 丹尼尔·米纳汉 Daniel Minahan
编  剧 大卫·米尔契 David Milch
主  演 伊恩·麦柯肖恩 Ian McShane
      蒂莫西·奥利芬特 Timothy Olyphant
      金·迪肯斯 Kim Dickens
      布拉德·道里夫 Brad Dourif
      莫莉·帕克 Molly Parker
      肖恩·布里吉格斯 Sean Bridgers
      罗宾·薇格特 Robin Weigert
      安娜·冈 Anna Gunn
      葆拉·马尔科姆森 Paula Malcomson
      杰弗瑞·琼斯 Jeffrey Jones
      托尼·库兰 Tony Curran
      约翰·浩克斯 John Hawkes
      杰拉尔德·麦克雷尼 Gerald McRaney
      W·厄尔·布朗 W. Earl Brown
      威廉·桑德森 William Sanderson
      戴顿·考利 Dayton Callie
      杰德·佩蒂约翰 Jade Pettyjohn
      Geri Jewell
      基内·扬 Keone Young
      Franklyn Ajaye
      Jerry Cantrell
      伊戈·米基塔斯 Ego Mikitas
      范·埃佩尔森 Van Epperson
      哈尔·戴恩 Hal Dion


标  签 西部 | 美国 | HBO | 2019 | TimothyOlyphant | 美国电影 | 电影 | 这是我最爱的西部片

简  介  

  HBO正式宣布电影版[朽木]将于10月开机,有望明春播出。去年便已传出《朽木》编剧大卫·米尔契已完成了电影版剧本。剧版于2004年至2006年播出了三季,但粉丝始终没有迎来最终的大结局,该剧故事围绕美国疆界之外的一个矿镇展开。此前有消息称原剧众卡司均有望回归,包括伊恩·麦柯肖恩、蒂莫西·奥利芬特、约翰·浩克斯、莫莉·帕克、布拉德·道里夫等。

  1. Video
  2. ID                                       : 1
  3. Format                                   : AVC
  4. Format/Info                              : Advanced Video Codec
  5. Format profile                           : High@L4
  6. Format settings                          : CABAC / 4 Ref Frames
  7. Format settings, CABAC                   : Yes
  8. Format settings, Reference frames        : 4 frames
  9. Codec ID                                 : V_MPEG4/ISO/AVC
  10. Duration                                 : 1 h 50 min
  11. Bit rate                                 : 8 422 kb/s
  12. Width                                    : 1 920 pixels
  13. Height                                   : 960 pixels
  14. Display aspect ratio                     : 2.000
  15. Frame rate mode                          : Constant
  16. Frame rate                               : 23.976 (24000/1001) FPS
  17. Color space                              : YUV
  18. Chroma subsampling                       : 4:2:0
  19. Bit depth                                : 8 bits
  20. Scan type                                : Progressive
  21. Bits/(Pixel*Frame)                       : 0.191
  22. Stream size                              : 6.47 GiB (85%)
  23. Writing library                          : x264 core 157 r2969 d4099dd
  24. Encoding settings                        : cabac=1 / ref=4 / deblock=1:0:0 / analyse=0x3:0x133 / me=umh / subme=8 / psy=1 / psy_rd=1.00:0.00 / mixed_ref=1 / me_range=16 / chroma_me=1 / trellis=1 / 8x8dct=1 / cqm=0 / deadzone=21,11 / fast_pskip=0 / chroma_qp_offset=-2 / threads=12 / lookahead_threads=2 / sliced_threads=0 / nr=0 / decimate=1 / interlaced=0 / bluray_compat=0 / constrained_intra=0 / bframes=3 / b_pyramid=2 / b_adapt=1 / b_bias=0 / direct=1 / weightb=1 / open_gop=0 / weightp=2 / keyint=250 / keyint_min=23 / scenecut=40 / intra_refresh=0 / rc_lookahead=40 / rc=2pass / mbtree=1 / bitrate=8422 / ratetol=1.0 / qcomp=0.60 / qpmin=0 / qpmax=69 / qpstep=4 / cplxblur=20.0 / qblur=0.5 / ip_ratio=1.40 / aq=1:1.00
  25. Language                                 : English
  26. Default                                  : Yes
  27. Forced                                   : No

  28. Audio
  29. ID                                       : 2
  30. Format                                   : DTS
  31. Format/Info                              : Digital Theater Systems
  32. Codec ID                                 : A_DTS
  33. Duration                                 : 1 h 50 min
  34. Bit rate mode                            : Constant
  35. Bit rate                                 : 1 509 kb/s
  36. Channel(s)                               : 6 channels
  37. Channel layout                           : C L R Ls Rs LFE
  38. Sampling rate                            : 48.0 kHz
  39. Frame rate                               : 93.750 FPS (512 SPF)
  40. Bit depth                                : 24 bits
  41. Compression mode                         : Lossy
  42. Stream size                              : 1.16 GiB (15%)
  43. Default                                  : Yes
  44. Forced                                   : No
复制代码

朽木/化外国度电影版 Deadwood.The.Movie.2019.1080p.BluRay.x264-PFa 7.63GB-2.png







开通VIP免费下载本站所有资源---点这里
新手必看:资源下载常见问题---点这里
回复

使用道具 举报

懒得打字嘛,点击右侧快捷回复 【右侧内容,后台自定义】
您需要登录后才可以回帖 登录 | 立即加入

本版积分规则

现在加入蓝光电影网,注册一个账号

QQ| 手机版|小黑屋| 蓝光电影网 |网站地图

Copyright © 2015-2019 Comsenz Inc.  Template by 蓝光电影论坛 All Rights Reserved.

Powered by 蓝光电影网 X3.4

特别声明:本站所有资源均由网上收集而来,版权归原影音公司所有,如果侵犯了你的权益,请通知我们,我们会及时删除侵权内容.

快速回复 返回顶部 返回列表