找回密码

蓝光电影网

查看: 93|回复: 1

[剧情] 科林尼案 The.Collini.Case.2019.1080p.BluRay.x264-GUACAMOLE 9.83GB

[复制链接]

 成长值: 1840

发表于 2019-10-10 22:18:21 | 显示全部楼层 |阅读模式
科林尼案 The.Collini.Case.2019.1080p.BluRay.x264-GUACAMOLE 9.83GB-1.png

译  名 科林尼案 / The Collini Case
片  名 Der Fall Collini
年  代 2019
产  地 德国
类  别 剧情 / 犯罪
语  言 德语 / 意大利语 / 拉丁语
上映日期 2019-04-18(德国)
IMDb评分  7.3/10 from 885 users
IMDb链接  http://www.imdb.com/title/tt8739752
豆瓣评分 0/10 from 0 users
豆瓣链接 https://movie.douban.com/subject/30391289/
片  长 118分钟
导  演 马可·克罗伊茨派因特纳 Marco Kreuzpaintner
编  剧 Robert Gold / Jens-Frederik Otto / 克里斯蒂安·奇贝特 Christian Zübert / Ferdinand von Schirach
主  演 亚历山德拉·玛丽亚·拉娜 Alexandra Maria Lara
       埃利亚斯·穆巴里克 Elyas M'Barek
       海纳·劳特尔巴赫 Heiner Lauterbach


标  签 德国 | 德国电影 | 二战 | 庭审 | 历史 | 23 | 2010s | 成片

简  介  

  A young lawyer stumbles upon a vast conspiracy while investigating a brutal murder ysgou.cc case.
  1. Video
  2. ID                                       : 1
  3. Format                                   : AVC
  4. Format/Info                              : Advanced Video Codec
  5. Format profile                           : High@L4
  6. Format settings                          : CABAC / 5 Ref Frames
  7. Format settings, CABAC                   : Yes
  8. Format settings, Reference frames        : 5 frames
  9. Codec ID                                 : V_MPEG4/ISO/AVC
  10. Duration                                 : 2 h 2 min
  11. Bit rate                                 : 9 943 kb/s
  12. Width                                    : 1 920 pixels
  13. Height                                   : 808 pixels
  14. Display aspect ratio                     : 2.40:1
  15. Frame rate mode                          : Constant
  16. Frame rate                               : 24.000 FPS
  17. Color space                              : YUV
  18. Chroma subsampling                       : 4:2:0
  19. Bit depth                                : 8 bits
  20. Scan type                                : Progressive
  21. Bits/(Pixel*Frame)                       : 0.267
  22. Stream size                              : 8.52 GiB (87%)
  23. Writing library                          : x264 core 157 r2969 d4099dd
  24. Encoding settings                        : cabac=1 / ref=5 / deblock=1:0:0 / analyse=0x3:0x113 / me=umh / subme=8 / psy=1 / psy_rd=1.00:0.00 / mixed_ref=1 / me_range=16 / chroma_me=1 / trellis=2 / 8x8dct=1 / cqm=0 / deadzone=21,11 / fast_pskip=0 / chroma_qp_offset=-2 / threads=25 / lookahead_threads=4 / sliced_threads=0 / nr=0 / decimate=1 / interlaced=0 / bluray_compat=0 / constrained_intra=0 / bframes=3 / b_pyramid=2 / b_adapt=1 / b_bias=0 / direct=1 / weightb=1 / open_gop=0 / weightp=2 / keyint=250 / keyint_min=24 / scenecut=40 / intra_refresh=0 / rc_lookahead=50 / rc=2pass / mbtree=1 / bitrate=9943 / ratetol=1.0 / qcomp=0.60 / qpmin=0 / qpmax=69 / qpstep=4 / cplxblur=20.0 / qblur=0.5 / ip_ratio=1.40 / aq=1:1.00
  25. Default                                  : Yes
  26. Forced                                   : No

  27. Audio
  28. ID                                       : 2
  29. Format                                   : DTS
  30. Format/Info                              : Digital Theater Systems
  31. Codec ID                                 : A_DTS
  32. Duration                                 : 2 h 2 min
  33. Bit rate mode                            : Constant
  34. Bit rate                                 : 1 509 kb/s
  35. Channel(s)                               : 6 channels
  36. Channel layout                           : C L R Ls Rs LFE
  37. Sampling rate                            : 48.0 kHz
  38. Frame rate                               : 93.750 FPS (512 SPF)
  39. Bit depth                                : 24 bits
  40. Compression mode                         : Lossy
  41. Stream size                              : 1.29 GiB (13%)
  42. Language                                 : German
  43. Default                                  : Yes
  44. Forced                                   : No

  45. Text
  46. ID                                       : 3
  47. Format                                   : UTF-8
  48. Codec ID                                 : S_TEXT/UTF8
  49. Codec ID/Info                            : UTF-8 Plain Text
  50. Duration                                 : 1 h 54 min
  51. Bit rate                                 : 42 b/s
  52. Count of elements                        : 955
  53. Stream size                              : 35.4 KiB (0%)
  54. Language                                 : English
  55. Default                                  : Yes
  56. Forced                                   : Yes

  57. Menu
  58. 00:00:00.000                             : :Kapitel 01
  59. 00:05:11.250                             : :Kapitel 02
  60. 00:13:40.417                             : :Kapitel 03
  61. 00:20:14.917                             : :Kapitel 04
  62. 00:26:18.583                             : :Kapitel 05
  63. 00:33:56.875                             : :Kapitel 06
  64. 00:40:25.000                             : :Kapitel 07
  65. 00:48:11.583                             : :Kapitel 08
  66. 00:58:25.208                             : :Kapitel 09
  67. 01:05:15.792                             : :Kapitel 10
  68. 01:10:55.500                             : :Kapitel 11
  69. 01:20:01.458                             : :Kapitel 12
  70. 01:28:08.667                             : :Kapitel 13
  71. 01:35:51.208                             : :Kapitel 14
  72. 01:43:44.958                             : :Kapitel 15
  73. 01:50:53.292                             : :Kapitel 16
  74. 01:56:29.542                             : :Kapitel 17
复制代码

科林尼案 The.Collini.Case.2019.1080p.BluRay.x264-GUACAMOLE 9.83GB-1.png







开通VIP免费下载本站所有资源---点这里
新手必看:资源下载常见问题---点这里
回复

使用道具 举报

发表于 2019-10-10 22:38:00 | 显示全部楼层

这个帖子不回对不起自己!我想我是一天也不能离开蓝光电影网
开通VIP免费下载本站所有资源---点这里
新手必看:资源下载常见问题---点这里
回复 支持 反对

使用道具 举报

懒得打字嘛,点击右侧快捷回复 【右侧内容,后台自定义】
您需要登录后才可以回帖 登录 | 立即加入

本版积分规则

现在加入蓝光电影网,注册一个账号

QQ| 手机版|小黑屋| 蓝光电影网 |网站地图

Copyright © 2015-2019 Comsenz Inc.  Template by 蓝光电影论坛 All Rights Reserved.

Powered by 蓝光电影网 X3.4

特别声明:本站所有资源均由网上收集而来,版权归原影音公司所有,如果侵犯了你的权益,请通知我们,我们会及时删除侵权内容.

快速回复 返回顶部 返回列表