找回密码

蓝光电影网

查看: 95|回复: 1

[喜剧] 蔡李佛拳 Choileefat.2011.1080p.BluRay.x264-aBD 6.55GB

[复制链接]

 成长值: 1840

发表于 2019-10-10 22:17:36 | 显示全部楼层 |阅读模式
蔡李佛拳 Choileefat.2011.1080p.BluRay.x264-aBD 6.55GB-1.png

译  名 Choi Lee Fut / Choileefat / Choy Lee Fut Kung Fu / 蔡李佛拳2010
片  名 蔡李佛拳
年  代 2011
产  地 中国大陆 / 中国香港
类  别 喜剧 / 动作
语  言 汉语普通话 / 粤语
上映日期 2011-05-10(中国大陆)
IMDb评分  4.3/10 from 25 users
IMDb链接  http://www.imdb.com/title/tt2472668
豆瓣评分 3.4/10 from 2615 users
豆瓣链接 https://movie.douban.com/subject/4892342/
片  长 91分钟
导  演 程东 John Ching Tung
编  剧 何东
主  演 王宝强 Baoqiang Wang
       叶璇 Michelle Ye
       吴孟达 Man Tat Ng
       惠英红 Kara Hui
       黄一飞 Yut Fei Wong
       熊乃瑾 Naijin Xiong
       谢苗 Miu Tse
       徐少强 Norman Chu


标  签 喜剧 | 动作 | 中国 | 烂片 | 2011 | 香港 | 大陆 | 搞笑

简  介  

  热爱武术的青年陈国成(王宝强 饰)从小在美国长大,他一度夺得大学校际拳击冠军。为了取得更高成就,他毅然返回家乡广东新会。谁知刚刚踏上祖国的土地,便遭遇接二连三的倒霉事,先是被人骗去手机,接着又因误会被少女晶晶和其师兄藏龙臭揍一顿,之后更是丢掉所有行李。
  另一方面,国成的老爹陈皮(吴孟达 饰)是蔡李佛拳的掌门人,他一心忙于生意,于是希望接这一机会将掌门之位传给儿子。谁知管家藏洞阴差阳错接回来一个黑人,结果闹出一连串的笑话。此时彷徨街头、无所依靠的国成又再次邂逅晶晶。经过一番解释,所有误会烟消云散。他也开始了新的武术人生……
  1. Video
  2. ID                                       : 1
  3. Format                                   : AVC
  4. Format/Info                              : Advanced Video Codec
  5. Format profile                           : High@L4
  6. Format settings                          : CABAC / 4 Ref Frames
  7. Format settings, CABAC                   : Yes
  8. Format settings, ReFrames                : 4 frames
  9. Muxing mode                              : Header stripping
  10. Codec ID                                 : V_MPEG4/ISO/AVC
  11. Duration                                 : 1 h 35 min
  12. Bit rate                                 : 8 312 kb/s
  13. Width                                    : 1 920 pixels
  14. Height                                   : 1 080 pixels
  15. Display aspect ratio                     : 16:9
  16. Frame rate mode                          : Constant
  17. Frame rate                               : 24.000 FPS
  18. Color space                              : YUV
  19. Chroma subsampling                       : 4:2:0
  20. Bit depth                                : 8 bits
  21. Scan type                                : Progressive
  22. Bits/(Pixel*Frame)                       : 0.167
  23. Stream size                              : 5.41 GiB (83%)
  24. Writing library                          : x264 core 120 r2120 0c7dab9
  25. Encoding settings                        : cabac=1 / ref=4 / deblock=1:-1:-1 / analyse=0x3:0x113 / me=umh / subme=7 / psy=1 / psy_rd=1.00:0.00 / mixed_ref=1 / me_range=16 / chroma_me=1 / trellis=1 / 8x8dct=1 / cqm=0 / deadzone=21,11 / fast_pskip=1 / chroma_qp_offset=-2 / threads=12 / sliced_threads=0 / nr=0 / decimate=1 / interlaced=0 / bluray_compat=0 / constrained_intra=0 / bframes=3 / b_pyramid=2 / b_adapt=2 / b_bias=0 / direct=3 / weightb=1 / open_gop=0 / weightp=2 / keyint=250 / keyint_min=24 / scenecut=40 / intra_refresh=0 / rc_lookahead=40 / rc=2pass / mbtree=1 / bitrate=8312 / ratetol=1.0 / qcomp=0.60 / qpmin=0 / qpmax=69 / qpstep=4 / cplxblur=20.0 / qblur=0.5 / vbv_maxrate=50000 / vbv_bufsize=50000 / nal_hrd=none / ip_ratio=1.40 / aq=1:1.00
  26. Language                                 : Chinese
  27. Default                                  : Yes
  28. Forced                                   : Yes

  29. Audio
  30. ID                                       : 2
  31. Format                                   : DTS
  32. Format/Info                              : Digital Theater Systems
  33. Muxing mode                              : Header stripping
  34. Codec ID                                 : A_DTS
  35. Duration                                 : 1 h 35 min
  36. Bit rate mode                            : Constant
  37. Bit rate                                 : 1 509 kb/s
  38. Channel(s)                               : 6 channels
  39. Channel positions                        : Front: L C R, Side: L R, LFE
  40. Sampling rate                            : 48.0 kHz
  41. Frame rate                               : 93.750 FPS (512 SPF)
  42. Bit depth                                : 16 bits
  43. Compression mode                         : Lossy
  44. Stream size                              : 1.01 GiB (15%)
  45. Language                                 : Chinese
  46. Default                                  : Yes
  47. Forced                                   : Yes

  48. Text
  49. ID                                       : 3
  50. Format                                   : UTF-8
  51. Codec ID                                 : S_TEXT/UTF8
  52. Codec ID/Info                            : UTF-8 Plain Text
  53. Language                                 : English
  54. Default                                  : Yes
  55. Forced                                   : No
复制代码

蔡李佛拳 Choileefat.2011.1080p.BluRay.x264-aBD 6.55GB-2.png 蔡李佛拳 Choileefat.2011.1080p.BluRay.x264-aBD 6.55GB-3.png 蔡李佛拳 Choileefat.2011.1080p.BluRay.x264-aBD 6.55GB-4.png






开通VIP免费下载本站所有资源---点这里
新手必看:资源下载常见问题---点这里
回复

使用道具 举报

发表于 2019-10-10 23:42:03 | 显示全部楼层
感謝分享這影片
开通VIP免费下载本站所有资源---点这里
新手必看:资源下载常见问题---点这里
回复 支持 反对

使用道具 举报

懒得打字嘛,点击右侧快捷回复 【右侧内容,后台自定义】
您需要登录后才可以回帖 登录 | 立即加入

本版积分规则

现在加入蓝光电影网,注册一个账号

QQ| 手机版|小黑屋| 蓝光电影网 |网站地图

Copyright © 2015-2019 Comsenz Inc.  Template by 蓝光电影论坛 All Rights Reserved.

Powered by 蓝光电影网 X3.4

特别声明:本站所有资源均由网上收集而来,版权归原影音公司所有,如果侵犯了你的权益,请通知我们,我们会及时删除侵权内容.

快速回复 返回顶部 返回列表