找回密码

蓝光电影网

查看: 52|回复: 0

[剧情] 豪客 Shanghai.Lil.1973.CHINESE.1080p.BluRay.x264.DTS-FGT 7.68GB

[复制链接]

 成长值: 1840

发表于 2019-10-10 22:16:37 | 显示全部楼层 |阅读模式
豪客 Shanghai.Lil.1973.CHINESE.1080p.BluRay.x264.DTS-FGT 7.68GB-1.png

译  名 The Champion
片  名 豪客
年  代 1973
产  地 中国香港
类  别 剧情 / 动作
语  言 汉语普通话
上映日期 1973-01-12
IMDb评分  5.7/10 from 19 users
IMDb链接  http://www.imdb.com/title/tt0200120
豆瓣评分 0/10 from 0 users
豆瓣链接 https://movie.douban.com/subject/4324453/
片  长 USA: 90 分钟
导  演 诸葛青云 / 杨静尘
编  剧 杨静尘
主  演 金汉
       施思
       易原


标  签 香港 | 邵氏 | 动作 | 香港电影 | 诸葛青云 | 杨静尘 | 1973 | 金汉

简  介  

  暂无相关剧情介绍
  1. Video
  2. ID                                       : 1
  3. Format                                   : AVC
  4. Format/Info                              : Advanced Video Codec
  5. Format profile                           : High@L4
  6. Format settings                          : CABAC / 4 Ref Frames
  7. Format settings, CABAC                   : Yes
  8. Format settings, Reference frames        : 4 frames
  9. Codec ID                                 : V_MPEG4/ISO/AVC
  10. Duration                                 : 1 h 29 min
  11. Bit rate                                 : 11.5 Mb/s
  12. Width                                    : 1 920 pixels
  13. Height                                   : 808 pixels
  14. Display aspect ratio                     : 2.40:1
  15. Frame rate mode                          : Constant
  16. Frame rate                               : 24.000 FPS
  17. Color space                              : YUV
  18. Chroma subsampling                       : 4:2:0
  19. Bit depth                                : 8 bits
  20. Scan type                                : Progressive
  21. Bits/(Pixel*Frame)                       : 0.309
  22. Stream size                              : 7.20 GiB (94%)
  23. Title                                    : Shanghai.Lil.1973.CHINESE.1080p.BluRay.x264.DTS-FGT
  24. Writing library                          : x264 core 148 r2795M aaa9aa8
  25. Encoding settings                        : cabac=1 / ref=4 / deblock=1:-2:-2 / analyse=0x3:0x113 / me=umh / subme=9 / psy=1 / psy_rd=1.00:0.15 / mixed_ref=1 / me_range=16 / chroma_me=1 / trellis=2 / 8x8dct=1 / cqm=0 / deadzone=21,11 / fast_pskip=1 / chroma_qp_offset=-3 / threads=24 / lookahead_threads=3 / sliced_threads=0 / nr=0 / decimate=1 / interlaced=0 / bluray_compat=0 / constrained_intra=0 / bframes=3 / b_pyramid=2 / b_adapt=1 / b_bias=0 / direct=3 / weightb=1 / open_gop=0 / weightp=2 / keyint=250 / keyint_min=25 / scenecut=40 / intra_refresh=0 / rc_lookahead=50 / rc=2pass / mbtree=1 / bitrate=11500 / ratetol=1.0 / qcomp=0.60 / qpmin=0 / qpmax=69 / qpstep=4 / cplxblur=20.0 / qblur=0.5 / vbv_maxrate=31250 / vbv_bufsize=31250 / nal_hrd=none / filler=0 / ip_ratio=1.40 / aq=1:1.00
  26. Language                                 : Chinese
  27. Default                                  : Yes
  28. Forced                                   : No

  29. Audio
  30. ID                                       : 2
  31. Format                                   : DTS
  32. Format/Info                              : Digital Theater Systems
  33. Codec ID                                 : A_DTS
  34. Duration                                 : 1 h 29 min
  35. Bit rate mode                            : Constant
  36. Bit rate                                 : 768 kb/s
  37. Channel(s)                               : 2 channels
  38. Channel layout                           : L R
  39. Sampling rate                            : 48.0 kHz
  40. Frame rate                               : 93.750 FPS (512 SPF)
  41. Bit depth                                : 16 bits
  42. Compression mode                         : Lossy
  43. Stream size                              : 492 MiB (6%)
  44. Title                                    : Shanghai.Lil.1973.CHINESE.1080p.BluRay.x264.DTS-FGT
  45. Language                                 : Chinese
  46. Default                                  : Yes
  47. Forced                                   : No

  48. Text
  49. ID                                       : 3
  50. Format                                   : UTF-8
  51. Codec ID                                 : S_TEXT/UTF8
  52. Codec ID/Info                            : UTF-8 Plain Text
  53. Duration                                 : 1 h 22 min
  54. Bit rate                                 : 18 b/s
  55. Count of elements                        : 550
  56. Stream size                              : 11.1 KiB (0%)
  57. Language                                 : English
  58. Default                                  : Yes
  59. Forced                                   : No

  60. Menu
  61. 00:00:00.000                             : en:Chapter 01
  62. 00:07:57.250                             : en:Chapter 02
  63. 00:15:16.500                             : en:Chapter 03
  64. 00:22:50.541                             : en:Chapter 04
  65. 00:32:02.125                             : en:Chapter 05
  66. 00:40:23.458                             : en:Chapter 06
  67. 00:49:36.750                             : en:Chapter 07
  68. 00:56:10.000                             : en:Chapter 08
  69. 01:02:59.250                             : en:Chapter 09
  70. 01:11:26.916                             : en:Chapter 10
  71. 01:16:28.125                             : en:Chapter 11
  72. 01:23:02.333                             : en:Chapter 12
复制代码

豪客 Shanghai.Lil.1973.CHINESE.1080p.BluRay.x264.DTS-FGT 7.68GB-2.png 豪客 Shanghai.Lil.1973.CHINESE.1080p.BluRay.x264.DTS-FGT 7.68GB-3.png 豪客 Shanghai.Lil.1973.CHINESE.1080p.BluRay.x264.DTS-FGT 7.68GB-4.png







开通VIP免费下载本站所有资源---点这里
新手必看:资源下载常见问题---点这里
回复

使用道具 举报

懒得打字嘛,点击右侧快捷回复 【右侧内容,后台自定义】
您需要登录后才可以回帖 登录 | 立即加入

本版积分规则

现在加入蓝光电影网,注册一个账号

QQ| 手机版|小黑屋| 蓝光电影网 |网站地图

Copyright © 2015-2019 Comsenz Inc.  Template by 蓝光电影论坛 All Rights Reserved.

Powered by 蓝光电影网 X3.4

特别声明:本站所有资源均由网上收集而来,版权归原影音公司所有,如果侵犯了你的权益,请通知我们,我们会及时删除侵权内容.

快速回复 返回顶部 返回列表