找回密码

蓝光电影网

查看: 49|回复: 0

[惊悚] 尖叫的头骨 The.Screaming.Skull.1958.1080p.BluRay.x264-LATENCY 5.47GB

[复制链接]

 成长值: 1840

发表于 2019-10-10 22:13:51 | 显示全部楼层 |阅读模式
尖叫的头骨 The.Screaming.Skull.1958.1080p.BluRay.x264-LATENCY 5.47GB-1.png

译  名 尖叫的头骨
片  名 The Screaming Skull
年  代 1958
产  地 美国
类  别 惊悚 / 恐怖
语  言 英语
上映日期 1958-01(美国)
IMDb评分  3.7/10 from 2814 users
IMDb链接  http://www.imdb.com/title/tt0052169
豆瓣评分 0/10 from 0 users
豆瓣链接 https://movie.douban.com/subject/2362646/
片  长 68 分钟
导  演 Alex Nicol
主  演 John Hudson
       Peggy Webber
       Russ Conway


标  签 美国 | 恐怖 | 惊悚 | 1958 | BDMV | 美国电影 | 国外电影 | 不是默片

简  介  

  The film opens with a narrated disclaimer over footage of an opening coffin. The narrator explains that the film's climax is so terrifying that it may kill the viewer, and reassures the audience that if they die of fright while watching the film, they will receive a free burial service, and it closes on the casket which has a card inside reading "Reserved for You."[1]
  Newlyweds Jenni (Peggy Webber) and Eric (John Hudson) move into Eric's palatial country home. Jenni is Eric's second wife; his first wife Marion died when she accidentally slipped and hit her head on the edge of a decorative pond on the estate. At the home they meet Eric's friends, the Reverend Snow (Russ Conway) and his wife (Toni Johnson), as well as Mickey (Alex Nicol), the developmentally disabled gardener. Eric privately mentions to the Snows that Jenni spent time in an asylum following the sudden death of both her parents, and Mrs. Snow reveals that Jenni is very wealthy.
  Jenni is disturbed both by Mickey's belief that Marion's ghost wanders the estate and by Marion's self-portrait inside the house, which Jenni believes resembles her mother. When she begins to hear unexplained screaming noises and see skulls around her house, she believes that Marion is haunting her. Though Eric speculates to Jenni that Mickey, who was a childhood friend of Marion and thus dislikes Jenni, may be behind the trickery, Jenni worries that she is going insane. Eric then suggests to remove Marion's self-portrait from the home. Eric and Jenni take the painting outside and burn it. While they clean up the remains of the painting, a skull emerges from the ashes. While Jenni panics at the sight of the skull, Eric denies that the skull is there. Jenni faints and Eric withdraws the skull and hides it, revealing that he was responsible for the trickery all along in an effort to get hold of her wealth.
  Believing she has finally lost her sanity, Jenni resolves to be committed. She tells Eric that the entire property will be meticulously searched for the skull as a last resort. Before Eric can retrieve it, Mickey secretly steals the skull and brings it to the Reverend, revealing Eric's plans. That night, Eric prepares to murder Jenni and stage it as a suicide. Jenni sees Marion's ghost in Mickey's greenhouse and flees back to the house. When she enters, Eric begins throttling her. The ghost then appears and chases Eric outside and about the property; it finally corners and attacks him, drowning him in the decorative pond.
  After Jenni regains consciousness, the Snows arrive. Mrs. Snow comforts a hysterical Jenni and the Reverend discovers Eric's body in the pond. Some undisclosed time later, Jenni and the Snows depart from the house. Reverend Snow declares whether or not Marion's death was an accident will remain a mystery.
  1. Video
  2. ID                                       : 1
  3. Format                                   : AVC
  4. Format/Info                              : Advanced Video Codec
  5. Format profile                           : High@L4
  6. Format settings                          : CABAC / 4 Ref Frames
  7. Format settings, CABAC                   : Yes
  8. Format settings, Reference frames        : 4 frames
  9. Codec ID                                 : V_MPEG4/ISO/AVC
  10. Duration                                 : 1 h 8 min
  11. Bit rate                                 : 9 975 kb/s
  12. Width                                    : 1 920 pixels
  13. Height                                   : 1 040 pixels
  14. Display aspect ratio                     : 1.85:1
  15. Frame rate mode                          : Constant
  16. Frame rate                               : 23.976 (24000/1001) FPS
  17. Color space                              : YUV
  18. Chroma subsampling                       : 4:2:0
  19. Bit depth                                : 8 bits
  20. Scan type                                : Progressive
  21. Bits/(Pixel*Frame)                       : 0.208
  22. Stream size                              : 4.75 GiB (87%)
  23. Writing library                          : x264 core 157 r2969 d4099dd
  24. Encoding settings                        : cabac=1 / ref=4 / deblock=1:0:0 / analyse=0x3:0x113 / me=umh / subme=8 / psy=1 / psy_rd=1.00:0.00 / mixed_ref=1 / me_range=16 / chroma_me=1 / trellis=2 / 8x8dct=1 / cqm=0 / deadzone=21,11 / fast_pskip=0 / chroma_qp_offset=-2 / threads=32 / lookahead_threads=5 / sliced_threads=0 / nr=0 / decimate=1 / interlaced=0 / bluray_compat=0 / constrained_intra=0 / bframes=3 / b_pyramid=2 / b_adapt=1 / b_bias=0 / direct=3 / weightb=1 / open_gop=0 / weightp=2 / keyint=250 / keyint_min=23 / scenecut=40 / intra_refresh=0 / rc_lookahead=50 / rc=2pass / mbtree=1 / bitrate=9975 / ratetol=1.0 / qcomp=0.60 / qpmin=0 / qpmax=69 / qpstep=4 / cplxblur=20.0 / qblur=0.5 / ip_ratio=1.40 / aq=1:1.00
  25. Default                                  : Yes
  26. Forced                                   : No

  27. Audio
  28. ID                                       : 2
  29. Format                                   : DTS
  30. Format/Info                              : Digital Theater Systems
  31. Codec ID                                 : A_DTS
  32. Duration                                 : 1 h 8 min
  33. Bit rate mode                            : Constant
  34. Bit rate                                 : 1 509 kb/s
  35. Channel(s)                               : 2 channels
  36. Channel layout                           : L R
  37. Sampling rate                            : 48.0 kHz
  38. Frame rate                               : 93.750 FPS (512 SPF)
  39. Bit depth                                : 24 bits
  40. Compression mode                         : Lossy
  41. Stream size                              : 735 MiB (13%)
  42. Title                                    : English
  43. Language                                 : English
  44. Default                                  : No
  45. Forced                                   : No

  46. Text
  47. ID                                       : 3
  48. Format                                   : UTF-8
  49. Codec ID                                 : S_TEXT/UTF8
  50. Codec ID/Info                            : UTF-8 Plain Text
  51. Duration                                 : 1 h 7 min
  52. Bit rate                                 : 45 b/s
  53. Count of elements                        : 846
  54. Stream size                              : 22.4 KiB (0%)
  55. Title                                    : English-HI
  56. Language                                 : English
  57. Default                                  : No
  58. Forced                                   : No

  59. Menu
  60. 00:00:00.000                             : en:Chapter 01
  61. 00:04:30.061                             : en:Chapter 02
  62. 00:10:48.398                             : en:Chapter 03
  63. 00:17:23.834                             : en:Chapter 04
  64. 00:22:40.901                             : en:Chapter 05
  65. 00:28:18.822                             : en:Chapter 06
  66. 00:34:40.912                             : en:Chapter 07
  67. 00:39:26.823                             : en:Chapter 08
  68. 00:45:53.417                             : en:Chapter 09
  69. 00:52:36.779                             : en:Chapter 10
  70. 00:57:44.127                             : en:Chapter 11
  71. 01:03:09.911                             : en:Chapter 12
复制代码

尖叫的头骨 The.Screaming.Skull.1958.1080p.BluRay.x264-LATENCY 5.47GB-1.png







开通VIP免费下载本站所有资源---点这里
新手必看:资源下载常见问题---点这里
回复

使用道具 举报

懒得打字嘛,点击右侧快捷回复 【右侧内容,后台自定义】
您需要登录后才可以回帖 登录 | 立即加入

本版积分规则

现在加入蓝光电影网,注册一个账号

QQ| 手机版|小黑屋| 蓝光电影网 |网站地图

Copyright © 2015-2019 Comsenz Inc.  Template by 蓝光电影论坛 All Rights Reserved.

Powered by 蓝光电影网 X3.4

特别声明:本站所有资源均由网上收集而来,版权归原影音公司所有,如果侵犯了你的权益,请通知我们,我们会及时删除侵权内容.

快速回复 返回顶部 返回列表