找回密码

蓝光电影网

查看: 129|回复: 1

[恐怖] 剥皮女魔 Skinner.1993.1080p.BluRay.x264.DTS-FGT 8.02GB

[复制链接]

 成长值: 1840

发表于 2019-10-10 21:52:08 | 显示全部楼层 |阅读模式
剥皮女魔 Skinner.1993.1080p.BluRay.x264.DTS-FGT 8.02GB-1.png

译  名 剥皮女魔
片  名 Skinner
年  代 1993
产  地 美国
类  别 恐怖
语  言 英语
上映日期 1995-07-12
IMDb评分  5.0/10 from 500 users
IMDb链接  http://www.imdb.com/title/tt0114466
豆瓣评分 0/10 from 0 users
豆瓣链接 https://movie.douban.com/subject/1298775/
片  长 90分钟
导  演 Ivan Nagy (I)
编  剧 Paul Hart-Wilden
主  演 Traci Lords
       Richard SchiffDavid
       Ted Raimi


标  签 恐怖 | 血腥 | 变态 | 剥皮女魔 | 杀戮 | 美国电影 | VCD | 1

简  介  

  海蒂被一残暴的神经病患丹尼斯毁容,他专门在城市里的街道及河边猎取不知情的妓女,海蒂一心复仇,无奈计划一次又一次地失败。正当另一名女子凯莉被丹尼斯抓走之际,海蒂及凯莉的丈夫杰夫及时在一间废弃的仓库找到了他们,就在丹尼斯准备切割凯莉时,海蒂牺牲了自己...。
  1. Video
  2. ID                                       : 1
  3. Format                                   : AVC
  4. Format/Info                              : Advanced Video Codec
  5. Format profile                           : High@L4
  6. Format settings                          : CABAC / 4 Ref Frames
  7. Format settings, CABAC                   : Yes
  8. Format settings, Reference frames        : 4 frames
  9. Codec ID                                 : V_MPEG4/ISO/AVC
  10. Duration                                 : 1 h 28 min
  11. Bit rate                                 : 11.5 Mb/s
  12. Width                                    : 1 920 pixels
  13. Height                                   : 1 080 pixels
  14. Display aspect ratio                     : 16:9
  15. Frame rate mode                          : Constant
  16. Frame rate                               : 23.976 (24000/1001) FPS
  17. Color space                              : YUV
  18. Chroma subsampling                       : 4:2:0
  19. Bit depth                                : 8 bits
  20. Scan type                                : Progressive
  21. Bits/(Pixel*Frame)                       : 0.231
  22. Stream size                              : 7.09 GiB (88%)
  23. Title                                    : Skinner.1993.1080p.BluRay.x264.DTS-FGT
  24. Writing library                          : x264 core 148 r2795M aaa9aa8
  25. Encoding settings                        : cabac=1 / ref=4 / deblock=1:-2:-2 / analyse=0x3:0x113 / me=umh / subme=9 / psy=1 / psy_rd=1.00:0.15 / mixed_ref=1 / me_range=16 / chroma_me=1 / trellis=2 / 8x8dct=1 / cqm=0 / deadzone=21,11 / fast_pskip=1 / chroma_qp_offset=-3 / threads=24 / lookahead_threads=3 / sliced_threads=0 / nr=0 / decimate=1 / interlaced=0 / bluray_compat=0 / constrained_intra=0 / bframes=3 / b_pyramid=2 / b_adapt=1 / b_bias=0 / direct=3 / weightb=1 / open_gop=0 / weightp=2 / keyint=250 / keyint_min=25 / scenecut=40 / intra_refresh=0 / rc_lookahead=50 / rc=2pass / mbtree=1 / bitrate=11500 / ratetol=1.0 / qcomp=0.60 / qpmin=0 / qpmax=69 / qpstep=4 / cplxblur=20.0 / qblur=0.5 / vbv_maxrate=31250 / vbv_bufsize=31250 / nal_hrd=none / filler=0 / ip_ratio=1.40 / aq=1:1.00
  26. Language                                 : English
  27. Default                                  : Yes
  28. Forced                                   : No

  29. Audio
  30. ID                                       : 2
  31. Format                                   : DTS
  32. Format/Info                              : Digital Theater Systems
  33. Codec ID                                 : A_DTS
  34. Duration                                 : 1 h 28 min
  35. Bit rate mode                            : Constant
  36. Bit rate                                 : 1 509 kb/s
  37. Channel(s)                               : 2 channels
  38. Channel layout                           : L R
  39. Sampling rate                            : 48.0 kHz
  40. Frame rate                               : 93.750 FPS (512 SPF)
  41. Bit depth                                : 16 bits
  42. Compression mode                         : Lossy
  43. Stream size                              : 952 MiB (12%)
  44. Title                                    : Skinner.1993.1080p.BluRay.x264.DTS-FGT
  45. Language                                 : English
  46. Default                                  : Yes
  47. Forced                                   : No

  48. Text
  49. ID                                       : 3
  50. Format                                   : UTF-8
  51. Codec ID                                 : S_TEXT/UTF8
  52. Codec ID/Info                            : UTF-8 Plain Text
  53. Duration                                 : 1 h 24 min
  54. Bit rate                                 : 30 b/s
  55. Count of elements                        : 825
  56. Stream size                              : 19.1 KiB (0%)
  57. Language                                 : English
  58. Default                                  : Yes
  59. Forced                                   : No

  60. Menu
  61. 00:00:00.000                             : en:Chapter 1
  62. 00:04:13.212                             : en:Chapter 2
  63. 00:15:57.665                             : en:Chapter 3
  64. 00:27:34.610                             : en:Chapter 4
  65. 00:47:22.464                             : en:Chapter 5
  66. 01:03:11.705                             : en:Chapter 6
  67. 01:16:16.321                             : en:Chapter 7
  68. 01:25:23.492                             : en:Chapter 8
复制代码

剥皮女魔 Skinner.1993.1080p.BluRay.x264.DTS-FGT 8.02GB-2.png 剥皮女魔 Skinner.1993.1080p.BluRay.x264.DTS-FGT 8.02GB-3.png 剥皮女魔 Skinner.1993.1080p.BluRay.x264.DTS-FGT 8.02GB-4.png







开通VIP免费下载本站所有资源---点这里
新手必看:资源下载常见问题---点这里
回复

使用道具 举报

发表于 2019-10-11 00:41:26 | 显示全部楼层

这个帖子不回对不起自己!我想我是一天也不能离开蓝光电影网
开通VIP免费下载本站所有资源---点这里
新手必看:资源下载常见问题---点这里
回复 支持 反对

使用道具 举报

懒得打字嘛,点击右侧快捷回复 【右侧内容,后台自定义】
您需要登录后才可以回帖 登录 | 立即加入

本版积分规则

现在加入蓝光电影网,注册一个账号

QQ| 手机版|小黑屋| 蓝光电影网 |网站地图

Copyright © 2015-2019 Comsenz Inc.  Template by 蓝光电影论坛 All Rights Reserved.

Powered by 蓝光电影网 X3.4

特别声明:本站所有资源均由网上收集而来,版权归原影音公司所有,如果侵犯了你的权益,请通知我们,我们会及时删除侵权内容.

快速回复 返回顶部 返回列表