找回密码

蓝光电影网

查看: 71|回复: 0

[恐怖] 吓破胆/阴魂不散 Tourist.Trap.1979.DC.1080p.BluRay.x264.DD2.0-FGT 7.38GB

[复制链接]

 成长值: 1840

发表于 2019-10-10 21:51:29 | 显示全部楼层 |阅读模式
吓破胆/阴魂不散 Tourist.Trap.1979.DC.1080p.BluRay.x264.DD2.0-FGT 7.38GB-1.png

译  名 吓破胆 / 阴魂不散
片  名 Tourist Trap
年  代 1979
产  地 美国
类  别 悬疑 / 惊悚 / 恐怖
语  言 英语
上映日期 1979-03-16
IMDb评分  6.2/10 from 7078 users
IMDb链接  http://www.imdb.com/title/tt0080040
豆瓣评分 6.7/10 from 530 users
豆瓣链接 https://movie.douban.com/subject/1305075/
片  长 90 分钟
导  演 David Schmoeller
编  剧 David Schmoeller / J. Larry Carroll
主  演 查克·康诺斯 Chuck Connors
       Jocelyn Jones
       Jon Van Ness
       Robin Sherwood
       Tanya Roberts
       Dawn Jeffory
       Keith McDermott
       Shailar Coby
       Arlecchino
       Victoria Richart
       Millie Dill


标  签 恐怖 | 美国 | 惊悚 | Cult | 1979 | 悬疑 | 美国电影 | 1970s

简  介  

  几个年轻人驾车到郊外出游,偶然的来到了一个老男人悉心经营的世外桃源。在鸟语花香池塘戏水的欢乐玩耍和老男人的热心招待背后,逐个消失的同伴让年轻人心神不安……俊男美女的命运会走向何处呢?
  1. Video
  2. ID                                       : 1
  3. Format                                   : AVC
  4. Format/Info                              : Advanced Video Codec
  5. Format profile                           : High@L4
  6. Format settings                          : CABAC / 4 Ref Frames
  7. Format settings, CABAC                   : Yes
  8. Format settings, Reference frames        : 4 frames
  9. Codec ID                                 : V_MPEG4/ISO/AVC
  10. Duration                                 : 1 h 29 min
  11. Bit rate                                 : 11.5 Mb/s
  12. Width                                    : 1 920 pixels
  13. Height                                   : 1 080 pixels
  14. Display aspect ratio                     : 16:9
  15. Frame rate mode                          : Constant
  16. Frame rate                               : 23.976 (24000/1001) FPS
  17. Color space                              : YUV
  18. Chroma subsampling                       : 4:2:0
  19. Bit depth                                : 8 bits
  20. Scan type                                : Progressive
  21. Bits/(Pixel*Frame)                       : 0.231
  22. Stream size                              : 7.21 GiB (98%)
  23. Title                                    : Tourist.Trap.1979.DC.1080p.BluRay.x264.DD2.0-FGT
  24. Writing library                          : x264 core 148 r2795M aaa9aa8
  25. Encoding settings                        : cabac=1 / ref=4 / deblock=1:-2:-2 / analyse=0x3:0x113 / me=umh / subme=9 / psy=1 / psy_rd=1.00:0.15 / mixed_ref=1 / me_range=16 / chroma_me=1 / trellis=2 / 8x8dct=1 / cqm=0 / deadzone=21,11 / fast_pskip=1 / chroma_qp_offset=-3 / threads=24 / lookahead_threads=3 / sliced_threads=0 / nr=0 / decimate=1 / interlaced=0 / bluray_compat=0 / constrained_intra=0 / bframes=3 / b_pyramid=2 / b_adapt=1 / b_bias=0 / direct=3 / weightb=1 / open_gop=0 / weightp=2 / keyint=250 / keyint_min=25 / scenecut=40 / intra_refresh=0 / rc_lookahead=50 / rc=2pass / mbtree=1 / bitrate=11500 / ratetol=1.0 / qcomp=0.60 / qpmin=0 / qpmax=69 / qpstep=4 / cplxblur=20.0 / qblur=0.5 / vbv_maxrate=31250 / vbv_bufsize=31250 / nal_hrd=none / filler=0 / ip_ratio=1.40 / aq=1:1.00
  26. Language                                 : English
  27. Default                                  : Yes
  28. Forced                                   : No

  29. Audio
  30. ID                                       : 2
  31. Format                                   : AC-3
  32. Format/Info                              : Audio Coding 3
  33. Commercial name                          : Dolby Digital
  34. Codec ID                                 : A_AC3
  35. Duration                                 : 1 h 29 min
  36. Bit rate mode                            : Constant
  37. Bit rate                                 : 256 kb/s
  38. Channel(s)                               : 2 channels
  39. Channel layout                           : L R
  40. Sampling rate                            : 48.0 kHz
  41. Frame rate                               : 31.250 FPS (1536 SPF)
  42. Bit depth                                : 16 bits
  43. Compression mode                         : Lossy
  44. Stream size                              : 164 MiB (2%)
  45. Title                                    : Tourist.Trap.1979.DC.1080p.BluRay.x264.DD2.0-FGT
  46. Language                                 : English
  47. Service kind                             : Complete Main
  48. Default                                  : Yes
  49. Forced                                   : No

  50. Menu
  51. 00:00:00.000                             : en:The Breakdown
  52. 00:10:08.399                             : en:Closed to the Public
  53. 00:19:47.853                             : en:The Phone Doesn\'t Work
  54. 00:30:15.564                             : en:Stunning Similarity
  55. 00:44:02.722                             : en:Die of Fright
  56. 00:58:35.762                             : en:He\'s There
  57. 01:11:07.512                             : en:Awakening of the Dolls
  58. 01:22:05.628                             : en:Join the Others
  59. 01:28:06.238                             : en:End Credits
复制代码

吓破胆/阴魂不散 Tourist.Trap.1979.DC.1080p.BluRay.x264.DD2.0-FGT 7.38GB-2.png 吓破胆/阴魂不散 Tourist.Trap.1979.DC.1080p.BluRay.x264.DD2.0-FGT 7.38GB-3.png 吓破胆/阴魂不散 Tourist.Trap.1979.DC.1080p.BluRay.x264.DD2.0-FGT 7.38GB-4.png






开通VIP免费下载本站所有资源---点这里
新手必看:资源下载常见问题---点这里
回复

使用道具 举报

懒得打字嘛,点击右侧快捷回复 【右侧内容,后台自定义】
您需要登录后才可以回帖 登录 | 立即加入

本版积分规则

现在加入蓝光电影网,注册一个账号

QQ| 手机版|小黑屋| 蓝光电影网 |网站地图

Copyright © 2015-2019 Comsenz Inc.  Template by 蓝光电影论坛 All Rights Reserved.

Powered by 蓝光电影网 X3.4

特别声明:本站所有资源均由网上收集而来,版权归原影音公司所有,如果侵犯了你的权益,请通知我们,我们会及时删除侵权内容.

快速回复 返回顶部 返回列表