找回密码

蓝光电影网

查看: 60|回复: 0

[喜剧] 義蓋雲天 A.Hearty.Response.1986.1080p.BluRay.x264-aBD 6.55GB

[复制链接]

 成长值: 1840

发表于 2019-10-10 21:46:40 | 显示全部楼层 |阅读模式
義蓋雲天 A.Hearty.Response.1986.1080p.BluRay.x264-aBD 6.55GB-1.png

译  名 义盖云天 / A Hearty Response
片  名 義蓋雲天
年  代 1986
产  地 中国香港
类  别 喜剧 / 爱情
语  言 粤语
上映日期 1986-10-30
IMDb评分  6.0/10 from 156 users
IMDb链接  http://www.imdb.com/title/tt0092260
豆瓣评分 6.8/10 from 3513 users
豆瓣链接 https://movie.douban.com/subject/1297141/
片  长 89 分钟
导  演 罗文
编  剧 黎文卓
主  演 周润发
       王祖贤
       吕方
       潘丽贤


标  签 王祖贤 | 周润发 | 香港 | 香港电影 | 爱情 | 1986 | 动作 | 吕方

简  介  

  港生(王祖贤 饰)从大陆偷渡至香港,一路颠簸还被蛇头欺辱,搏斗过程中将蛇头打伤才逃脱出来,但外面的世界同样令她感到陌生惶恐。她起初预备投靠自己的姨妈,却遭到姨妈拒绝且冷言讽刺港生,而姨父则垂涎其美色,港生只得离开姨妈家再次流落街头。督查何定邦(周润发 饰)和祥仁(吕方 饰)追捕白粉雄,白粉雄驾车冲出街道撞倒了路边的港生。港生在医院苏醒以后害怕身份败露被送回大陆,灵机一动谎称自己脑部受伤得了失忆症,还“认准”何定邦就是其丈夫伟雄。心性善良的定邦只得将港生接回家中暂住,二人关系日渐改变,但港生“偷渡客”的身份却像两人关系中的定时炸弹时时刻刻存在着……
  1. Video
  2. ID                                       : 1
  3. Format                                   : AVC
  4. Format/Info                              : Advanced Video Codec
  5. Format profile                           : High@L4
  6. Format settings                          : CABAC / 4 Ref Frames
  7. Format settings, CABAC                   : Yes
  8. Format settings, ReFrames                : 4 frames
  9. Muxing mode                              : Header stripping
  10. Codec ID                                 : V_MPEG4/ISO/AVC
  11. Duration                                 : 1 h 29 min
  12. Bit rate                                 : 9 815 kb/s
  13. Width                                    : 1 920 pixels
  14. Height                                   : 1 040 pixels
  15. Display aspect ratio                     : 1.85:1
  16. Frame rate mode                          : Constant
  17. Frame rate                               : 24.000 FPS
  18. Color space                              : YUV
  19. Chroma subsampling                       : 4:2:0
  20. Bit depth                                : 8 bits
  21. Scan type                                : Progressive
  22. Bits/(Pixel*Frame)                       : 0.205
  23. Stream size                              : 6.02 GiB (92%)
  24. Writing library                          : x264 core 114 r1924 08d04a4
  25. Encoding settings                        : cabac=1 / ref=4 / deblock=1:-1:-1 / analyse=0x3:0x113 / me=umh / subme=7 / psy=1 / psy_rd=1.00:0.00 / mixed_ref=1 / me_range=16 / chroma_me=1 / trellis=1 / 8x8dct=1 / cqm=0 / deadzone=21,11 / fast_pskip=1 / chroma_qp_offset=-2 / threads=12 / sliced_threads=0 / nr=0 / decimate=1 / interlaced=0 / constrained_intra=0 / bframes=3 / b_pyramid=2 / b_adapt=2 / b_bias=0 / direct=3 / weightb=1 / open_gop=0 / weightp=2 / keyint=250 / keyint_min=24 / scenecut=40 / intra_refresh=0 / rc_lookahead=40 / rc=2pass / mbtree=1 / bitrate=9815 / ratetol=1.0 / qcomp=0.60 / qpmin=0 / qpmax=69 / qpstep=4 / cplxblur=20.0 / qblur=0.5 / vbv_maxrate=50000 / vbv_bufsize=50000 / nal_hrd=none / ip_ratio=1.40 / aq=1:1.00
  26. Language                                 : Chinese
  27. Default                                  : Yes
  28. Forced                                   : Yes

  29. Audio
  30. ID                                       : 2
  31. Format                                   : AC-3
  32. Format/Info                              : Audio Coding 3
  33. Muxing mode                              : Header stripping
  34. Codec ID                                 : A_AC3
  35. Duration                                 : 1 h 29 min
  36. Bit rate mode                            : Constant
  37. Bit rate                                 : 640 kb/s
  38. Channel(s)                               : 6 channels
  39. Channel positions                        : Front: L C R, Side: L R, LFE
  40. Sampling rate                            : 48.0 kHz
  41. Frame rate                               : 31.250 FPS (1536 SPF)
  42. Bit depth                                : 16 bits
  43. Compression mode                         : Lossy
  44. Stream size                              : 411 MiB (6%)
  45. Language                                 : Chinese
  46. Service kind                             : Complete Main
  47. Default                                  : Yes
  48. Forced                                   : Yes

  49. Text
  50. ID                                       : 3
  51. Format                                   : UTF-8
  52. Codec ID                                 : S_TEXT/UTF8
  53. Codec ID/Info                            : UTF-8 Plain Text
  54. Language                                 : English
  55. Default                                  : Yes
  56. Forced                                   : No
复制代码

義蓋雲天 A.Hearty.Response.1986.1080p.BluRay.x264-aBD 6.55GB-3.png 義蓋雲天 A.Hearty.Response.1986.1080p.BluRay.x264-aBD 6.55GB-4.png






开通VIP免费下载本站所有资源---点这里
新手必看:资源下载常见问题---点这里
回复

使用道具 举报

懒得打字嘛,点击右侧快捷回复 【右侧内容,后台自定义】
您需要登录后才可以回帖 登录 | 立即加入

本版积分规则

现在加入蓝光电影网,注册一个账号

QQ| 手机版|小黑屋| 蓝光电影网 |网站地图

Copyright © 2015-2019 Comsenz Inc.  Template by 蓝光电影论坛 All Rights Reserved.

Powered by 蓝光电影网 X3.4

特别声明:本站所有资源均由网上收集而来,版权归原影音公司所有,如果侵犯了你的权益,请通知我们,我们会及时删除侵权内容.

快速回复 返回顶部 返回列表