找回密码

蓝光电影网

查看: 53|回复: 0

[剧情] 人約離婚後 Love.Is.The.Only.Answer.2011.1080p.BluRay.x264-aBD 6.55GB

[复制链接]

 成长值: 1795

发表于 6 天前 | 显示全部楼层 |阅读模式
人約離婚後 Love.Is.The.Only.Answer.2011.1080p.BluRay.x264-aBD 6.55GB-1.png

译  名 人约离婚后 / Love Is The Only Answer
片  名 人約離婚後
年  代 2011
产  地 中国香港
类  别 剧情 / 爱情
语  言 粤语
上映日期 2011-07-08(中国香港)
IMDb评分  5.3/10 from 99 users
IMDb链接  http://www.imdb.com/title/tt1964887
豆瓣评分 6.1/10 from 13131 users
豆瓣链接 https://movie.douban.com/subject/6515363/
片  长 94分钟
导  演 叶念琛 Patrick Kong
编  剧 叶念琛 Patrick Kong
主  演 佘诗曼 Charmaine Sheh
       方力申 Lik-Sun Fong
       谢安琪 Kay Tse
       罗仲谦 Chung Him Law


标  签 叶念琛 | 香港电影 | 香港 | 爱情 | 佘诗曼 | 方力申 | 2011 | 电影

简  介  

  阿宝(佘诗曼 饰)在与Ryan(方力申 饰)婚礼一个月前,拿到了对方的手机并得到了其中的自拍偷情视频,在二人的婚礼上,阿宝为报复丈夫,将视频当众播放并宣布即刻离婚。但离婚的两人并未割断联系,阿宝租用Ryan的铺面开店,而Ryan则不时需要前妻救场,来赶走那些粘人不放的小情人。Ryan以给前妻找男友为借口,将阿宝诓骗到换妻聚会中,并结识了世杰(罗仲谦 饰)夫妻俩,Ryan与世杰妻子曼丽寻欢,而世杰亦对阿宝动心并展开攻势,阿宝防线终被世杰击破,但他们的交往却引起Ryan醋意。经此一事,Ryan意识到自己始终在乎阿宝,试图挽回失去的爱人……
  1. Video
  2. ID                                       : 1
  3. Format                                   : AVC
  4. Format/Info                              : Advanced Video Codec
  5. Format profile                           : High@L4
  6. Format settings                          : CABAC / 4 Ref Frames
  7. Format settings, CABAC                   : Yes
  8. Format settings, ReFrames                : 4 frames
  9. Muxing mode                              : Header stripping
  10. Codec ID                                 : V_MPEG4/ISO/AVC
  11. Duration                                 : 1 h 34 min
  12. Bit rate                                 : 9 326 kb/s
  13. Width                                    : 1 920 pixels
  14. Height                                   : 1 040 pixels
  15. Display aspect ratio                     : 1.85:1
  16. Frame rate mode                          : Constant
  17. Frame rate                               : 24.000 FPS
  18. Color space                              : YUV
  19. Chroma subsampling                       : 4:2:0
  20. Bit depth                                : 8 bits
  21. Scan type                                : Progressive
  22. Bits/(Pixel*Frame)                       : 0.195
  23. Stream size                              : 6.00 GiB (92%)
  24. Writing library                          : x264 core 119 r2106 07efeb4
  25. Encoding settings                        : cabac=1 / ref=4 / deblock=1:-1:-1 / analyse=0x3:0x113 / me=umh / subme=7 / psy=1 / psy_rd=1.00:0.00 / mixed_ref=1 / me_range=16 / chroma_me=1 / trellis=1 / 8x8dct=1 / cqm=0 / deadzone=21,11 / fast_pskip=1 / chroma_qp_offset=-2 / threads=12 / sliced_threads=0 / nr=0 / decimate=1 / interlaced=0 / bluray_compat=0 / constrained_intra=0 / bframes=3 / b_pyramid=2 / b_adapt=2 / b_bias=0 / direct=3 / weightb=1 / open_gop=0 / weightp=2 / keyint=250 / keyint_min=24 / scenecut=40 / intra_refresh=0 / rc_lookahead=40 / rc=2pass / mbtree=1 / bitrate=9326 / ratetol=1.0 / qcomp=0.60 / qpmin=0 / qpmax=69 / qpstep=4 / cplxblur=20.0 / qblur=0.5 / vbv_maxrate=50000 / vbv_bufsize=50000 / nal_hrd=none / ip_ratio=1.40 / aq=1:1.00
  26. Language                                 : Chinese
  27. Default                                  : Yes
  28. Forced                                   : Yes

  29. Audio
  30. ID                                       : 2
  31. Format                                   : AC-3
  32. Format/Info                              : Audio Coding 3
  33. Muxing mode                              : Header stripping
  34. Codec ID                                 : A_AC3
  35. Duration                                 : 1 h 34 min
  36. Bit rate mode                            : Constant
  37. Bit rate                                 : 640 kb/s
  38. Channel(s)                               : 6 channels
  39. Channel positions                        : Front: L C R, Side: L R, LFE
  40. Sampling rate                            : 48.0 kHz
  41. Frame rate                               : 31.250 FPS (1536 SPF)
  42. Bit depth                                : 16 bits
  43. Compression mode                         : Lossy
  44. Stream size                              : 431 MiB (6%)
  45. Language                                 : Chinese
  46. Service kind                             : Complete Main
  47. Default                                  : Yes
  48. Forced                                   : Yes

  49. Text
  50. ID                                       : 3
  51. Format                                   : UTF-8
  52. Codec ID                                 : S_TEXT/UTF8
  53. Codec ID/Info                            : UTF-8 Plain Text
  54. Language                                 : English
  55. Default                                  : Yes
  56. Forced                                   : No
复制代码

人約離婚後 Love.Is.The.Only.Answer.2011.1080p.BluRay.x264-aBD 6.55GB-2.png 人約離婚後 Love.Is.The.Only.Answer.2011.1080p.BluRay.x264-aBD 6.55GB-3.png 人約離婚後 Love.Is.The.Only.Answer.2011.1080p.BluRay.x264-aBD 6.55GB-4.png







开通VIP免费下载本站所有资源---点这里
新手必看:资源下载常见问题---点这里
回复

使用道具 举报

懒得打字嘛,点击右侧快捷回复 【右侧内容,后台自定义】
您需要登录后才可以回帖 登录 | 立即加入

本版积分规则

现在加入蓝光电影网,注册一个账号

QQ| 手机版|小黑屋| 蓝光电影网 |网站地图

Copyright © 2015-2019 Comsenz Inc.  Template by 蓝光电影论坛 All Rights Reserved.

Powered by 蓝光电影网 X3.4

特别声明:本站所有资源均由网上收集而来,版权归原影音公司所有,如果侵犯了你的权益,请通知我们,我们会及时删除侵权内容.

快速回复 返回顶部 返回列表