找回密码

蓝光电影网

查看: 79|回复: 2

[惊悚] 怪談 The.Unbelievable.2009.1080p.BluRay.x264-aBD 6.55GB

[复制链接]

 成长值: 1840

发表于 2019-10-10 21:44:36 | 显示全部楼层 |阅读模式
怪談 The.Unbelievable.2009.1080p.BluRay.x264-aBD 6.55GB-1.png

译  名 怪谈 / The Unbelievable / 怪谈大电影
片  名 怪談
年  代 2009
产  地 中国香港
类  别 惊悚 / 恐怖 / 纪录片
语  言 粤语
上映日期 2009-09-03(中国香港)
IMDb评分  5.9/10 from 7 users
IMDb链接  http://www.imdb.com/title/tt6448406
豆瓣评分 5.7/10 from 1024 users
豆瓣链接 https://movie.douban.com/subject/4022098/
片  长 82分钟
导  演 陈达年
主  演 司徒法正 Six-Ching Szeto
       陈晓华 Hiu-wah Chan


标  签 香港 | 恐怖 | 灵异 | 纪录片 | 香港电影 | 怪谈 | 2009 | 惊悚

简  介  

  影片简介:
  《怪谈》原班人马将带你进入最惊吓的灵异新境界!摄制队搵命搏将观众从未目睹的灵异猛料破禁大晒冷,灵体、尸体及裸体样样齐,全新摄制激爆内容挑战III级尺度。千亿遗产风水专家证人司徒法正更亲自率领摄制队闯入东南亚各死亡禁地。出位踩界的「搵鬼」行程极度震撼,既有女主持Rachel夜探停尸间向尸体丧喷阳气引发中邪疑云、摄制队又踩入怡保的猛鬼晒骨村大玩碟仙,还跟随执尸队见死人即摆阵招魂。令人毛骨悚然的奇人异士纷纷现身,当中包括黑巫师活咬生鸡喂「鬼仔」、鲸吞怪虫解降的法师及进行猥亵和合降……电影《怪谈》要惊有惊要鬼有鬼,够胆你就?!
  1. Video
  2. ID                                       : 1
  3. Format                                   : AVC
  4. Format/Info                              : Advanced Video Codec
  5. Format profile                           : High@L4
  6. Format settings                          : CABAC / 4 Ref Frames
  7. Format settings, CABAC                   : Yes
  8. Format settings, ReFrames                : 4 frames
  9. Codec ID                                 : V_MPEG4/ISO/AVC
  10. Duration                                 : 1 h 20 min
  11. Bit rate                                 : 11.0 Mb/s
  12. Width                                    : 1 856 pixels
  13. Height                                   : 1 080 pixels
  14. Display aspect ratio                     : 1.719
  15. Frame rate mode                          : Constant
  16. Frame rate                               : 24.000 FPS
  17. Color space                              : YUV
  18. Chroma subsampling                       : 4:2:0
  19. Bit depth                                : 8 bits
  20. Scan type                                : Progressive
  21. Bits/(Pixel*Frame)                       : 0.228
  22. Stream size                              : 6.06 GiB (93%)
  23. Writing library                          : x264 core 110 r1820 fdcf2ae
  24. Encoding settings                        : cabac=1 / ref=4 / deblock=1:-1:-1 / analyse=0x3:0x113 / me=umh / subme=7 / psy=1 / psy_rd=1.00:0.00 / mixed_ref=1 / me_range=16 / chroma_me=1 / trellis=1 / 8x8dct=1 / cqm=0 / deadzone=21,11 / fast_pskip=1 / chroma_qp_offset=-2 / threads=12 / sliced_threads=0 / nr=0 / decimate=1 / interlaced=0 / constrained_intra=0 / bframes=3 / b_pyramid=2 / b_adapt=2 / b_bias=0 / direct=3 / weightb=1 / open_gop=0 / weightp=2 / keyint=250 / keyint_min=24 / scenecut=40 / intra_refresh=0 / rc_lookahead=40 / rc=2pass / mbtree=1 / bitrate=10985 / ratetol=1.0 / qcomp=0.60 / qpmin=0 / qpmax=51 / qpstep=4 / cplxblur=20.0 / qblur=0.5 / vbv_maxrate=50000 / vbv_bufsize=50000 / ip_ratio=1.40 / aq=1:1.00 / nal_hrd=none
  25. Language                                 : Chinese
  26. Default                                  : Yes
  27. Forced                                   : Yes

  28. Audio
  29. ID                                       : 2
  30. Format                                   : AC-3
  31. Format/Info                              : Audio Coding 3
  32. Codec ID                                 : A_AC3
  33. Duration                                 : 1 h 20 min
  34. Bit rate mode                            : Constant
  35. Bit rate                                 : 640 kb/s
  36. Channel(s)                               : 6 channels
  37. Channel positions                        : Front: L C R, Side: L R, LFE
  38. Sampling rate                            : 48.0 kHz
  39. Frame rate                               : 31.250 FPS (1536 SPF)
  40. Bit depth                                : 16 bits
  41. Compression mode                         : Lossy
  42. Stream size                              : 370 MiB (6%)
  43. Language                                 : Chinese
  44. Service kind                             : Complete Main
  45. Default                                  : Yes
  46. Forced                                   : Yes

  47. Text
  48. ID                                       : 3
  49. Format                                   : UTF-8
  50. Codec ID                                 : S_TEXT/UTF8
  51. Codec ID/Info                            : UTF-8 Plain Text
  52. Language                                 : English
  53. Default                                  : Yes
  54. Forced                                   : No
复制代码

怪談 The.Unbelievable.2009.1080p.BluRay.x264-aBD 6.55GB-2.png 怪談 The.Unbelievable.2009.1080p.BluRay.x264-aBD 6.55GB-3.png 怪談 The.Unbelievable.2009.1080p.BluRay.x264-aBD 6.55GB-4.png







开通VIP免费下载本站所有资源---点这里
新手必看:资源下载常见问题---点这里
回复

使用道具 举报

 成长值: 3245

发表于 2019-10-10 22:26:01 | 显示全部楼层
谢谢分享!!~~
开通VIP免费下载本站所有资源---点这里
新手必看:资源下载常见问题---点这里
回复

使用道具 举报

发表于 2019-10-11 23:53:54 | 显示全部楼层
希望可以下载了
开通VIP免费下载本站所有资源---点这里
新手必看:资源下载常见问题---点这里
回复 支持 反对

使用道具 举报

懒得打字嘛,点击右侧快捷回复 【右侧内容,后台自定义】
您需要登录后才可以回帖 登录 | 立即加入

本版积分规则

现在加入蓝光电影网,注册一个账号

QQ| 手机版|小黑屋| 蓝光电影网 |网站地图

Copyright © 2015-2019 Comsenz Inc.  Template by 蓝光电影论坛 All Rights Reserved.

Powered by 蓝光电影网 X3.4

特别声明:本站所有资源均由网上收集而来,版权归原影音公司所有,如果侵犯了你的权益,请通知我们,我们会及时删除侵权内容.

快速回复 返回顶部 返回列表