找回密码

蓝光电影网

查看: 67|回复: 0

[剧情] 花甲大人轉男孩 Back.To.The.Good.Times.2018.CHINESE.1080p.BluRay.x264.DTS-WiKi 10.99GB

[复制链接]

 成长值: 1840

发表于 2019-10-10 21:41:40 | 显示全部楼层 |阅读模式
花甲大人轉男孩 Back.To.The.Good.Times.2018.CHINESE.1080p.BluRay.x264.DTS-WiKi 10.99GB-1.png

译  名 花甲大人转男孩 / Back to the Good Times / 花甲男孩转大人 电影版
片  名 花甲大人轉男孩
年  代 2018
产  地 中国台湾
类  别 剧情 / 喜剧
语  言 汉语普通话
上映日期 2018-02-09(中国台湾)
IMDb评分  5.3/10 from 136 users
IMDb链接  http://www.imdb.com/title/tt7827658
豆瓣评分 6.3/10 from 1007 users
豆瓣链接 https://movie.douban.com/subject/27177907/
片  长 109分钟
导  演 瞿友宁 Arthur Chu Yu-Ning
编  剧 杨富闵 Fu-min Yang
主  演 卢广仲 Crowd Lu
       蔡振南 Chen-Nan Tsai
       柯叔元 Alex Shu-Yuan Ko
       康晋荣 Chin-Jung Kang
       龙劭华 Siu Wa Lung
       严正岚 Vera Yen
       刘冠廷 Kuan-ting Liu
       江宜蓉 Yi-Jung Chiang
       海芬 Heaven Hai
       范足妹 Chu-Mei Fan
       林意箴 Diane Lin
       曲献平 Barry Qu
       叶辰莛 Chen-Ting Yeh


标  签 台湾 | 台湾电影 | 卢广仲 | 2018 | 喜剧 | 台灣電影 | 台灣電影2018 | 賀歲片

简  介  

  阿嬤準備要做對年了,花甲也在這時候退伍,和情人阿瑋開心重逢之際,卻遇上青梅竹馬的雅婷來求救,希望他幫忙解決前男友來找麻煩,花甲智退來敵,大家狂歡之際,隔天早晨,花甲卻發現自己和阿瑋裸體躺在床上!!!
  阿瑋古板的父母生氣到訪祖厝討論花甲該如何負責?卻發生一連串巧合和誤會,讓雙方家庭的初次見面成了暴走且荒唐的鬧劇,大打出手,阿瑋更氣花甲的無能表現,失望離開。
  花甲藉口尿遁躲了起來,衰到居然自己還放了個屁臭死自己,不得已還是得出來面對難關之時,卻發現家人都不見,而人生即將面對空前的危機,他必須該如何才能像超人一樣拯救自己與自己的家族呢?
  1. Video
  2. ID                                       : 1
  3. Format                                   : AVC
  4. Format/Info                              : Advanced Video Codec
  5. Format profile                           : High@L4
  6. Format settings                          : CABAC / 5 Ref Frames
  7. Format settings, CABAC                   : Yes
  8. Format settings, Reference frames        : 5 frames
  9. Codec ID                                 : V_MPEG4/ISO/AVC
  10. Duration                                 : 1 h 58 min
  11. Bit rate                                 : 11.8 Mb/s
  12. Width                                    : 1 920 pixels
  13. Height                                   : 802 pixels
  14. Display aspect ratio                     : 2.40:1
  15. Frame rate mode                          : Constant
  16. Frame rate                               : 24.000 FPS
  17. Color space                              : YUV
  18. Chroma subsampling                       : 4:2:0
  19. Bit depth                                : 8 bits
  20. Scan type                                : Progressive
  21. Bits/(Pixel*Frame)                       : 0.320
  22. Stream size                              : 9.75 GiB (89%)
  23. Writing library                          : x264 core 129 r2245 bc13772
  24. Encoding settings                        : cabac=1 / ref=5 / deblock=1:-3:-3 / analyse=0x3:0x133 / me=umh / subme=11 / psy=1 / psy_rd=1.05:0.05 / mixed_ref=1 / me_range=64 / chroma_me=1 / trellis=2 / 8x8dct=1 / cqm=0 / deadzone=21,11 / fast_pskip=0 / chroma_qp_offset=-3 / threads=6 / lookahead_threads=1 / sliced_threads=0 / nr=0 / decimate=1 / interlaced=0 / bluray_compat=0 / constrained_intra=0 / bframes=8 / b_pyramid=2 / b_adapt=2 / b_bias=0 / direct=3 / weightb=1 / open_gop=0 / weightp=2 / keyint=250 / keyint_min=24 / scenecut=40 / intra_refresh=0 / rc_lookahead=60 / rc=2pass / mbtree=1 / bitrate=11809 / ratetol=1.0 / qcomp=0.60 / qpmin=0 / qpmax=69 / qpstep=4 / cplxblur=20.0 / qblur=0.5 / vbv_maxrate=40000 / vbv_bufsize=30000 / nal_hrd=none / ip_ratio=1.40 / aq=1:0.80
  25. Language                                 : English
  26. Default                                  : Yes
  27. Forced                                   : No

  28. Audio
  29. ID                                       : 2
  30. Format                                   : DTS
  31. Format/Info                              : Digital Theater Systems
  32. Codec ID                                 : A_DTS
  33. Duration                                 : 1 h 58 min
  34. Bit rate mode                            : Constant
  35. Bit rate                                 : 1 509 kb/s
  36. Channel(s)                               : 6 channels
  37. Channel layout                           : C L R Ls Rs LFE
  38. Sampling rate                            : 48.0 kHz
  39. Frame rate                               : 93.750 FPS (512 SPF)
  40. Bit depth                                : 16 bits
  41. Compression mode                         : Lossy
  42. Stream size                              : 1.25 GiB (11%)
  43. Language                                 : Chinese
  44. Default                                  : Yes
  45. Forced                                   : No

  46. Text #1
  47. ID                                       : 3
  48. Format                                   : UTF-8
  49. Codec ID                                 : S_TEXT/UTF8
  50. Codec ID/Info                            : UTF-8 Plain Text
  51. Duration                                 : 1 h 54 min
  52. Bit rate                                 : 66 b/s
  53. Count of elements                        : 2823
  54. Stream size                              : 55.8 KiB (0%)
  55. Language                                 : English
  56. Default                                  : No
  57. Forced                                   : No

  58. Text #2
  59. ID                                       : 4
  60. Format                                   : UTF-8
  61. Codec ID                                 : S_TEXT/UTF8
  62. Codec ID/Info                            : UTF-8 Plain Text
  63. Duration                                 : 1 h 54 min
  64. Bit rate                                 : 67 b/s
  65. Count of elements                        : 2829
  66. Stream size                              : 56.8 KiB (0%)
  67. Title                                    : 简体
  68. Language                                 : Chinese
  69. Default                                  : Yes
  70. Forced                                   : No

  71. Text #3
  72. ID                                       : 5
  73. Format                                   : UTF-8
  74. Codec ID                                 : S_TEXT/UTF8
  75. Codec ID/Info                            : UTF-8 Plain Text
  76. Duration                                 : 1 h 54 min
  77. Bit rate                                 : 67 b/s
  78. Count of elements                        : 2829
  79. Stream size                              : 56.8 KiB (0%)
  80. Title                                    : 繁体
  81. Language                                 : Chinese
  82. Default                                  : No
  83. Forced                                   : No
复制代码

花甲大人轉男孩 Back.To.The.Good.Times.2018.CHINESE.1080p.BluRay.x264.DTS-WiKi 10.99GB-1.png 花甲大人轉男孩 Back.To.The.Good.Times.2018.CHINESE.1080p.BluRay.x264.DTS-WiKi 10.99GB-3.png 花甲大人轉男孩 Back.To.The.Good.Times.2018.CHINESE.1080p.BluRay.x264.DTS-WiKi 10.99GB-4.png







开通VIP免费下载本站所有资源---点这里
新手必看:资源下载常见问题---点这里
回复

使用道具 举报

懒得打字嘛,点击右侧快捷回复 【右侧内容,后台自定义】
您需要登录后才可以回帖 登录 | 立即加入

本版积分规则

现在加入蓝光电影网,注册一个账号

QQ| 手机版|小黑屋| 蓝光电影网 |网站地图

Copyright © 2015-2019 Comsenz Inc.  Template by 蓝光电影论坛 All Rights Reserved.

Powered by 蓝光电影网 X3.4

特别声明:本站所有资源均由网上收集而来,版权归原影音公司所有,如果侵犯了你的权益,请通知我们,我们会及时删除侵权内容.

快速回复 返回顶部 返回列表