找回密码

蓝光电影网

查看: 36|回复: 0

[剧情] 早梦 Lived.in.a.Dream.1974.JAPANESE.1080p.BluRay.x264.DTS-FGT 10.87GB

[复制链接]

 成长值: 1840

发表于 2019-10-10 21:39:51 | 显示全部楼层 |阅读模式
早梦 Lived.in.a.Dream.1974.JAPANESE.1080p.BluRay.x264.DTS-FGT 10.87GB-1.png

译  名 早梦 / Asaki yumemishi / 源氏物语之早梦
片  名 あさき夢みし
年  代 1974
产  地 日本
类  别 剧情
语  言 日语
上映日期 1974-10-26
IMDb评分  6.9/10 from 49 users
IMDb链接  http://www.imdb.com/title/tt0210544
豆瓣评分 7.1/10 from 116 users
豆瓣链接 https://movie.douban.com/subject/1455811/
导  演 実相寺昭雄
主  演 Janet Yata
       Shin Kishida
       Minori Terada


标  签 日本 | 実相寺昭雄 | 日本电影 | 实相寺昭雄 | 情色 | 1970s | 电影 | 剧情

简  介  

  十三世紀後半王朝の挽歌が貴族たちの胸を掠める時、宮廷の後宮に生きた一人の女性の愛欲、人間としてのめざめ、そして自由を求めての出家を描く。脚本は詩人の大岡信、監督は「哥」の実相寺昭雄、撮影は中堀正夫がそれぞれ担当。
  十三世紀後半、都は後嵯峨法皇院政の時代。法皇の皇子後深草天皇は、既に帝位を弟の亀山天皇にゆずり、富小路殿に仙洞御所をいとなんでいた。二十歳半ばにして世捨人に等しかったわけである。この院には四条という寵愛する一人の女房がいた。四条はある貴族の家に生まれたが、四歳の時から上皇のもとで育てられ、十代半ばになった時、自らの愛人として仙洞御所に迎え入れた。しかし四条には愛人ができる。かねてから四条を愛している霧の暁(西園寺大納言)、執拗に迫ってついには四条を我ものとする真言密教の高徳の僧阿闍梨(上皇の異腹の弟)である。四条はこれらの男たちの愛を受け、それぞれの子供を生むが、全て彼女の手から奪い取られてしまう。彼女は宮廷社会の美しいもてあそびものとしての、自らのはかない存在を自覚せざるを得なかった。ただ一人、始めは四条を恐怖させ、次第にその荒々しい情熱が彼女の心をとらえるに至ったのは阿闍梨だが、彼は流行病であっけなく死んでしまった。やがて、幼い頃から西行絵巻を好んで眺め、西行のように生きたいと願っていた四条は、自由を求めて出家した。天台、真言の貴族的仏教の世界ではなく、遊行放浪していく踊念仏の世界に対する憧れを持つ四条は、みごとな腕前の画や書、また連歌などを道中の資として、待女目井とともに諸国をめぐって歩いた。数奇を日々の糧とし、真実の愛の荒々しい爆発を抑え、風雅の、あるいはまた政治の世界に没頭している男たちから身をふりほどいて、四条は厳島、熊野、その他日本各地を歩きまわった。王朝の幻影がくずれ去った後の、武士が支配する新しい社会の中で、彼女は目井とも別れて、一人の尼絵師として闊達に生きてゆく。彼女の生んだ娘は、今の帝の娘で高名な歌人となっているらしい。しかし、四条はただ一人、今日も街道の砂埃をまきあげながら歩いている。
  1. Video
  2. ID                                       : 1
  3. Format                                   : AVC
  4. Format/Info                              : Advanced Video Codec
  5. Format profile                           : High@L4
  6. Format settings                          : CABAC / 4 Ref Frames
  7. Format settings, CABAC                   : Yes
  8. Format settings, Reference frames        : 4 frames
  9. Codec ID                                 : V_MPEG4/ISO/AVC
  10. Duration                                 : 1 h 59 min
  11. Bit rate                                 : 11.5 Mb/s
  12. Width                                    : 1 920 pixels
  13. Height                                   : 812 pixels
  14. Display aspect ratio                     : 2.35:1
  15. Frame rate mode                          : Constant
  16. Frame rate                               : 23.976 (24000/1001) FPS
  17. Color space                              : YUV
  18. Chroma subsampling                       : 4:2:0
  19. Bit depth                                : 8 bits
  20. Scan type                                : Progressive
  21. Bits/(Pixel*Frame)                       : 0.308
  22. Stream size                              : 9.60 GiB (88%)
  23. Title                                    : Lived.in.a.Dream.1974.JAPANESE.1080p.BluRay.x264.DTS-FGT
  24. Writing library                          : x264 core 148 r2795M aaa9aa8
  25. Encoding settings                        : cabac=1 / ref=4 / deblock=1:-2:-2 / analyse=0x3:0x113 / me=umh / subme=9 / psy=1 / psy_rd=1.00:0.15 / mixed_ref=1 / me_range=16 / chroma_me=1 / trellis=2 / 8x8dct=1 / cqm=0 / deadzone=21,11 / fast_pskip=1 / chroma_qp_offset=-3 / threads=24 / lookahead_threads=3 / sliced_threads=0 / nr=0 / decimate=1 / interlaced=0 / bluray_compat=0 / constrained_intra=0 / bframes=3 / b_pyramid=2 / b_adapt=1 / b_bias=0 / direct=3 / weightb=1 / open_gop=0 / weightp=2 / keyint=250 / keyint_min=25 / scenecut=40 / intra_refresh=0 / rc_lookahead=50 / rc=2pass / mbtree=1 / bitrate=11500 / ratetol=1.0 / qcomp=0.60 / qpmin=0 / qpmax=69 / qpstep=4 / cplxblur=20.0 / qblur=0.5 / vbv_maxrate=31250 / vbv_bufsize=31250 / nal_hrd=none / filler=0 / ip_ratio=1.40 / aq=1:1.00
  26. Language                                 : Japanese
  27. Default                                  : Yes
  28. Forced                                   : No

  29. Audio
  30. ID                                       : 2
  31. Format                                   : DTS
  32. Format/Info                              : Digital Theater Systems
  33. Codec ID                                 : A_DTS
  34. Duration                                 : 1 h 59 min
  35. Bit rate mode                            : Constant
  36. Bit rate                                 : 1 509 kb/s
  37. Channel(s)                               : 1 channel
  38. Channel layout                           : C
  39. Sampling rate                            : 48.0 kHz
  40. Frame rate                               : 93.750 FPS (512 SPF)
  41. Bit depth                                : 16 bits
  42. Compression mode                         : Lossy
  43. Stream size                              : 1.26 GiB (12%)
  44. Title                                    : Lived.in.a.Dream.1974.JAPANESE.1080p.BluRay.x264.DTS-FGT
  45. Language                                 : Japanese
  46. Default                                  : Yes
  47. Forced                                   : No

  48. Text
  49. ID                                       : 3
  50. Format                                   : UTF-8
  51. Codec ID                                 : S_TEXT/UTF8
  52. Codec ID/Info                            : UTF-8 Plain Text
  53. Duration                                 : 1 h 58 min
  54. Bit rate                                 : 39 b/s
  55. Count of elements                        : 807
  56. Stream size                              : 33.9 KiB (0%)
  57. Language                                 : English
  58. Default                                  : Yes
  59. Forced                                   : No

  60. Menu
  61. 00:00:00.000                             : en:Chapter 1
  62. 00:08:33.638                             : en:Chapter 2
  63. 00:20:23.806                             : en:Chapter 3
  64. 00:30:47.262                             : en:Chapter 4
  65. 00:38:02.906                             : en:Chapter 5
  66. 00:48:29.406                             : en:Chapter 6
  67. 00:58:07.567                             : en:Chapter 7
  68. 01:08:50.668                             : en:Chapter 8
  69. 01:20:29.158                             : en:Chapter 9
  70. 01:32:40.889                             : en:Chapter 10
  71. 01:38:37.370                             : en:Chapter 11
  72. 01:47:24.063                             : en:Chapter 12
复制代码

早梦 Lived.in.a.Dream.1974.JAPANESE.1080p.BluRay.x264.DTS-FGT 10.87GB-1.png 早梦 Lived.in.a.Dream.1974.JAPANESE.1080p.BluRay.x264.DTS-FGT 10.87GB-3.png 早梦 Lived.in.a.Dream.1974.JAPANESE.1080p.BluRay.x264.DTS-FGT 10.87GB-4.png







开通VIP免费下载本站所有资源---点这里
新手必看:资源下载常见问题---点这里
回复

使用道具 举报

懒得打字嘛,点击右侧快捷回复 【右侧内容,后台自定义】
您需要登录后才可以回帖 登录 | 立即加入

本版积分规则

现在加入蓝光电影网,注册一个账号

QQ| 手机版|小黑屋| 蓝光电影网 |网站地图

Copyright © 2015-2019 Comsenz Inc.  Template by 蓝光电影论坛 All Rights Reserved.

Powered by 蓝光电影网 X3.4

特别声明:本站所有资源均由网上收集而来,版权归原影音公司所有,如果侵犯了你的权益,请通知我们,我们会及时删除侵权内容.

快速回复 返回顶部 返回列表