找回密码

蓝光电影网

查看: 46|回复: 0

[剧情] 地下世界/下层社会 Underworld.1927.1080p.BluRay.x264.DTS-FGT 7.41GB

[复制链接]

 成长值: 1840

发表于 2019-10-10 21:37:41 | 显示全部楼层 |阅读模式
地下世界/下层社会 Underworld.1927.1080p.BluRay.x264.DTS-FGT 7.41GB-1.png

译  名 地下世界 / 下层社会 / 帑暗之街 / 黑社会
片  名 Underworld
年  代 1927
产  地 美国
类  别 剧情 / 犯罪
语  言 无对白
上映日期 1927-08-20
IMDb评分  7.6/10 from 2264 users
IMDb链接  http://www.imdb.com/title/tt0018526
豆瓣评分 7.9/10 from 316 users
豆瓣链接 https://movie.douban.com/subject/1303347/
片  长 80 分钟
导  演 Josef von Sternberg
编  剧 Charles Furthman / Robert N. Lee
主  演 George Bancroft
       Evelyn Brent
       Clive Brook
       Fred Kohler
       Helen Lynch


标  签 美国 | 默片 | 约瑟夫·冯·斯登堡 | 犯罪 | 1927 | 1920s | CC | 美国电影

简  介  

  依据1922年的凶杀案改编,描写贩卖私酒的匪帮和警方角力的故事。影史第一次以盗匪当主角,运用背面打光和烟雾,颇具艺术风格,广受欢迎,也预示40年代黑色电影的来临。

获奖情况  

  第1届奥斯卡金像奖(1929)
  最佳原创故事 本·赫克特
  1. Video
  2. ID                                       : 1
  3. Format                                   : AVC
  4. Format/Info                              : Advanced Video Codec
  5. Format profile                           : High@L4
  6. Format settings                          : CABAC / 4 Ref Frames
  7. Format settings, CABAC                   : Yes
  8. Format settings, Reference frames        : 4 frames
  9. Codec ID                                 : V_MPEG4/ISO/AVC
  10. Duration                                 : 1 h 21 min
  11. Bit rate                                 : 11.5 Mb/s
  12. Width                                    : 1 440 pixels
  13. Height                                   : 1 080 pixels
  14. Display aspect ratio                     : 4:3
  15. Frame rate mode                          : Constant
  16. Frame rate                               : 23.976 (24000/1001) FPS
  17. Color space                              : YUV
  18. Chroma subsampling                       : 4:2:0
  19. Bit depth                                : 8 bits
  20. Scan type                                : Progressive
  21. Bits/(Pixel*Frame)                       : 0.308
  22. Stream size                              : 6.55 GiB (88%)
  23. Title                                    : Underworld.1927.1080p.BluRay.x264.DTS-FGT
  24. Writing library                          : x264 core 148 r2795M aaa9aa8
  25. Encoding settings                        : cabac=1 / ref=4 / deblock=1:-2:-2 / analyse=0x3:0x113 / me=umh / subme=9 / psy=1 / psy_rd=1.00:0.15 / mixed_ref=1 / me_range=16 / chroma_me=1 / trellis=2 / 8x8dct=1 / cqm=0 / deadzone=21,11 / fast_pskip=1 / chroma_qp_offset=-3 / threads=24 / lookahead_threads=3 / sliced_threads=0 / nr=0 / decimate=1 / interlaced=0 / bluray_compat=0 / constrained_intra=0 / bframes=3 / b_pyramid=2 / b_adapt=1 / b_bias=0 / direct=3 / weightb=1 / open_gop=0 / weightp=2 / keyint=250 / keyint_min=25 / scenecut=40 / intra_refresh=0 / rc_lookahead=50 / rc=2pass / mbtree=1 / bitrate=11500 / ratetol=1.0 / qcomp=0.60 / qpmin=0 / qpmax=69 / qpstep=4 / cplxblur=20.0 / qblur=0.5 / vbv_maxrate=31250 / vbv_bufsize=31250 / nal_hrd=none / filler=0 / ip_ratio=1.40 / aq=1:1.00
  26. Language                                 : English
  27. Default                                  : Yes
  28. Forced                                   : No

  29. Audio
  30. ID                                       : 2
  31. Format                                   : DTS
  32. Format/Info                              : Digital Theater Systems
  33. Codec ID                                 : A_DTS
  34. Duration                                 : 1 h 21 min
  35. Bit rate mode                            : Constant
  36. Bit rate                                 : 1 509 kb/s
  37. Channel(s)                               : 2 channels
  38. Channel layout                           : L R
  39. Sampling rate                            : 48.0 kHz
  40. Frame rate                               : 93.750 FPS (512 SPF)
  41. Bit depth                                : 16 bits
  42. Compression mode                         : Lossy
  43. Stream size                              : 880 MiB (12%)
  44. Title                                    : Underworld.1927.1080p.BluRay.x264.DTS-FGT
  45. Language                                 : English
  46. Default                                  : Yes
  47. Forced                                   : No

  48. Menu
  49. 00:00:00.000                             : en:Chapter 01
  50. 00:01:21.081                             : en:Chapter 02
  51. 00:04:25.265                             : en:Chapter 03
  52. 00:14:21.569                             : en:Chapter 04
  53. 00:16:44.420                             : en:Chapter 05
  54. 00:18:44.123                             : en:Chapter 06
  55. 00:25:06.505                             : en:Chapter 07
  56. 00:26:52.694                             : en:Chapter 08
  57. 00:31:48.698                             : en:Chapter 09
  58. 00:39:38.751                             : en:Chapter 10
  59. 00:44:41.053                             : en:Chapter 11
  60. 00:48:27.779                             : en:Chapter 12
  61. 00:56:54.994                             : en:Chapter 13
  62. 01:03:47.198                             : en:Chapter 14
  63. 01:09:40.134                             : en:Chapter 15
  64. 01:14:27.504                             : en:Chapter 16
复制代码

地下世界/下层社会 Underworld.1927.1080p.BluRay.x264.DTS-FGT 7.41GB-2.png 地下世界/下层社会 Underworld.1927.1080p.BluRay.x264.DTS-FGT 7.41GB-3.png 地下世界/下层社会 Underworld.1927.1080p.BluRay.x264.DTS-FGT 7.41GB-4.png







开通VIP免费下载本站所有资源---点这里
新手必看:资源下载常见问题---点这里
回复

使用道具 举报

懒得打字嘛,点击右侧快捷回复 【右侧内容,后台自定义】
您需要登录后才可以回帖 登录 | 立即加入

本版积分规则

现在加入蓝光电影网,注册一个账号

QQ| 手机版|小黑屋| 蓝光电影网 |网站地图

Copyright © 2015-2019 Comsenz Inc.  Template by 蓝光电影论坛 All Rights Reserved.

Powered by 蓝光电影网 X3.4

特别声明:本站所有资源均由网上收集而来,版权归原影音公司所有,如果侵犯了你的权益,请通知我们,我们会及时删除侵权内容.

快速回复 返回顶部 返回列表