找回密码

蓝光电影网

查看: 24|回复: 0

[喜剧片] 两大一小三俘虏/三个亡命徒 Three.Fugitives.1989.1080p.WEBRip.x264-RARBG 1.84GB

[复制链接]

 成长值: 1795

发表于 7 天前 | 显示全部楼层 |阅读模式
两大一小三俘虏/三个亡命徒 Three.Fugitives.1989.1080p.WEBRip.x264-RARBG 1.84GB-1.png

译  名 两大一小三俘虏 / 三个亡命徒 / 惊箐三人组
片  名 Three Fugitives
年  代 1989
产  地 美国
类  别 喜剧 / 动作
语  言 英语
上映日期 1989-01-27
IMDb评分  6.2/10 from 10030 users
IMDb链接  http://www.imdb.com/title/tt0098471
豆瓣评分 8.1/10 from 1003 users
豆瓣链接 https://movie.douban.com/subject/1306378/
片  长 96 分钟
导  演 Francis Veber
编  剧 Francis Veber
主  演 Nick Nolte
       Martin Short
       James Earl Jones


标  签 喜剧 | 美国 | 美国电影 | 犯罪 | 搞笑 | 1989 | 亲情 | 三个亡命徒

简  介  

  改编自法国片《逃犯》(LES FUGIFIF'S)的抢银行喜剧,将造物弄人的主题透过结构巧妙的故事发挥得淋漓尽致。尼克·诺尔蒂饰演刚出狱的大盗,他在银行遇上乌龙劫匪马丁·肖特,竞被劫持为人质,导致警方误以为他重操旧业,不得不展开逃亡。相处之下,诺尔蒂发现肖特其实有小人物的辛酸故事,并且跟他的小女儿莎拉·罗露产生了一段温馨的感情,从而也溶化了他冷傲的心。
  1. Video
  2. ID                                       : 1
  3. Format                                   : AVC
  4. Format/Info                              : Advanced Video Codec
  5. Format profile                           : High@L4
  6. Format settings                          : CABAC / 4 Ref Frames
  7. Format settings, CABAC                   : Yes
  8. Format settings, Reference frames        : 4 frames
  9. Codec ID                                 : avc1
  10. Codec ID/Info                            : Advanced Video Coding
  11. Duration                                 : 1 h 36 min
  12. Bit rate                                 : 2 500 kb/s
  13. Width                                    : 1 920 pixels
  14. Height                                   : 1 036 pixels
  15. Display aspect ratio                     : 1.85:1
  16. Frame rate mode                          : Constant
  17. Frame rate                               : 23.976 (23976/1000) FPS
  18. Color space                              : YUV
  19. Chroma subsampling                       : 4:2:0
  20. Bit depth                                : 8 bits
  21. Scan type                                : Progressive
  22. Bits/(Pixel*Frame)                       : 0.052
  23. Stream size                              : 1.68 GiB (92%)
  24. Writing library                          : x264 core 152 r2851M ba24899
  25. Encoding settings                        : cabac=1 / ref=4 / deblock=1:-1:-1 / analyse=0x3:0x113 / me=umh / subme=9 / psy=1 / psy_rd=1.00:0.15 / mixed_ref=1 / me_range=24 / chroma_me=1 / trellis=2 / 8x8dct=1 / cqm=0 / deadzone=21,11 / fast_pskip=1 / chroma_qp_offset=-3 / threads=16 / lookahead_threads=4 / sliced_threads=0 / nr=0 / decimate=1 / interlaced=0 / bluray_compat=0 / constrained_intra=0 / bframes=3 / b_pyramid=2 / b_adapt=2 / b_bias=0 / direct=3 / weightb=1 / open_gop=0 / weightp=2 / keyint=250 / keyint_min=25 / scenecut=40 / intra_refresh=0 / rc_lookahead=50 / rc=2pass / mbtree=1 / bitrate=2500 / ratetol=1.0 / qcomp=0.60 / qpmin=0 / qpmax=69 / qpstep=4 / cplxblur=20.0 / qblur=0.5 / vbv_maxrate=31250 / vbv_bufsize=31250 / nal_hrd=none / filler=0 / ip_ratio=1.40 / aq=3:1.00
  26. Encoded date                             : UTC 2019-10-08 23:45:13
  27. Tagged date                              : UTC 2019-10-08 23:45:13
  28. Codec configuration box                  : avcC

  29. Audio
  30. ID                                       : 2
  31. Format                                   : AAC LC
  32. Format/Info                              : Advanced Audio Codec Low Complexity
  33. Codec ID                                 : mp4a-40-2
  34. Duration                                 : 1 h 36 min
  35. Duration_LastFrame                       : -11 ms
  36. Bit rate mode                            : Constant
  37. Bit rate                                 : 224 kb/s
  38. Channel(s)                               : 2 channels
  39. Channel layout                           : L R
  40. Sampling rate                            : 48.0 kHz
  41. Frame rate                               : 46.875 FPS (1024 SPF)
  42. Compression mode                         : Lossy
  43. Stream size                              : 154 MiB (8%)
  44. Language                                 : English
  45. Default                                  : Yes
  46. Alternate group                          : 1
  47. Encoded date                             : UTC 2019-10-08 23:45:13
  48. Tagged date                              : UTC 2019-10-08 23:45:13
复制代码

两大一小三俘虏/三个亡命徒 Three.Fugitives.1989.1080p.WEBRip.x264-RARBG 1.84GB-2.png 两大一小三俘虏/三个亡命徒 Three.Fugitives.1989.1080p.WEBRip.x264-RARBG 1.84GB-3.png 两大一小三俘虏/三个亡命徒 Three.Fugitives.1989.1080p.WEBRip.x264-RARBG 1.84GB-4.png






开通VIP免费下载本站所有资源---点这里
新手必看:资源下载常见问题---点这里
回复

使用道具 举报

懒得打字嘛,点击右侧快捷回复 【右侧内容,后台自定义】
您需要登录后才可以回帖 登录 | 立即加入

本版积分规则

现在加入蓝光电影网,注册一个账号

QQ| 手机版|小黑屋| 蓝光电影网 |网站地图

Copyright © 2015-2019 Comsenz Inc.  Template by 蓝光电影论坛 All Rights Reserved.

Powered by 蓝光电影网 X3.4

特别声明:本站所有资源均由网上收集而来,版权归原影音公司所有,如果侵犯了你的权益,请通知我们,我们会及时删除侵权内容.

快速回复 返回顶部 返回列表