找回密码

蓝光电影网

查看: 133|回复: 3

[喜剧] 霹靂先鋒 Final.Justice.1988.1080p.BluRay.x264-aBD 6.55GB

[复制链接]

 成长值: 1840

发表于 2019-10-9 17:39:37 | 显示全部楼层 |阅读模式
霹靂先鋒 Final.Justice.1988.1080p.BluRay.x264-aBD 6.55GB-1.png

译  名 霹雳先锋 / Final Justice / Pik lik sin fung
片  名 霹靂先鋒
年  代 1988
产  地 中国香港
类  别 喜剧 / 动作 / 犯罪
语  言 粤语 / 英语
上映日期 1988-06-23(中国香港)
IMDb评分  6.2/10 from 227 users
IMDb链接  http://www.imdb.com/title/tt0126301
豆瓣评分 7.0/10 from 8591 users
豆瓣链接 https://movie.douban.com/subject/1871220/
片  长 95分钟
导  演 黄柏文 Parkman Wong
编  剧 冯瑞熊 James Fung
主  演 李修贤 Danny Lee
       周星驰 Stephen Chow
       成奎安 Fui-On Shing
       何家驹 Ka-Kui Ho
       黄光亮 Kwong Leung Wong
       韩坤 Victor Hon Kwan
       王俊棠 Ricky Wong Chun-Tong


标  签 周星驰 | 香港 | 李修贤 | 香港电影 | 动作 | 警匪 | 喜剧 | 1988

简  介  

  华探长张铁柱(李修贤 饰)打拼十几年才有了探长地位,此人嫉恶如仇不事逢迎,与新任督察罗Sir多有摩擦,辛苦破案结果反被后者刁难。另一方面,悍匪“法官”(成奎安 饰)一伙购枪策划大行动,偷车贼伟仔(周星驰 饰)被法官收为外围助手,向其提供犯罪用车。法官与手下狂牛(黄光亮 饰)和鸡翼( 何家驹 饰)等人洗劫赌档,同一天伟仔因偷车嫌疑被张铁柱抓捕入监,赌档事发,罗Sir不顾张铁柱作证将伟仔定为嫌疑人,令张与伟仔二人大为不满。张铁柱将伟仔释放,同时要求伟仔合作抓捕法官一伙。购入武器的法官一伙战力大增,行事愈发嚣张,与其他帮派当街火并,伟仔被卷入杀人案件,只得配合张铁柱,一警一贼终于开始合作……

获奖情况  

  第25届台北金马影展(1988)
  金马奖 最佳男配角 周星驰

  第8届香港电影金像奖(1989)
  最佳男配角(提名) 周星驰
  最佳新演员(提名) 周星驰
  1. Video
  2. ID                                       : 1
  3. Format                                   : AVC
  4. Format/Info                              : Advanced Video Codec
  5. Format profile                           : High@L4
  6. Format settings                          : CABAC / 4 Ref Frames
  7. Format settings, CABAC                   : Yes
  8. Format settings, ReFrames                : 4 frames
  9. Muxing mode                              : Header stripping
  10. Codec ID                                 : V_MPEG4/ISO/AVC
  11. Duration                                 : 1 h 37 min
  12. Bit rate                                 : 8 936 kb/s
  13. Width                                    : 1 920 pixels
  14. Height                                   : 1 040 pixels
  15. Display aspect ratio                     : 1.85:1
  16. Frame rate mode                          : Constant
  17. Frame rate                               : 24.000 FPS
  18. Color space                              : YUV
  19. Chroma subsampling                       : 4:2:0
  20. Bit depth                                : 8 bits
  21. Scan type                                : Progressive
  22. Bits/(Pixel*Frame)                       : 0.186
  23. Stream size                              : 5.98 GiB (91%)
  24. Writing library                          : x264 core 115 r1937 aa21558
  25. Encoding settings                        : cabac=1 / ref=4 / deblock=1:-1:-1 / analyse=0x3:0x113 / me=umh / subme=7 / psy=1 / psy_rd=1.00:0.00 / mixed_ref=1 / me_range=16 / chroma_me=1 / trellis=1 / 8x8dct=1 / cqm=0 / deadzone=21,11 / fast_pskip=1 / chroma_qp_offset=-2 / threads=12 / sliced_threads=0 / nr=0 / decimate=1 / interlaced=0 / bluray_compat=0 / constrained_intra=0 / bframes=3 / b_pyramid=2 / b_adapt=2 / b_bias=0 / direct=3 / weightb=1 / open_gop=0 / weightp=2 / keyint=250 / keyint_min=24 / scenecut=40 / intra_refresh=0 / rc_lookahead=40 / rc=2pass / mbtree=1 / bitrate=8936 / ratetol=1.0 / qcomp=0.60 / qpmin=0 / qpmax=69 / qpstep=4 / cplxblur=20.0 / qblur=0.5 / vbv_maxrate=50000 / vbv_bufsize=50000 / nal_hrd=none / ip_ratio=1.40 / aq=1:1.00
  26. Language                                 : Chinese
  27. Default                                  : Yes
  28. Forced                                   : Yes

  29. Audio
  30. ID                                       : 2
  31. Format                                   : AC-3
  32. Format/Info                              : Audio Coding 3
  33. Muxing mode                              : Header stripping
  34. Codec ID                                 : A_AC3
  35. Duration                                 : 1 h 37 min
  36. Bit rate mode                            : Constant
  37. Bit rate                                 : 640 kb/s
  38. Channel(s)                               : 6 channels
  39. Channel positions                        : Front: L C R, Side: L R, LFE
  40. Sampling rate                            : 48.0 kHz
  41. Frame rate                               : 31.250 FPS (1536 SPF)
  42. Bit depth                                : 16 bits
  43. Compression mode                         : Lossy
  44. Stream size                              : 448 MiB (7%)
  45. Language                                 : Chinese
  46. Service kind                             : Complete Main
  47. Default                                  : Yes
  48. Forced                                   : Yes

  49. Text
  50. ID                                       : 3
  51. Format                                   : UTF-8
  52. Codec ID                                 : S_TEXT/UTF8
  53. Codec ID/Info                            : UTF-8 Plain Text
  54. Language                                 : English
  55. Default                                  : Yes
  56. Forced                                   : No
复制代码

霹靂先鋒 Final.Justice.1988.1080p.BluRay.x264-aBD 6.55GB-2.png 霹靂先鋒 Final.Justice.1988.1080p.BluRay.x264-aBD 6.55GB-3.png 霹靂先鋒 Final.Justice.1988.1080p.BluRay.x264-aBD 6.55GB-4.png






开通VIP免费下载本站所有资源---点这里
新手必看:资源下载常见问题---点这里
回复

使用道具 举报

发表于 2019-10-9 18:50:03 | 显示全部楼层
非常感谢
开通VIP免费下载本站所有资源---点这里
新手必看:资源下载常见问题---点这里
回复

使用道具 举报

发表于 2019-10-10 08:21:30 | 显示全部楼层
楼主发贴辛苦了,谢谢楼主分享!我觉得蓝光电影网是注册对了!
开通VIP免费下载本站所有资源---点这里
新手必看:资源下载常见问题---点这里
回复 支持 反对

使用道具 举报

发表于 2019-10-10 21:08:57 | 显示全部楼层
楼主太厉害了!楼主,电影应该很好看我觉得蓝光电影网真是个好地方!
开通VIP免费下载本站所有资源---点这里
新手必看:资源下载常见问题---点这里
回复 支持 反对

使用道具 举报

懒得打字嘛,点击右侧快捷回复 【右侧内容,后台自定义】
您需要登录后才可以回帖 登录 | 立即加入

本版积分规则

现在加入蓝光电影网,注册一个账号

QQ| 手机版|小黑屋| 蓝光电影网 |网站地图

Copyright © 2015-2019 Comsenz Inc.  Template by 蓝光电影论坛 All Rights Reserved.

Powered by 蓝光电影网 X3.4

特别声明:本站所有资源均由网上收集而来,版权归原影音公司所有,如果侵犯了你的权益,请通知我们,我们会及时删除侵权内容.

快速回复 返回顶部 返回列表