找回密码

蓝光电影网

查看: 135|回复: 0

[剧情] 海灘的一天 That.Day.On.the.Beach.1983.1080p.BluRay.x264-SUMMERX 10.93GB

[复制链接]

 成长值: 1840

发表于 2019-10-9 17:38:11 | 显示全部楼层 |阅读模式
海灘的一天 That.Day.On.the.Beach.1983.1080p.BluRay.x264-SUMMERX 10.93GB-1.png

译  名 海滩的一天 / That Day, on the Beach
片  名 海灘的一天
年  代 1983
产  地 中国台湾
类  别 剧情 / 爱情
语  言 汉语普通话 / 闽南话 / 日语 / 德语
上映日期 1983 / 2017-07-14(中国台湾重映)
IMDb评分  7.5/10 from 602 users
IMDb链接  http://www.imdb.com/title/tt0085635
豆瓣评分 8.3/10 from 9234 users
豆瓣链接 https://movie.douban.com/subject/1298871/
片  长 166分钟
导  演 杨德昌 Edward Yang
编  剧 杨德昌 Edward Yang / 吴念真 Nien-Jen Wu
主  演 张艾嘉 Sylvia Chang
       胡因梦 Terry Hu
       徐明 Ming Hsu
       毛学维 David Mao
       左鸣翔 Ming-Hsiang Tso
       颜凤娇 Feng-Chiao Yen
       吴少刚 Siu Gong Ng
       梅芳 Fang Mei
       林瑞阳 Rui-Yang Lin
       南俊 Chun Nan
       小戽斗 Hou Tao Hsiao
       于守仁 Shou-Jen Yu
       孙明珠 Ming-chu Sun
       李淑桢 Ann Lee
       罗文诚 Wen-cheng Lo
       黄玉华 Yu-hua Huang
       李梦麟 Meng-lin Li
       珍妮弗·奥尼尔 Jennifer O'neal
       侯孝贤 Hsiao-hsien Hou
       陈坤厚 Kun Hao Chen
       柯一正 I-Chen Ko
       陶德辰 Te-chen Tao
       万仁 Wan Jen
       曾壮祥 Zhuang Xiang Zeng
       小野 Yeh Hsiao
       许淑贞 Shu-Chen Hsu
       段钟沂 Johnny Chung-Yi Tuan
       吴念真 Nien-Jen Wu
       李烈 Lieh Li


标  签 杨德昌 | 台湾 | 台湾电影 | 张艾嘉 | 楊德昌 | 1983 | 吴念真 | 張艾嘉

简  介  

  林佳莉(张艾嘉饰)成长于台湾南部传统小镇的医师家庭,她和哥哥林佳森(左鸣翔饰)二人自幼接受精英教育,从名校大学毕业。然而,佳莉不愿跟哥哥一样,被迫放弃恋人谭蔚青(胡因梦饰),而接受父亲之命所强加安排的婚姻。她毅然离家北上,和恋人程德伟(毛学维饰)在台北这个急速现代化的城市中结婚定居。
  然而,70、80年代经济起飞的台湾,商业竞争骤烈,德伟逐渐卷入那个金钱竞逐、应酬酒色的世界,最终迷失了自己。愈益感到孤单空虚的佳莉,一日接到电话告知:德伟已经淹死在海边。她赶赴海滩边,面对那一具不知道究竟是不是丈夫的尸体。
  多年后,佳莉重遇外国归来演出的谭蔚青,两人在咖啡厅回忆起旧事。

获奖情况  

  第20届台北金马影展(1983)
  金马奖 最佳剧情片(提名)
  金马奖 最佳导演(提名) 杨德昌
  金马奖 最佳原著剧本(提名) 杨德昌 / 吴念真
  1. Video
  2. ID : 3
  3. Format : AVC
  4. Format/Info : Advanced Video Codec
  5. Format profile : High@L4
  6. Format settings : CABAC / 4 Ref Frames
  7. Format settings, CABAC : Yes
  8. Format settings, RefFrames : 4 frames
  9. Muxing mode : Header stripping
  10. Codec ID : V_MPEG4/ISO/AVC
  11. Duration : 2 h 46 min
  12. Bit rate : 8 768 kb/s
  13. Width : 1 920 pixels
  14. Height : 1 040 pixels
  15. Display aspect ratio : 1.85:1
  16. Frame rate mode : Constant
  17. Frame rate : 24.000 FPS
  18. Color space : YUV
  19. Chroma subsampling : 4:2:0
  20. Bit depth : 8 bits
  21. Scan type : Progressive
  22. Bits/(Pixel*Frame) : 0.183
  23. Stream size : 9.97 GiB (91%)
  24. Writing library : x264 core 155 r2893 b00bcaf
  25. Encoding settings : cabac=1 / ref=4 / deblock=1:0:0 / analyse=0x3:0x113 / me=umh / subme=7 / psy=1 / psy_rd=1.00:0.00 / mixed_ref=1 / me_range=16 / chroma_me=1 / trellis=1 / 8x8dct=1 / cqm=0 / deadzone=21,11 / fast_pskip=0 / chroma_qp_offset=-2 / threads=12 / lookahead_threads=2 / sliced_threads=0 / nr=0 / decimate=1 / interlaced=0 / bluray_compat=0 / constrained_intra=0 / bframes=3 / b_pyramid=2 / b_adapt=1 / b_bias=0 / direct=1 / weightb=1 / open_gop=0 / weightp=2 / keyint=250 / keyint_min=23 / scenecut=40 / intra_refresh=0 / rc_lookahead=40 / rc=2pass / mbtree=1 / bitrate=8768 / ratetol=1.0 / qcomp=0.60 / qpmin=0 / qpmax=69 / qpstep=4 / cplxblur=20.0 / qblur=0.5 / ip_ratio=1.40 / aq=1:1.00
  26. Language : English
  27. Default : Yes
  28. Forced : No

  29. Audio
  30. ID : 1
  31. Format : AC-3
  32. Format/Info : Audio Coding 3
  33. Format settings, Endianness : Big
  34. Muxing mode : Header stripping
  35. Codec ID : A_AC3
  36. Duration : 2 h 46 min
  37. Bit rate mode : Constant
  38. Bit rate : 640 kb/s
  39. Channel(s) : 2 channels
  40. Channel positions : Front: L R
  41. Sampling rate : 48.0 kHz
  42. Frame rate : 31.250 FPS (1536 SPF)
  43. Bit depth : 16 bits
  44. Compression mode : Lossy
  45. Stream size : 762 MiB (7%)
  46. Service kind : Complete Main
  47. Language: Chinese
  48. Default : Yes
  49. Forced : No

  50. Text
  51. ID : 2
  52. Format : UTF-8
  53. Codec ID : S_TEXT/UTF8
  54. Codec ID/Info : UTF-8 Plain Text
  55. Language : English
  56. Default : Yes
  57. Forced : No
复制代码

海灘的一天 That.Day.On.the.Beach.1983.1080p.BluRay.x264-SUMMERX 10.93GB-2.png







开通VIP免费下载本站所有资源---点这里
新手必看:资源下载常见问题---点这里
回复

使用道具 举报

懒得打字嘛,点击右侧快捷回复 【右侧内容,后台自定义】
您需要登录后才可以回帖 登录 | 立即加入

本版积分规则

现在加入蓝光电影网,注册一个账号

QQ| 手机版|小黑屋| 蓝光电影网 |网站地图

Copyright © 2015-2019 Comsenz Inc.  Template by 蓝光电影论坛 All Rights Reserved.

Powered by 蓝光电影网 X3.4

特别声明:本站所有资源均由网上收集而来,版权归原影音公司所有,如果侵犯了你的权益,请通知我们,我们会及时删除侵权内容.

快速回复 返回顶部 返回列表