找回密码

蓝光电影网

查看: 101|回复: 1

[剧情] 一路有你 The.Road.Less.Traveled.2010.1080p.BluRay.x264-aBD 6.55GB

[复制链接]

 成长值: 1840

发表于 2019-10-9 17:36:44 | 显示全部楼层 |阅读模式
一路有你 The.Road.Less.Traveled.2010.1080p.BluRay.x264-aBD 6.55GB-1.png

译  名 The Road Less Travelled / 人迹罕至的路
片  名 一路有你
年  代 2010
产  地 中国香港 / 中国
类  别 剧情 / 爱情
语  言 汉语普通话 / 粤语
上映日期 2010-12-31
IMDb评分  6.3/10 from 101 users
IMDb链接  http://www.imdb.com/title/tt1797547
豆瓣评分 6.0/10 from 13930 users
豆瓣链接 https://movie.douban.com/subject/3574559/
片  长 108分钟
导  演 赵崇基 Sung Kee Chiu
编  剧 陈建忠 Kin Chung Chan / 赵崇基 Sung Kee Chiu
主  演 古天乐 Louis Koo
       莫文蔚 Karen Mok
       黄奕 Crystal Huang
       印小天 Xiaotian Yin
       陈西贝 Xibei Chen
       梁大维 Dawei Liang
       黎耀祥 Yiu-Cheung Lai


标  签 古天乐 | 莫文蔚 | 香港电影 | 爱情 | 香港 | 黄奕 | 一路有你 | 2010

简  介  

  小夫妻张谦(印小天 饰)和陆茵(黄奕 饰)在高速公路旁经营一家小餐馆。深夜,张谦骑车回家,因接到陆茵电话,没留意路况,被许城亮(古天乐 饰)驾驶的货柜车撞到。张谦死亡,赶来医院陆茵发现自己怀孕,却决定生下孩子,重开餐馆经营。城亮对车祸心存愧疚,事隔数月,鼓起勇气走进陆茵 的餐馆用餐,更在女友苏珊(莫文蔚 饰) 体谅下,主动帮忙店内杂务,两人渐成好友。后陆茵发现城亮就是撞死丈夫的司机,着城亮被张谦弟张军痛打致重伤……
  城亮回到家中与苏珊矛盾加深,发现两人之间已存在差异,经常大吵。陆茵进院生产,城亮守候照顾,陆茵感动,但她深信城亮只是责任,后把餐馆结束,带儿子回家乡重过新生活,并请城亮回到苏珊身边。但城亮却发觉一切都不复从前,最终跟苏珊分手。半年后,城亮再回国内找寻他相信的东西,去餐馆找陆茵,却发现已经人走楼空……
  1. Video
  2. ID                                       : 1
  3. Format                                   : AVC
  4. Format/Info                              : Advanced Video Codec
  5. Format profile                           : High@L4
  6. Format settings                          : CABAC / 5 Ref Frames
  7. Format settings, CABAC                   : Yes
  8. Format settings, ReFrames                : 5 frames
  9. Codec ID                                 : V_MPEG4/ISO/AVC
  10. Duration                                 : 1 h 47 min
  11. Bit rate                                 : 8 065 kb/s
  12. Width                                    : 1 920 pixels
  13. Height                                   : 816 pixels
  14. Display aspect ratio                     : 2.35:1
  15. Frame rate mode                          : Constant
  16. Frame rate                               : 24.000 FPS
  17. Color space                              : YUV
  18. Chroma subsampling                       : 4:2:0
  19. Bit depth                                : 8 bits
  20. Scan type                                : Progressive
  21. Bits/(Pixel*Frame)                       : 0.214
  22. Stream size                              : 5.94 GiB (91%)
  23. Writing library                          : x264 core 114 r1913 5fd3dce
  24. Encoding settings                        : cabac=1 / ref=5 / deblock=1:-1:-1 / analyse=0x3:0x113 / me=umh / subme=7 / psy=1 / psy_rd=1.00:0.00 / mixed_ref=1 / me_range=16 / chroma_me=1 / trellis=1 / 8x8dct=1 / cqm=0 / deadzone=21,11 / fast_pskip=1 / chroma_qp_offset=-2 / threads=12 / sliced_threads=0 / nr=0 / decimate=1 / interlaced=0 / constrained_intra=0 / bframes=3 / b_pyramid=2 / b_adapt=2 / b_bias=0 / direct=3 / weightb=1 / open_gop=0 / weightp=2 / keyint=250 / keyint_min=24 / scenecut=40 / intra_refresh=0 / rc_lookahead=40 / rc=2pass / mbtree=1 / bitrate=8065 / ratetol=1.0 / qcomp=0.60 / qpmin=0 / qpmax=69 / qpstep=4 / cplxblur=20.0 / qblur=0.5 / vbv_maxrate=50000 / vbv_bufsize=50000 / nal_hrd=none / ip_ratio=1.40 / aq=1:1.00
  25. Language                                 : Chinese
  26. Default                                  : Yes
  27. Forced                                   : Yes

  28. Audio
  29. ID                                       : 2
  30. Format                                   : AC-3
  31. Format/Info                              : Audio Coding 3
  32. Codec ID                                 : A_AC3
  33. Duration                                 : 1 h 47 min
  34. Bit rate mode                            : Constant
  35. Bit rate                                 : 640 kb/s
  36. Channel(s)                               : 6 channels
  37. Channel positions                        : Front: L C R, Side: L R, LFE
  38. Sampling rate                            : 48.0 kHz
  39. Frame rate                               : 31.250 FPS (1536 SPF)
  40. Bit depth                                : 16 bits
  41. Compression mode                         : Lossy
  42. Stream size                              : 493 MiB (7%)
  43. Language                                 : Chinese
  44. Service kind                             : Complete Main
  45. Default                                  : Yes
  46. Forced                                   : Yes

  47. Text
  48. ID                                       : 3
  49. Format                                   : UTF-8
  50. Codec ID                                 : S_TEXT/UTF8
  51. Codec ID/Info                            : UTF-8 Plain Text
  52. Language                                 : English
  53. Default                                  : Yes
  54. Forced                                   : No
复制代码

一路有你 The.Road.Less.Traveled.2010.1080p.BluRay.x264-aBD 6.55GB-2.png 一路有你 The.Road.Less.Traveled.2010.1080p.BluRay.x264-aBD 6.55GB-3.png 一路有你 The.Road.Less.Traveled.2010.1080p.BluRay.x264-aBD 6.55GB-4.png






开通VIP免费下载本站所有资源---点这里
新手必看:资源下载常见问题---点这里
回复

使用道具 举报

发表于 2019-10-9 19:29:18 | 显示全部楼层
感謝分享這影片
开通VIP免费下载本站所有资源---点这里
新手必看:资源下载常见问题---点这里
回复 支持 反对

使用道具 举报

懒得打字嘛,点击右侧快捷回复 【右侧内容,后台自定义】
您需要登录后才可以回帖 登录 | 立即加入

本版积分规则

现在加入蓝光电影网,注册一个账号

QQ| 手机版|小黑屋| 蓝光电影网 |网站地图

Copyright © 2015-2019 Comsenz Inc.  Template by 蓝光电影论坛 All Rights Reserved.

Powered by 蓝光电影网 X3.4

特别声明:本站所有资源均由网上收集而来,版权归原影音公司所有,如果侵犯了你的权益,请通知我们,我们会及时删除侵权内容.

快速回复 返回顶部 返回列表